osu file format v12

[General]
AudioFilename: Dear Future ~TV size~.mp3
AudioLeadIn: 0
PreviewTime: 81110
Countdown: 0
SampleSet: Soft
StackLeniency: 0.8
Mode: 0
LetterboxInBreaks: 0
WidescreenStoryboard: 0

[Editor]
Bookmarks: 3967,10396,12538,22062,32300,39205,44919,69681,83015,90634
DistanceSpacing: 1.2
BeatDivisor: 4
GridSize: 4

[Metadata]
Title:DEAR FUTURE (TV Size)
TitleUnicode:DEAR FUTURE (TV Size)
Artist:Coaltar of the Deepers
ArtistUnicode:Coaltar of the Deepers
Creator:UnderminE
Version:Normal
Source:Mawaru Penguindrum
Tags:ending brain's base penguin drum
BeatmapID:191757
BeatmapSetID:62413

[Difficulty]
HPDrainRate:3
CircleSize:4
OverallDifficulty:3
ApproachRate:5
SliderMultiplier:1.2
SliderTickRate:1

[Events]
//Background and Video events
0,0,"BG.jpg",0,0
Video,-240,"mawaruP.avi"
//Break Periods
//Storyboard Layer 0 (Background)
//Storyboard Layer 1 (Fail)
//Storyboard Layer 2 (Pass)
//Storyboard Layer 3 (Foreground)
//Storyboard Sound Samples
//Background Colour Transformations
3,100,0,0,0

[TimingPoints]
1110,476.190476190476,4,1,0,35,1,0
3967,-100,4,1,0,55,0,0
4443,-100,4,1,0,60,0,0
4919,-100,4,1,0,55,0,0
5395,-100,4,2,0,60,0,0
5514,-100,4,1,0,55,0,0
6348,-100,4,2,0,60,0,0
6586,-100,4,1,0,55,0,0
8014,-100,4,1,0,35,0,0
8252,-100,4,2,0,60,0,0
8729,-100,4,1,0,55,0,0
9443,-100,4,2,0,60,0,0
9681,-100,4,1,0,55,0,0
10157,-100,4,2,0,60,0,0
10395,-100,4,1,0,55,0,0
11109,-100,4,2,0,60,0,0
11229,-100,4,1,0,55,0,0
12062,-100,4,2,0,60,0,0
12538,-100,4,1,0,55,0,0
15871,-100,4,2,0,60,0,0
16348,-100,4,1,0,55,0,0
17776,-100,4,2,0,60,0,0
18014,-100,4,1,0,55,0,0
19681,-100,4,2,0,60,0,0
20157,-100,4,1,0,55,0,0
20633,-100,4,2,0,60,0,0
20871,-100,4,1,0,55,0,0
21586,-100,4,2,0,60,0,0
22062,-100,4,1,0,65,0,0
23490,-100,4,2,0,70,0,0
23967,-100,4,1,0,65,0,0
25395,-100,4,2,0,70,0,0
25871,-100,4,1,0,65,0,0
27300,-100,4,2,0,70,0,0
27776,-100,4,1,0,65,0,0
29205,-100,4,2,0,70,0,0
29324,-100,4,1,0,65,0,0
31109,-100,4,2,0,70,0,0
31586,-100,4,1,0,60,0,0
33014,-100,4,2,0,70,0,0
33490,-100,4,1,0,60,0,0
34919,-100,4,2,0,70,0,0
35395,-100,4,1,0,60,0,0
38252,-100,4,3,0,85,0,0
39205,-100,4,1,0,80,0,0
40157,-100,4,1,0,60,0,0
42062,-100,4,2,0,65,0,0
43014,-100,4,1,0,80,0,0
43967,-100,4,1,0,60,0,0
45871,-100,4,2,0,65,0,0
46586,-100,4,1,0,60,0,0
46824,-100,4,2,0,70,0,0
47062,-100,4,1,0,80,0,0
47776,-100,4,1,0,60,0,0
49681,-100,4,2,0,65,0,0
50633,-100,4,2,0,70,0,0
51109,-100,4,1,0,45,0,0
53729,-100,4,2,0,5,0,0
54443,-100,4,1,0,80,0,0
55395,-100,4,1,0,60,0,0
57300,-100,4,2,0,70,0,0
58252,-100,4,1,0,80,0,0
59205,-100,4,1,0,60,0,0
61109,-100,4,2,0,70,0,0
62062,-100,4,1,0,80,0,0
64919,-100,4,2,0,70,0,0
65157,-100,4,1,0,60,0,0
65395,-100,4,2,0,70,0,0
65871,-100,4,2,0,70,0,0
68967,-100,4,2,0,5,0,0
69681,-100,4,2,0,65,0,0
73490,-100,4,2,0,70,0,0
77300,-100,4,2,0,75,0,0
81109,-200,4,2,0,65,0,0
82062,-200,4,2,0,30,0,0
83014,-100,4,1,0,60,0,1
86348,-100,4,2,0,75,0,1
86824,-100,4,1,0,60,0,1
90633,-100,4,2,0,55,0,0

[Colours]
Combo1 : 100,89,230
Combo2 : 226,150,65
Combo3 : 249,40,119

[HitObjects]
32,204,3967,21,0,0:0:0:0:
56,272,4205,1,0,0:0:0:0:
116,312,4443,1,4,0:0:0:0:
256,272,4919,5,4,0:0:0:0:
256,200,5157,2,0,B|256:176|256:140,2,60,0|2|0,0:0|0:0|0:0,0:0:0:0:
328,200,5871,2,0,P|336:256|388:288,1,120,0|2,0:0|0:0,0:0:0:0:
400,216,6586,1,0,0:0:0:0:
256,184,7062,6,0,P|236:129|181:108,1,120,0|2,0:0|0:2,0:0:0:0:
128,156,7776,2,0,P|147:210|202:231,1,120,0|6,0:0|0:0,0:0:0:0:
308,232,8729,6,0,B|344:180,1,60,0|2,0:0|2:0,0:0:0:0:
416,180,9205,2,0,B|452:232,1,60,0|2,0:0|0:0,0:0:0:0:
436,300,9681,2,0,B|408:324|380:300|380:300|356:324|328:300,1,120,0|2,0:0|0:0,0:0:0:0:
264,272,10396,2,0,B|236:248|212:272|212:272|184:248|156:272,1,120
84,280,11109,2,0,P|116:332|172:344,1,120,2|0,0:0|0:0,0:0:0:0:
312,320,12062,1,6,0:0:0:0:
384,192,12538,6,0,B|383:245|439:245|439:293,2,120,0|0|0,0:0|0:0|0:0,0:0:0:0:
256,120,13967,1,2,2:0:0:0:
244,192,14205,2,0,B|244:245|188:245|188:293,1,120,0|2,0:0|0:2,0:0:0:0:
132,340,14919,1,0,0:0:0:0:
44,228,15395,1,0,0:0:0:0:
156,136,15872,1,2,0:0:0:0:
224,260,16348,6,0,B|252:272|284:260,2,60
224,116,17300,2,0,B|252:104|284:116,1,60
344,156,17777,1,2,0:0:0:0:
384,216,18015,2,0,B|408:284|360:328,1,120
320,264,18729,2,0,P|298:209|243:187,1,120
264,336,19681,1,2,0:0:0:0:
164,232,20157,6,0,B|208:276,1,60,0|0,0:0|0:0,0:0:0:0:
260,224,20634,2,0,L|300:176,2,60,2|2|0,0:0|2:0|0:0,0:0:0:0:
208,172,21348,2,0,B|168:128,1,60,0|2,0:0|0:0,0:0:0:0:
312,108,22062,1,4,0:0:0:0:
440,172,22538,6,0,P|413:222|356:244,1,120
312,108,23491,1,2,0:0:0:0:
280,248,23967,2,0,P|224:268|196:320,1,120
140,360,24681,1,0,0:0:0:0:
84,316,24919,2,0,P|55:264|0:243,1,120,0|2,0:0|0:0,0:0:0:0:
136,192,25871,6,0,L|136:132,2,60,0|0|0,0:0|0:0|0:0,0:0:0:0:
132,48,26824,2,0,P|76:68|48:120,1,120,0|2,0:0|0:0,0:0:0:0:
172,184,27777,2,0,P|132:196|80:184,2,90
172,112,28729,2,0,B|200:72|248:100|276:56,2,120,0|2|0,0:0|0:0|0:0,0:0:0:0:
56,196,30157,5,0,0:0:0:0:
112,152,30396,1,0,0:0:0:0:
172,196,30634,2,0,B|217:212|203:266|252:284,1,120,0|2,0:0|0:0,0:0:0:0:
396,284,31586,2,0,P|436:248|444:204,2,90
328,260,32538,2,0,B|288:208|312:144,1,120,0|2,0:0|0:0,0:0:0:0:
456,136,33491,1,0,0:0:0:0:
352,36,33967,6,0,P|320:40|292:36,1,60,0|0,0:0|0:0,0:0:0:0:
228,72,34443,2,0,P|172:64|104:72,1,120,0|2,0:0|0:0,0:0:0:0:
16,180,35395,2,0,P|72:188|136:180,1,120,0|2,0:0|2:0,0:0:0:0:
192,136,36109,1,0,0:0:0:0:
260,164,36348,2,0,P|304:204|332:260,1,120,0|2,0:0|2:2,0:0:0:0:
472,288,37300,5,0,0:0:0:0:
448,144,37777,1,0,0:0:0:0:
320,212,38253,2,0,L|320:252,2,30
320,140,38729,1,0,0:0:0:0:
260,100,38967,1,0,0:0:0:0:
192,72,39205,6,2,B|132:124|132:228|192:288,1,240,4|2,2:0|0:0,0:0:0:0:
332,320,40633,1,2,0:0:0:0:
440,220,41110,2,0,B|476:245|478:289,2,60
424,76,42062,1,2,0:0:0:0:
424,76,42538,1,2,0:0:0:0:
368,208,43014,6,2,P|260:168|144:208,1,240,2|2,2:2|0:0,0:0:0:0:
256,300,44443,1,2,0:0:0:0:
112,280,44919,2,0,L|88:260|72:232,1,60
140,208,45396,2,0,P|124:188|100:160,2,60,0|0|2,0:0|0:0|0:0,0:0:0:0:
28,116,46348,2,0,L|64:68,1,60,2|0,0:0|0:0,0:0:0:0:
136,80,46824,6,2,B|232:144|368:124,1,240,2|2,0:0|0:0,0:0:0:0:
412,260,48252,1,2,0:0:0:0:
412,260,48729,2,0,L|352:264,1,60
288,228,49205,2,0,P|279:199|287:170,2,60,0|0|2,0:0|0:0|0:0,0:0:0:0:
160,296,50157,2,0,P|215:316|272:300,1,120,2|2,0:0|0:0,0:0:0:0:
256,192,51110,12,0,53967,0:0:0:0:
264,72,54443,6,2,B|326:96|329:162,2,120,4|0|2,0:0|0:0|0:0,0:0:0:0:
140,148,55871,1,2,0:0:0:0:
156,292,56348,2,0,P|252:348|356:288,1,240,0|2,0:0|0:0,0:0:0:0:
256,184,57776,1,2,0:0:0:0:
356,80,58253,6,2,P|256:24|156:80,1,240,0|2,2:0|0:0,0:0:0:0:
256,184,59681,1,2,0:0:0:0:
136,264,60157,2,0,P|108:248|90:225,1,60
92,156,60634,2,0,P|109:134|137:118,2,60,0|0|2,0:0|0:0|0:0,0:0:0:0:
200,60,61586,1,2,0:0:0:0:
316,140,62062,6,2,B|372:144|372:144|388:112|432:96,1,120,2|2,2:0|0:0,0:0:0:0:
336,220,63015,2,2,B|280:216|280:216|264:248|233:258,1,120,2|0,0:0|0:0,0:0:0:0:
248,116,63967,2,0,B|216:60,2,60,0|0|0,0:0|0:0|0:0,0:0:0:0:
392,116,64919,2,0,B|424:60,2,60,2|0|2,0:0|0:0|0:0,0:0:0:0:
332,248,65872,1,2,0:0:0:0:
256,192,66348,12,0,69205,0:0:0:0:
360,276,69681,6,2,P|256:328|152:272,2,240
256,176,72062,2,0,L|256:56,1,120,0|2,0:0|0:0,0:0:0:0:
44,248,73490,6,2,B|136:248|136:248|168:200|200:176|256:176,2,240
156,340,75871,2,0,L|276:340,1,120,0|2,0:0|0:0,0:0:0:0:
244,52,77300,6,2,P|352:66|384:184,2,240
164,172,79681,1,0,0:0:0:0:
272,260,80157,1,2,0:0:0:0:
372,156,81110,6,2,B|398:108|398:108|430:106|457:71,1,120
272,300,83015,6,2,P|188:324|140:248,1,180,4|0,0:0|0:0,0:0:0:0:
214,253,83967,2,2,P|162:185|81:210,1,180,0|0,0:0|0:0,0:0:0:0:
152,80,85157,2,2,P|208:104|284:108,1,120,0|2,0:0|0:0,0:0:0:0:
316,56,85871,2,2,P|375:62|430:85,1,120
468,224,86824,6,2,B|424:300|332:344,1,180
276,304,87777,2,2,B|212:256|104:264,1,180
156,128,88968,1,0,0:0:0:0:
216,164,89205,2,2,P|284:168|348:136,1,120,2|0,0:2|0:0,0:0:0:0:
376,92,89919,1,2,0:2:0:0:
448,108,90157,2,2,L|464:172,1,60,2|0,0:0|0:0,0:0:0:0:
404,208,90634,5,2,0:0:0:0:
