osu file format v12

[General]
AudioFilename: Dear Future ~TV size~.mp3
AudioLeadIn: 0
PreviewTime: 81110
Countdown: 0
SampleSet: Normal
StackLeniency: 0.8
Mode: 0
LetterboxInBreaks: 0
WidescreenStoryboard: 0

[Editor]
Bookmarks: 3967,22062,31705,32300,39205,44919,61348,69681,83015,90634
DistanceSpacing: 1.3
BeatDivisor: 4
GridSize: 4

[Metadata]
Title:DEAR FUTURE (TV Size)
TitleUnicode:DEAR FUTURE (TV Size)
Artist:Coaltar of the Deepers
ArtistUnicode:Coaltar of the Deepers
Creator:UnderminE
Version:Hard
Source:Mawaru Penguindrum
Tags:ending brain's base penguin drum
BeatmapID:334176
BeatmapSetID:62413

[Difficulty]
HPDrainRate:6
CircleSize:4
OverallDifficulty:6
ApproachRate:7
SliderMultiplier:1.5
SliderTickRate:2

[Events]
//Background and Video events
0,0,"BG.jpg",0,0
Video,-240,"mawaruP.avi"
//Break Periods
//Storyboard Layer 0 (Background)
//Storyboard Layer 1 (Fail)
//Storyboard Layer 2 (Pass)
//Storyboard Layer 3 (Foreground)
//Storyboard Sound Samples
//Background Colour Transformations
3,100,0,0,0

[TimingPoints]
1110,476.190476190476,4,1,0,55,1,0
4443,-100,4,1,0,60,0,0
4919,-100,4,1,0,55,0,0
38252,-100,4,3,0,65,0,0
38729,-100,4,3,0,70,0,0
39205,-100,4,1,0,55,0,0
53490,-100,4,1,0,5,0,0
54443,-100,4,1,0,55,0,0
68729,-100,4,2,0,5,0,0
69681,-133.333333333333,4,2,0,55,0,0
73490,-133.333333333333,4,2,0,50,0,0
77300,-133.333333333333,4,2,0,45,0,0
81109,-133.333333333333,4,2,0,35,0,0
83014,-100,4,1,0,55,0,1
90633,-100,4,2,0,20,0,0

[Colours]
Combo1 : 100,89,230
Combo2 : 226,150,65
Combo3 : 249,40,119

[HitObjects]
184,116,3967,37,0,0:0:0:0:
256,40,4205,1,0,0:0:0:0:
328,116,4443,1,4,0:0:0:0:
424,284,4919,6,0,L|374:340,1,75,4|0,0:0|0:0,0:0:0:0:
280,320,5395,2,0,L|329:263,1,75
384,184,5871,2,0,P|384:112|344:48,1,150,2|0,0:2|0:0,0:0:0:0:
194,48,6586,2,0,L|344:48,1,150,2|0,0:2|0:0,0:0:0:0:
219,136,7300,6,0,L|144:136,1,75
120,48,7776,1,0,0:0:0:0:
120,48,7895,1,2,0:2:0:0:
120,48,8014,1,0,0:0:0:0:
56,120,8252,2,0,L|56:195,1,75,0|2,0:0|0:2,0:0:0:0:
56,347,8729,6,0,L|56:272,1,75,0|2,0:0|0:2,0:0:0:0:
144,229,9205,2,0,L|144:304,1,75,2|0,0:2|0:0,0:0:0:0:
200,148,9681,2,0,P|272:132|344:152,1,150,0|2,0:0|0:2,0:0:0:0:
288,232,10395,2,0,P|360:252|432:232,1,150,2|0,0:2|0:0,0:0:0:0:
424,65,11109,6,0,P|440:96|452:136,1,75,0|2,0:0|2:0,0:0:0:0:
356,156,11586,1,0,0:0:0:0:
356,156,11705,1,2,0:2:0:0:
272,104,11943,1,2,0:2:0:0:
272,104,12062,1,0,0:0:0:0:
384,248,12300,1,0,0:0:0:0:
384,248,12538,6,0,L|334:304,1,75,0|2,0:0|0:2,0:0:0:0:
240,280,13014,2,0,L|289:223,1,75,0|2,0:0|0:2,0:0:0:0:
212,164,13490,2,0,P|152:244|112:252,1,112.5
96,248,13967,2,0,P|76:216|64:176,1,75,0|4,0:0|0:2,0:0:0:0:
68,60,14443,5,2,0:2:0:0:
68,60,14562,1,0,0:0:0:0:
68,60,14681,1,0,0:0:0:0:
40,152,14919,1,2,0:2:0:0:
68,256,15157,1,2,0:2:0:0:
152,304,15395,2,0,L|205:250,1,75
136,180,15871,2,0,L|144:104,1,75,0|2,0:0|0:2,0:0:0:0:
232,64,16348,6,0,B|272:120|252:168|284:208,2,150,0|0|2,0:0|0:0|0:2,0:0:0:0:
328,44,17538,2,0,P|368:48|412:44,1,75,0|2,0:0|0:2,0:0:0:0:
500,64,18014,2,0,B|460:120|480:168|449:204,2,150,0|0|2,0:0|0:0|0:2,0:0:0:0:
366,141,19205,2,0,L|356:216,1,75,0|2,0:0|0:2,0:0:0:0:
268,280,19681,2,0,L|257:205,1,75,0|4,0:0|0:2,0:0:0:0:
180,148,20157,5,0,0:0:0:0:
200,52,20395,1,0,0:0:0:0:
332,148,20633,1,2,0:2:0:0:
312,52,20871,1,2,0:2:0:0:
256,132,21109,1,0,0:0:0:0:
256,132,21229,1,0,0:0:0:0:
256,132,21348,1,0,0:0:0:0:
256,228,21586,1,2,0:2:0:0:
256,228,21824,1,2,0:2:0:0:
340,308,22062,6,0,P|420:316|464:264,1,150,4|0,0:0|0:0,0:0:0:0:
508,184,22776,2,0,P|423:184|384:232,1,150,0|2,0:0|0:2,0:0:0:0:
264,300,23490,2,0,L|338:308,1,75,0|2,0:0|0:2,0:0:0:0:
172,320,23967,6,0,P|100:331|49:280,1,150,0|2,0:0|0:2,0:0:0:0:
12,188,24681,2,0,P|84:182|135:234,1,150,2|0,0:2|0:2,0:0:0:0:
232,220,25395,2,0,P|236:188|256:144,2,75,2|0|4,0:2|0:0|0:2,0:0:0:0:
320,260,26109,1,0,0:0:0:0:
416,268,26348,6,0,P|432:228|436:196,1,75,0|2,0:0|0:2,0:0:0:0:
348,92,26824,2,0,P|385:95|420:108,1,75,0|2,0:0|0:2,0:0:0:0:
480,32,27300,1,0,0:0:0:0:
480,32,27419,1,2,0:2:0:0:
480,32,27538,1,0,0:0:0:0:
420,108,27776,6,0,P|312:128|216:68,1,225
72,176,28729,2,0,P|180:156|276:216,1,225,2|0,0:2|0:0,0:0:0:0:
332,288,29681,6,0,L|412:308,1,75,4|0,0:2|0:0,0:0:0:0:
368,216,30157,2,0,L|447:193,1,75
364,136,30633,2,0,L|421:76,1,75,2|2,0:2|0:2,0:0:0:0:
368,216,31109,2,0,L|292:216,1,75
228,164,31586,6,0,P|216:224|228:276,1,112.5
232,320,32062,2,0,L|148:356,1,75,2|2,0:2|0:2,0:0:0:0:
68,332,32538,2,0,P|78:282|66:222,1,112.5
68,172,33014,2,0,L|136:140,1,75
152,44,33490,1,6,0:2:0:0:
152,44,33609,1,0,0:0:0:0:
152,44,33729,1,2,0:2:0:0:
228,104,33967,5,0,0:0:0:0:
324,124,34205,1,0,0:0:0:0:
296,32,34443,1,2,0:2:0:0:
260,196,34681,1,2,0:2:0:0:
384,48,34919,1,0,0:0:0:0:
384,48,35038,1,2,0:2:0:0:
384,48,35157,1,0,0:0:0:0:
420,240,35395,6,0,P|348:316|316:324,1,112.5
296,308,35871,2,0,P|252:304|216:312,1,75,2|0,0:2|0:0,0:0:0:0:
136,352,36348,1,0,0:0:0:0:
44,240,36586,2,0,P|123:249|195:233,1,150,6|0,0:2|0:0,0:0:0:0:
272,180,37300,5,2,0:2:0:0:
52,132,37657,1,0,0:0:0:0:
180,64,38014,1,0,0:0:0:0:
56,256,38252,2,0,L|92:284,1,37.5,2|0,0:0|0:0,0:0:0:0:
240,308,38609,2,0,L|205:294,1,37.5,0|2,0:0|0:0,0:0:0:0:
156,208,38967,1,0,0:0:0:0:
180,216,39086,1,0,0:0:0:0:
208,220,39205,6,2,P|276:224|360:192,1,150,6|0,0:0|0:0,0:0:0:0:
328,104,39919,1,0,0:0:0:0:
292,12,40157,2,0,P|236:16|180:44,2,112.5,2|0|0,0:0|0:0|0:0,0:0:0:0:
152,104,41109,6,2,P|140:140|108:168,1,75,0|2,0:0|0:2,0:2:0:0:
160,268,41586,2,2,P|172:232|204:204,1,75,2|0,0:2|0:0,0:2:0:0:
288,164,42062,1,2,0:2:0:0:
288,164,42181,1,0,0:0:0:0:
288,164,42300,1,0,0:0:0:0:
264,260,42538,1,2,0:2:0:0:
180,312,42776,1,2,0:2:0:0:
140,308,42895,1,0,0:0:0:0:
104,292,43014,6,2,P|56:260|56:172,1,150
148,204,43729,1,0,0:0:0:0:
116,112,43967,2,0,P|168:96|224:112,2,112.5,2|0|0,0:0|0:0|0:0,0:0:0:0:
148,204,44919,6,2,P|185:205|220:194,1,75,2|0,2:2|0:0,0:2:0:0:
292,128,45395,2,2,P|271:97|268:60,1,75,0|2,0:0|0:2,0:0:0:0:
368,68,45871,1,2,0:2:0:0:
368,68,45990,1,0,0:0:0:0:
368,68,46109,1,0,0:0:0:0:
404,160,46348,2,0,L|404:236,1,75,2|0,0:2|0:0,0:0:0:0:
352,320,46824,6,0,P|408:332|460:320,1,112.5,4|2,0:0|0:0,0:0:0:0:
476,272,47300,2,2,L|488:192,1,75
352,320,47776,1,0,0:0:0:0:
352,320,47895,1,0,0:0:0:0:
352,320,48014,1,2,0:0:0:0:
268,268,48252,2,2,L|256:193,1,75,0|2,0:0|0:0,0:0:0:0:
232,100,48729,5,0,0:0:0:0:
80,84,48967,1,2,0:2:0:0:
148,156,49205,1,2,0:2:0:0:
160,32,49443,1,0,0:1:0:0:
232,188,49681,2,0,P|272:216|384:216,2,150,2|2|2,2:0|2:0|2:0,0:0:0:0:
256,192,51109,12,0,53967,0:0:0:0:
184,152,54443,6,2,P|192:80|316:168,1,300,6|2,0:0|0:0,0:0:0:0:
196,228,55752,2,0,L|308:228,1,112.5,2|2,0:0|0:0,0:0:0:0:
384,168,56348,6,2,L|392:88,1,75,2|2,0:0|0:2,0:0:0:0:
316,28,56824,2,2,L|308:108,1,75,2|0,0:2|0:0,0:0:0:0:
220,60,57300,1,2,0:2:0:0:
132,104,57538,1,0,0:0:0:0:
220,60,57776,1,2,0:2:0:0:
322,230,58252,6,2,P|190:302|183:230,1,300,6|2,0:0|0:0,0:0:0:0:
312,160,59562,2,0,L|200:160,1,112.5,2|2,0:0|0:0,0:0:0:0:
112,200,60157,6,2,L|104:280,1,75,0|2,0:0|0:2,0:0:0:0:
180,340,60633,2,2,L|188:260,1,75,2|2,0:0|0:2,0:0:0:0:
276,308,61109,1,2,0:2:0:0:
364,264,61347,1,0,0:0:0:0:
276,308,61585,1,2,0:2:0:0:
364,264,61824,1,0,0:0:0:0:
364,264,61943,1,0,0:0:0:0:
364,264,62062,6,2,P|396:202|464:218,2,150,4|2|2,0:0|0:0|0:0,0:0:0:0:
344,120,63371,2,0,L|232:120,1,112.5,2|2,0:0|0:0,0:0:0:0:
252,216,63967,6,2,L|332:216,1,75,2|2,0:0|0:2,0:0:0:0:
308,312,64443,2,2,L|232:312,1,75,2|2,0:0|0:2,0:0:0:0:
148,264,64919,2,0,P|116:201|48:216,2,150,2|2|2,0:2|0:2|0:2,0:0:0:0:
256,192,66348,12,0,69205,0:0:0:0:
353,283,69681,6,2,P|253:327|156:280,2,225.000008583069
412,204,71903,2,0,L|436:124,2,75.000002861023,2|0|2,0:0|0:0|0:0,0:0:0:0:
316,208,72856,2,0,L|292:132,1,75.000002861023,0|2,0:0|0:0,0:0:0:0:
196,120,73490,6,2,P|280:51|388:88,2,225.000008583069
156,208,75713,2,0,L|128:280,2,75.000002861023,2|0|2,0:0|0:0|0:0,0:0:0:0:
252,216,76665,2,0,L|280:296,1,75.000002861023,0|2,0:0|0:0,0:0:0:0:
364,328,77300,6,2,P|448:254|448:124,2,225.000008583069
268,324,79522,2,0,L|220:264,2,75.000002861023,2|0|2,0:0|0:0|0:0,0:0:0:0:
336,256,80475,2,0,L|376:192,1,75.000002861023,0|2,0:0|0:0,0:0:0:0:
251,132,81109,6,0,P|168:202|157:311,2,225.000008583069
192,56,83252,5,2,0:2:0:0:
192,56,83490,2,2,P|228:52|280:24,1,75,0|2,0:2|0:2,0:0:0:0:
360,44,83967,1,0,0:0:0:0:
360,44,84086,1,2,0:2:0:0:
360,44,84205,1,0,0:0:0:0:
348,140,84443,2,2,P|312:144|260:172,1,75
180,152,84919,1,0,0:0:0:0:
120,296,85157,6,2,P|156:276|188:232,2,75,0|2|0,0:0|0:2|0:0,0:0:0:0:
56,220,85871,1,2,0:2:0:0:
56,220,85990,1,0,0:0:0:0:
72,88,86229,1,0,0:0:0:0:
72,88,86348,1,2,0:2:0:0:
180,152,86586,1,0,0:0:0:0:
156,248,86824,6,2,P|169:282|195:310,1,75,0|0,0:2|0:0,0:0:0:0:
288,340,87300,1,2,0:2:0:0:
336,256,87538,2,2,P|364:228|402:211,1,75,2|0,0:2|0:0,0:0:0:0:
408,116,88014,1,0,0:0:0:0:
320,72,88252,2,2,P|284:68|240:72,1,75,2|2,0:0|0:0,0:0:0:0:
168,128,88729,5,2,0:2:0:0:
168,128,88848,1,2,0:2:0:0:
168,128,88967,1,0,0:0:0:0:
188,244,89205,2,2,P|256:272|324:244,1,150,0|2,0:0|0:2,0:0:0:0:
464,336,89919,2,2,P|396:308|328:336,1,150,2|0,0:2|0:0,0:0:0:0:
404,212,90633,5,2,0:2:0:0:
