osu file format v12

[General]
AudioFilename: Dear Future ~TV size~.mp3
AudioLeadIn: 0
PreviewTime: 81110
Countdown: 0
SampleSet: Soft
StackLeniency: 0.7
Mode: 0
LetterboxInBreaks: 0
WidescreenStoryboard: 0

[Editor]
Bookmarks: 3967,22062,32300,39205,44919,69681,83015,90634
DistanceSpacing: 1.2
BeatDivisor: 4
GridSize: 4

[Metadata]
Title:DEAR FUTURE (TV Size)
TitleUnicode:DEAR FUTURE (TV Size)
Artist:Coaltar of the Deepers
ArtistUnicode:Coaltar of the Deepers
Creator:UnderminE
Version:Easy
Source:Mawaru Penguindrum
Tags:ending brain's base penguin drum
BeatmapID:185227
BeatmapSetID:62413

[Difficulty]
HPDrainRate:2
CircleSize:3
OverallDifficulty:2
ApproachRate:3
SliderMultiplier:0.8
SliderTickRate:1

[Events]
//Background and Video events
0,0,"BG.jpg",0,0
Video,-240,"mawaruP.avi"
//Break Periods
//Storyboard Layer 0 (Background)
//Storyboard Layer 1 (Fail)
//Storyboard Layer 2 (Pass)
//Storyboard Layer 3 (Foreground)
//Storyboard Sound Samples
//Background Colour Transformations
3,100,0,0,0

[TimingPoints]
1110,476.190476190476,4,1,0,35,1,0
3967,-100,4,1,0,55,0,0
4443,-100,4,1,0,60,0,0
4919,-100,4,1,0,55,0,0
8252,-100,4,2,0,60,0,0
8729,-100,4,1,0,55,0,0
9443,-100,4,2,0,60,0,0
9681,-100,4,1,0,55,0,0
11109,-100,4,2,0,60,0,0
11229,-100,4,1,0,55,0,0
12062,-100,4,2,0,60,0,0
12538,-100,4,1,0,55,0,0
15871,-100,4,2,0,60,0,0
16348,-100,4,1,0,55,0,0
17776,-100,4,2,0,60,0,0
18014,-100,4,1,0,55,0,0
19681,-100,4,2,0,60,0,0
20157,-100,4,1,0,55,0,0
20633,-100,4,2,0,60,0,0
20871,-100,4,1,0,55,0,0
21586,-100,4,2,0,60,0,0
22062,-100,4,1,0,65,0,0
23490,-100,4,2,0,70,0,0
23967,-100,4,1,0,65,0,0
25395,-100,4,2,0,70,0,0
25871,-100,4,1,0,65,0,0
27300,-100,4,2,0,70,0,0
27776,-100,4,1,0,65,0,0
29205,-100,4,2,0,70,0,0
29324,-100,4,1,0,65,0,0
31109,-100,4,2,0,70,0,0
31586,-100,4,1,0,60,0,0
33014,-100,4,2,0,70,0,0
33490,-100,4,1,0,60,0,0
34919,-100,4,2,0,70,0,0
35395,-100,4,1,0,60,0,0
38252,-100,4,3,0,85,0,0
39205,-100,4,1,0,80,0,0
40157,-100,4,1,0,60,0,0
42062,-100,4,2,0,65,0,0
43014,-100,4,1,0,80,0,0
43967,-100,4,1,0,60,0,0
45871,-100,4,2,0,65,0,0
46586,-100,4,1,0,60,0,0
46824,-100,4,2,0,70,0,0
47062,-100,4,1,0,60,0,0
47776,-100,4,1,0,60,0,0
49681,-100,4,2,0,65,0,0
50633,-100,4,2,0,70,0,0
51109,-100,4,1,0,45,0,0
53490,-100,4,2,0,5,0,0
54443,-100,4,1,0,80,0,0
55395,-100,4,1,0,60,0,0
57300,-100,4,2,0,70,0,0
58252,-100,4,1,0,80,0,0
59205,-100,4,1,0,60,0,0
61109,-100,4,2,0,70,0,0
62062,-100,4,1,0,80,0,0
64919,-100,4,2,0,70,0,0
65871,-100,4,2,0,70,0,0
68729,-100,4,2,0,5,0,0
69681,-100,4,2,0,65,0,0
73490,-100,4,2,0,70,0,0
77300,-100,4,2,0,75,0,0
83014,-100,4,1,0,65,0,1
85395,-100,4,2,0,75,0,1
86824,-100,4,1,0,65,0,1
90633,-100,4,2,0,55,0,0

[Colours]
Combo1 : 100,89,230
Combo2 : 226,150,65
Combo3 : 249,40,119

[HitObjects]
360,116,3967,2,0,P|400:116|436:132,1,80,0|4,0:0|0:0,0:0:0:0:
380,212,4919,6,0,B|322:261|242:276,1,120,4|2,0:0|2:0,0:0:0:0:
232,268,5872,2,0,B|184:260|127:211,1,120,0|0,0:0|0:0,0:0:0:0:
96,120,7062,2,0,B|124:60|188:40,1,120,0|0,0:0|0:0,0:0:0:0:
280,32,8253,1,6,0:0:0:0:
272,128,8729,6,0,B|244:188|186:212,1,120,0|2,0:0|2:0,0:0:0:0:
180,260,9681,2,0,B|237:292|298:278,1,120,0|0,0:0|0:0,0:0:0:0:
372,220,10872,1,0,0:0:0:0:
332,192,11109,2,0,P|287:129|296:48,1,160,2|6,2:0|0:2,0:0:0:0:
384,12,12538,6,0,B|416:44|468:40,1,80,0|0,0:0|0:0,0:0:0:0:
444,136,13490,2,0,B|472:164|476:208,1,80,0|2,0:0|2:0,0:0:0:0:
472,256,14205,2,0,B|456:312|388:340,1,120,0|0,0:0|0:0,0:0:0:0:
296,332,15396,2,0,B|255:318|239:278,1,80,0|2,0:0|0:0,0:0:0:0:
196,192,16348,6,0,B|207:156|228:112,2,80,0|0|0,0:0|0:0|0:0,0:0:0:0:
128,260,17777,1,2,0:0:0:0:
88,232,18015,2,0,B|36:204|24:132,1,120,0|0,0:0|0:0,0:0:0:0:
40,40,19205,1,0,0:0:0:0:
136,32,19681,1,2,0:0:0:0:
184,116,20157,6,0,B|240:172,1,80,0|2,0:0|0:0,0:0:0:0:
336,172,21110,2,0,B|392:116,1,80,0|2,0:0|0:0,0:0:0:0:
360,24,22062,1,4,0:0:0:0:
264,16,22538,6,0,B|208:72,1,80,0|0,0:0|0:0,0:0:0:0:
192,168,23490,1,2,0:0:0:0:
264,236,23967,2,0,B|348:144,1,120,0|0,0:0|0:0,0:0:0:0:
388,128,24919,1,0,0:0:0:0:
464,184,25396,1,2,2:0:0:0:
444,276,25872,6,0,B|424:316|372:320,1,80,0|0,0:0|0:0,0:0:0:0:
304,264,26824,1,0,0:0:0:0:
224,316,27300,1,2,0:0:0:0:
144,264,27777,2,0,B|88:216|88:216|43:198,1,120,0|0,0:0|0:0,0:0:0:0:
36,152,28729,1,0,0:0:0:0:
100,76,29205,2,0,B|168:32,1,80,2|0,2:0|0:0,0:0:0:0:
192,124,30157,6,0,B|264:164,2,80,0|0|2,0:0|0:0|0:0,0:0:0:0:
108,168,31586,2,0,P|134:241|202:281,1,160,0|0,0:0|0:0,0:0:0:0:
292,312,33014,1,2,2:0:0:0:
284,216,33491,1,0,0:0:0:0:
232,136,33967,6,0,B|288:79,1,80,0|0,0:0|0:0,0:0:0:0:
320,172,34919,2,0,B|376:240,1,80,2|0,0:0|0:0,0:0:0:0:
460,196,35871,2,0,B|436:156,1,40,2|0,2:2|0:0,0:0:0:0:
408,124,36348,2,2,B|356:60|356:60|272:64,1,160,0|2,0:0|2:0,0:0:0:0:
192,96,37777,5,0,0:0:0:0:
100,124,38253,1,2,0:0:0:0:
100,220,38729,1,0,0:0:0:0:
184,264,39205,6,2,B|243:191|320:188,1,160,4|2,2:0|0:0,0:0:0:0:
444,44,41109,2,0,B|480:69|482:113,2,80,0|0|2,0:0|0:0|0:0,0:0:0:0:
396,128,42538,1,2,0:0:0:0:
360,216,43015,6,2,B|284:213|224:140,1,160,2|2,2:0|0:0,0:0:0:0:
36,108,44919,2,0,B|37:67|80:40,2,80,0|0|2,0:0|0:0|0:0,0:0:0:0:
36,200,46348,2,0,L|36:244,1,40,2|0,0:0|0:0,0:0:0:0:
40,288,46824,6,2,P|120:304|200:288,1,160,2|2,0:0|0:0,0:0:0:0:
376,216,48729,2,0,P|416:212|468:224,2,80,0|0|2,0:0|0:0|0:0,0:0:0:0:
308,284,50157,2,0,L|328:372,1,80,2|0,0:0|0:0,0:0:0:0:
256,192,51110,12,0,53491,0:0:0:0:
176,96,54443,6,2,B|252:52|328:96,1,160,4|2,2:0|0:0,0:0:0:0:
160,188,56348,2,0,B|160:228,2,40,0|0|0,0:0|0:0|0:0,0:0:0:0:
240,136,57300,1,2,0:0:0:0:
320,188,57777,1,2,0:0:0:0:
320,284,58253,6,2,B|244:328|168:284,1,160,0|2,2:0|0:0,0:0:0:0:
320,164,60157,2,0,B|320:124,2,40,0|0|0,0:0|0:0|0:0,0:0:0:0:
248,228,61110,2,0,B|208:224|176:192,1,80,2|2,0:0|0:0,0:0:0:0:
180,96,62062,6,2,B|210:65|250:61,1,80,2|2,2:0|0:0,0:0:0:0:
340,92,63015,1,2,0:0:0:0:
312,184,63491,1,0,0:0:0:0:
248,256,63967,6,0,B|208:252|178:221,2,80,0|0|2,0:0|0:0|0:0,0:0:0:0:
312,184,65396,1,2,0:0:0:0:
340,92,65872,1,2,0:0:0:0:
256,192,66348,12,0,68729,0:0:0:0:
152,284,69681,6,2,P|258:332|364:284,2,240,2|2|2,0:0|0:0|0:0,0:0:0:0:
148,92,73490,6,2,P|256:44|360:92,2,240,2|2|2,0:0|0:0|0:0,0:0:0:0:
88,276,77300,6,2,B|176:272|224:344|224:344|308:336,2,240,2|2|2,0:0|0:0|0:0,0:0:0:0:
180,108,81110,6,0,B|256:76|336:108,1,160,2|0,0:0|0:0,0:0:0:0:
200,244,83015,6,2,B|272:268|352:252,1,120,4|0,0:0|0:0,0:0:0:0:
332,212,83967,2,2,B|404:188|476:216,1,120,0|0,0:0|0:0,0:0:0:0:
476,300,85157,1,0,0:0:0:0:
432,316,85396,2,0,B|348:344|268:308,1,160,2|4,0:0|2:0,0:0:0:0:
276,216,86824,6,2,B|344:220|388:177,1,120,0|0,0:0|0:0,0:0:0:0:
388,132,87776,2,2,B|345:90|276:100,1,120,0|0,0:0|0:0,0:0:0:0:
184,124,88968,1,0,0:0:0:0:
184,124,89205,2,0,P|220:180|312:184,1,160,2|0,2:0|0:0,0:0:0:0:
400,208,90634,21,2,0:0:0:0:
