osu file format v14

[General]
AudioFilename: nanairo symphony.mp3
AudioLeadIn: 0
PreviewTime: 65316
Countdown: 0
SampleSet: Soft
StackLeniency: 0.7
Mode: 0
LetterboxInBreaks: 0
WidescreenStoryboard: 0

[Editor]
DistanceSpacing: 1.2
BeatDivisor: 4
GridSize: 4
TimelineZoom: 1

[Metadata]
Title:Nanairo Symphony -TV Size-
TitleUnicode:七色シンフォニー -TV Size-
Artist:Coalamode.
ArtistUnicode:コアラモード.
Creator:captin1
Version:Normal
Source:四月は君の嘘
Tags:shigatsu wa kimi no uso your lie in april opening kibbleru dark accelerator
BeatmapID:612051
BeatmapSetID:268431

[Difficulty]
HPDrainRate:4
CircleSize:3.5
OverallDifficulty:4
ApproachRate:5
SliderMultiplier:1.3
SliderTickRate:1

[Events]
//Background and Video events
0,0,"nanairo.jpg",0,0
Video,500,"forty.avi"
//Break Periods
//Storyboard Layer 0 (Background)
//Storyboard Layer 1 (Fail)
//Storyboard Layer 2 (Pass)
//Storyboard Layer 3 (Foreground)
//Storyboard Sound Samples

[TimingPoints]
1155,387.096774193548,4,2,1,50,1,0
1155,-133.333333333333,4,2,1,50,0,0
41413,-100,4,2,1,60,0,0
66187,-100,4,2,1,70,0,1
87284,-100,4,2,1,60,0,1
87864,-100,4,2,1,70,0,0
87961,-100,4,2,1,50,0,0
88638,-100,4,2,1,30,0,0
89413,-100,4,2,1,10,0,0
89800,-100,4,2,1,5,0,0

[Colours]
Combo1 : 255,128,64
Combo2 : 0,128,255
Combo3 : 255,128,192
Combo4 : 0,128,192

[HitObjects]
166,126,1155,6,0,L|281:130,1,97.5000037193299,2|0,0:0|0:0,0:0:0:0:
307,168,1735,2,0,P|358:169|413:156,1,97.5000037193299,2|0,0:0|0:0,0:0:0:0:
503,98,2509,2,0,L|496:210,1,97.5000037193299,2|0,0:0|0:0,0:0:0:0:
395,254,3284,5,2,0:0:0:0:
312,336,3671,2,0,L|306:276,1,48.750001859665,0|0,0:0|0:0,0:0:0:0:
309,228,4058,2,0,P|265:257|172:210,1,146.250005578995,2|0,0:0|0:0,0:0:0:0:
124,126,5025,2,0,L|36:120,2,73.1250027894974,2|0|0,0:0|0:0|0:0,0:0:0:0:
172,92,5800,6,0,L|228:86,2,48.750001859665,2|2|2,0:0|0:0|0:0,0:0:0:0:
156,207,6574,2,0,L|159:297,2,73.1250027894975,0|0|0,0:0|0:0|0:0,0:0:0:0:
207,179,7348,6,0,P|242:195|319:202,1,97.50000371933,2|0,0:0|0:0,0:0:0:0:
405,153,8122,1,2,0:0:0:0:
397,269,8509,1,0,0:0:0:0:
283,298,8896,2,0,L|180:286,1,97.50000371933,2|0,0:0|0:0,0:0:0:0:
152,334,9477,2,0,L|49:346,1,97.50000371933,2|0,0:0|0:0,0:0:0:0:
10,307,10058,1,0,0:0:0:0:
43,194,10445,6,0,P|55:149|57:96,1,97.50000371933,2|0,0:0|0:0,0:0:0:0:
165,55,11219,2,0,P|177:100|179:153,1,97.50000371933,2|0,0:0|0:0,0:0:0:0:
138,260,11993,1,2,0:0:0:0:
249,296,12380,1,0,0:0:0:0:
249,296,12574,2,0,L|407:295,1,146.250005578995,2|0,0:0|0:0,0:0:0:0:
467,202,13542,6,0,P|446:144|354:127,1,146.250005578995,2|2,0:0|0:0,0:0:0:0:
314,140,14316,2,0,L|228:132,2,73.1250027894975,2|0|0,0:0|0:0|0:0,0:0:0:0:
358,248,15284,1,0,0:0:0:0:
358,248,15477,2,0,P|317:249|248:257,1,97.50000371933,12|6,0:0|0:0,0:0:0:0:
151,297,16251,1,0,0:0:0:0:
53,232,16638,6,0,L|44:127,1,97.50000371933,6|0,0:0|0:0,0:0:0:0:
33,77,17219,2,0,P|68:79|146:78,1,97.50000371933,2|0,0:0|0:0,0:0:0:0:
186,60,17800,1,0,0:0:0:0:
293,106,18187,2,0,L|399:115,1,97.50000371933,2|0,0:0|0:0,0:0:0:0:
435,150,18767,2,0,P|450:185|463:249,1,97.50000371933,2|0,0:0|0:0,0:0:0:0:
451,300,19348,1,0,0:0:0:0:
341,258,19735,6,0,P|299:225|196:241,2,146.250005578995,2|2|0,0:0|0:0|0:0,0:0:0:0:
257,339,21284,1,2,0:0:0:0:
257,339,21477,2,0,L|138:344,1,97.50000371933,2|2,0:0|0:0,0:0:0:0:
70,267,22251,2,0,P|61:237|56:210,1,48.750001859665,0|0,0:0|0:0,0:0:0:0:
174,210,22832,6,0,L|293:215,1,97.50000371933,2|0,0:0|0:0,0:0:0:0:
318,248,23413,2,0,P|361:243|419:249,1,97.50000371933,2|0,0:0|0:0,0:0:0:0:
466,274,23993,1,0,0:0:0:0:
489,159,24380,2,0,L|492:62,1,97.50000371933,2|0,0:0|0:0,0:0:0:0:
444,27,24961,2,0,P|400:24|334:31,1,97.50000371933,2|0,0:0|0:0,0:0:0:0:
295,56,25542,1,0,0:0:0:0:
197,121,25929,6,0,P|156:115|59:50,2,146.250005578995,2|2|0,0:0|0:0|0:0,0:0:0:0:
301,173,27477,1,2,0:0:0:0:
301,173,27671,2,0,L|307:272,1,97.50000371933,2|2,0:0|0:0,0:0:0:0:
201,321,28445,2,0,P|193:361|190:378,2,48.750001859665,0|0|0,0:0|0:0|0:0,0:0:0:0:
211,263,29025,6,0,P|211:210|198:159,1,97.50000371933,6|0,0:0|0:0,0:0:0:0:
157,128,29606,1,2,0:0:0:0:
40,113,29993,1,0,0:0:0:0:
40,113,30187,2,0,L|28:213,1,97.50000371933,2|0,0:0|0:0,0:0:0:0:
80,235,30767,2,0,P|87:267|86:338,1,97.50000371933,2|0,0:0|0:0,0:0:0:0:
40,367,31348,2,0,L|193:355,1,146.250005578995,2|0,0:0|0:0,0:0:0:0:
232,320,32122,6,0,B|277:301|277:301|379:319,2,146.250005578995,2|2|0,0:0|0:0|0:0,0:0:0:0:
149,236,33671,1,2,0:0:0:0:
149,236,33864,2,0,L|140:179,1,48.750001859665,2|0,0:0|0:0,0:0:0:0:
111,137,34251,2,0,L|227:144,1,97.50000371933,2|0,0:0|0:0,0:0:0:0:
263,122,34832,1,0,0:0:0:0:
348,42,35219,6,0,P|396:28|455:28,1,97.50000371933,2|0,0:0|0:0,0:0:0:0:
486,66,35800,2,0,L|494:166,1,97.50000371933,2|0,0:0|0:0,0:0:0:0:
475,218,36380,1,2,0:0:0:0:
372,273,36767,2,0,P|336:259|268:252,1,97.50000371933,2|0,0:0|0:0,0:0:0:0:
220,263,37348,2,0,L|116:248,1,97.50000371933,0|0,0:0|0:0,0:0:0:0:
77,212,37929,1,2,0:0:0:0:
60,96,38316,6,0,P|94:97|159:126,1,97.50000371933,2|0,0:0|0:0,0:0:0:0:
169,176,38896,1,2,0:0:0:0:
250,260,39284,1,0,0:0:0:0:
250,260,39477,2,0,L|300:270,1,48.750001859665,0|0,0:0|0:0,0:0:0:0:
353,249,39864,2,0,P|383:243|454:242,1,97.50000371933,2|8,0:0|0:3,0:0:0:0:
507,252,40445,2,0,L|484:100,1,146.250005578995,4|8,0:1|0:3,0:0:0:0:
383,21,41413,6,0,P|357:36|243:36,1,130,6|0,0:0|0:0,0:0:0:0:
187,12,41993,2,0,B|157:60|157:60|177:212,1,195,0|8,0:0|0:0,0:0:0:0:
240,339,42961,2,0,P|181:328|136:324,2,97.5,2|0|2,0:0|0:0|0:0,0:0:0:0:
373,257,43929,1,0,0:0:0:0:
373,257,44122,2,0,L|439:265,1,65,8|0,0:3|0:0,0:0:0:0:
493,209,44509,6,0,P|501:159|497:80,1,130,2|0,0:0|0:0,0:0:0:0:
424,51,45090,2,0,B|335:91|335:91|230:52,1,195,0|8,0:0|0:0,0:0:0:0:
118,150,46058,2,0,P|70:150|4:161,2,97.5,2|0|2,0:0|0:0|0:0,0:0:0:0:
199,283,47025,1,0,0:0:0:0:
199,283,47219,2,0,L|268:289,1,65,8|0,0:3|0:0,0:0:0:0:
325,336,47606,6,0,P|361:348|465:306,1,130,2|0,0:0|0:0,0:0:0:0:
419,251,48187,1,0,0:0:0:0:
419,251,48380,2,0,L|427:117,1,130,2|8,0:0|0:0,0:0:0:0:
291,43,49154,2,0,P|235:35|152:51,1,130,2|0,0:0|0:0,0:0:0:0:
101,190,49929,2,0,P|157:198|240:182,1,130,2|10,0:0|0:0,0:0:0:0:
275,124,50509,1,0,0:0:0:0:
275,124,50703,6,0,L|406:132,2,130,2|0|2,0:0|0:0|0:0,0:0:0:0:
227,272,51864,1,8,0:0:0:0:
368,336,52251,2,0,P|386:275|372:208,1,130,2|0,0:0|0:0,0:0:0:0:
295,213,52832,1,2,0:0:0:0:
295,213,53025,2,0,L|157:209,1,130,2|8,0:0|0:0,0:0:0:0:
19,153,53800,6,0,P|10:106|26:21,1,130,6|0,0:0|0:0,0:0:0:0:
97,49,54380,2,0,B|227:53|227:53|279:104,1,195,0|8,0:0|0:0,0:0:0:0:
339,240,55348,2,0,P|388:232|434:215,2,97.5,2|0|2,0:0|0:0|0:0,0:0:0:0:
198,308,56316,1,0,0:0:0:0:
198,308,56509,2,0,L|126:299,1,65,8|0,0:3|0:0,0:0:0:0:
57,320,56896,6,0,P|35:277|42:188,1,130,2|0,0:0|0:0,0:0:0:0:
112,173,57477,1,0,0:0:0:0:
112,173,57671,2,0,P|122:118|126:75,2,97.5,2|0|0,0:0|0:0|0:0,0:0:0:0:
150,241,58445,1,2,0:0:0:0:
279,328,58832,1,0,0:0:0:0:
372,202,59219,1,0,0:0:0:0:
243,115,59606,1,8,0:3:0:0:
150,241,59993,6,0,P|105:251|19:244,1,130,6|0,0:0|0:0,0:0:0:0:
12,167,60574,1,0,0:0:0:0:
12,167,60767,2,0,P|57:157|143:164,1,130,2|8,0:0|0:0,0:0:0:0:
232,289,61542,2,0,P|266:296|378:280,1,130,2|0,0:0|0:0,0:0:0:0:
410,227,62122,1,0,0:0:0:0:
410,227,62316,2,0,L|415:94,1,130,2|8,0:0|0:0,0:0:0:0:
263,59,63090,5,2,0:0:0:0:
119,121,63477,1,8,0:0:0:0:
271,154,63864,2,0,P|312:139|352:94,2,97.5,6|2|2,0:0|0:0|0:0,0:0:0:0:
203,194,64638,2,0,L|183:263,2,65,8|8|8,0:0|0:0|0:0,0:0:0:0:
73,106,65413,1,8,0:0:0:0:
73,106,65800,1,8,0:0:0:0:
12,249,66187,6,0,P|20:311|35:380,1,130,12|8,0:0|0:0,0:0:0:0:
175,311,66961,1,8,0:0:0:0:
322,361,67348,1,8,0:0:0:0:
456,281,67735,2,0,L|465:143,1,130,8|8,0:0|0:0,0:0:0:0:
479,74,68316,2,0,P|434:75|347:60,1,130
278,30,68896,1,8,0:0:0:0:
127,73,69284,6,0,P|121:117|126:214,1,130,8|8,0:0|0:0,0:0:0:0:
273,156,70058,2,0,P|279:200|274:297,1,130,8|8,0:0|0:0,0:0:0:0:
128,335,70832,1,8,0:0:0:0:
21,221,71219,1,8,0:0:0:0:
21,221,71413,2,0,L|13:70,1,130,0|0,0:0|0:0,0:0:0:0:
73,40,71993,2,0,P|119:62|157:68,1,65,8|8,0:0|0:3,0:0:0:0:
206,40,72380,6,0,L|346:54,1,130,12|8,0:0|0:0,0:0:0:0:
491,46,73154,2,0,P|496:93|483:195,1,130,8|8,0:0|0:0,0:0:0:0:
419,212,73735,1,0,0:0:0:0:
419,212,73929,2,0,L|430:346,1,130,8|8,0:0|0:0,0:0:0:0:
273,345,74703,1,8,0:0:0:0:
303,192,75090,1,8,0:0:0:0:
426,97,75477,6,0,P|368:101|287:88,1,130,12|8,0:0|0:0,0:0:0:0:
146,49,76251,1,8,0:0:0:0:
14,133,76638,1,8,0:0:0:0:
14,133,76832,1,2,0:0:0:0:
82,272,77219,2,0,L|87:201,2,65,0|12|0,0:0|0:0|0:0,0:0:0:0:
139,324,77800,2,0,L|212:336,1,65,8|8,0:0|0:3,0:0:0:0:
271,297,78187,1,8,0:0:0:0:
271,297,78380,1,8,0:3:0:0:
271,297,78574,6,0,P|314:311|429:312,1,130,12|8,0:0|0:0,0:0:0:0:
503,202,79348,1,8,0:0:0:0:
349,229,79735,1,8,0:0:0:0:
215,149,80122,2,0,L|202:16,1,130,8|8,0:0|0:0,0:0:0:0:
127,42,80703,2,0,P|113:88|126:175,1,130,0|0,0:0|0:0,0:0:0:0:
180,220,81284,1,8,0:0:0:0:
327,168,81671,6,0,P|379:158|473:184,1,130,12|8,0:0|0:0,0:0:0:0:
426,327,82445,2,0,P|374:337|280:311,1,130,10|8,0:0|0:0,0:0:0:0:
180,220,83219,1,8,0:0:0:0:
180,220,83413,2,0,L|98:228,1,65,2|8,0:0|0:0,0:0:0:0:
58,280,83800,2,0,B|40:241|40:241|42:129,1,130,4|0,0:0|0:0,0:0:0:0:
91,94,84380,1,8,0:0:0:0:
244,83,84767,5,8,0:0:0:0:
365,180,85154,1,8,0:0:0:0:
268,301,85542,1,2,0:0:0:0:
147,204,85929,1,8,0:0:0:0:
244,83,86316,6,0,P|290:86|376:67,2,130,4|0|0,0:0|0:0|0:0,0:0:0:0:
178,39,87284,1,0,0:0:0:0:
178,39,87477,1,8,0:3:0:0:
52,131,87864,1,4,0:0:0:0:
256,192,87961,12,0,89800,0:0:0:0:
