osu file format v14

[General]
AudioFilename: nanairo symphony.mp3
AudioLeadIn: 0
PreviewTime: 65316
Countdown: 0
SampleSet: Soft
StackLeniency: 0.7
Mode: 0
LetterboxInBreaks: 0
WidescreenStoryboard: 0

[Editor]
DistanceSpacing: 1
BeatDivisor: 4
GridSize: 4
TimelineZoom: 1

[Metadata]
Title:Nanairo Symphony -TV Size-
TitleUnicode:七色シンフォニー -TV Size-
Artist:Coalamode.
ArtistUnicode:コアラモード.
Creator:captin1
Version:Easy
Source:四月は君の嘘
Tags:shigatsu wa kimi no uso your lie in april opening kibbleru dark accelerator
BeatmapID:611871
BeatmapSetID:268431

[Difficulty]
HPDrainRate:2
CircleSize:3
OverallDifficulty:2
ApproachRate:3
SliderMultiplier:0.999999999999999
SliderTickRate:1

[Events]
//Background and Video events
0,0,"nanairo.jpg",0,0
Video,500,"forty.avi"
//Break Periods
//Storyboard Layer 0 (Background)
//Storyboard Layer 1 (Fail)
//Storyboard Layer 2 (Pass)
//Storyboard Layer 3 (Foreground)
//Storyboard Sound Samples

[TimingPoints]
1155,387.096774193548,4,2,1,50,1,0
1155,-133.333333333333,4,2,1,50,0,0
41413,-100,4,2,1,60,0,0
66187,-100,4,2,1,70,0,1
87284,-100,4,2,1,60,0,1
87864,-100,4,2,1,70,0,0
88058,-100,4,2,1,50,0,0
88638,-100,4,2,1,30,0,0
89413,-100,4,2,1,10,0,0
89800,-100,4,2,1,5,0,0

[Colours]
Combo1 : 255,128,64
Combo2 : 0,128,255
Combo3 : 255,128,192
Combo4 : 0,128,192

[HitObjects]
59,151,1155,6,0,L|177:157,1,112.500004291534,2|2,0:0|0:0,0:0:0:0:
227,216,2122,2,0,L|310:212,1,75.000002861023,0|2,0:0|0:0,0:0:0:0:
427,105,3284,2,0,P|386:46|314:47,1,150.000005722046,2|2,0:0|0:0,0:0:0:0:
110,74,5025,6,0,B|91:129|91:129|108:220,1,150.000005722046,2|2,0:0|0:0,0:0:0:0:
126,299,6187,1,2,0:0:0:0:
206,279,6574,2,0,L|281:286,1,75.000002861023,0|0,0:0|0:0,0:0:0:0:
358,312,7348,6,0,P|385:282|392:173,2,150.000005722046,2|2|2,0:0|0:0|0:0,0:0:0:0:
205,248,9671,2,0,L|130:255,1,75.000002861023
61,209,10445,6,0,L|41:47,2,150.000005722046,2|2|2,0:0|0:0|0:0,0:0:0:0:
163,338,12767,2,0,L|238:331,1,75.000002861023,2|0,0:0|0:0,0:0:0:0:
307,286,13542,6,0,P|332:289|382:305,1,75.000002861023,2|0,0:0|0:0,0:0:0:0:
459,325,14316,2,0,L|454:205,1,112.500004291534,2|0,0:0|0:0,0:0:0:0:
485,136,15284,2,0,P|457:96|393:81,1,112.500004291534,0|6,0:0|0:0,0:0:0:0:
321,111,16251,1,0,0:0:0:0:
242,84,16638,6,0,L|93:77,1,150.000005722046,6|0,0:0|0:0,0:0:0:0:
24,123,17800,1,0,0:0:0:0:
69,191,18187,2,0,L|218:198,1,150.000005722046,2|0,0:0|0:0,0:0:0:0:
286,245,19348,1,0,0:0:0:0:
351,195,19735,6,0,P|380:140|381:78,2,112.500004291534,2|2|0,0:0|0:0|0:0,0:0:0:0:
363,276,21284,2,0,P|396:328|449:360,2,112.500004291534,2|2|0,0:0|0:0|0:0,0:0:0:0:
286,245,22832,6,0,B|211:253|211:253|137:214,1,150.000005722046,2|0,0:0|0:0,0:0:0:0:
127,137,23993,1,0,0:0:0:0:
190,84,24380,2,0,B|265:76|265:76|339:115,1,150.000005722046,2|0,0:0|0:0,0:0:0:0:
355,189,25542,1,0,0:0:0:0:
435,205,25929,6,0,P|458:184|485:109,2,112.500004291534,2|2|0,0:0|0:0|0:0,0:0:0:0:
384,269,27477,2,0,L|271:278,2,112.500004291534,2|2|0,0:0|0:0|0:0,0:0:0:0:
412,346,29025,6,0,L|330:355,1,75.000002861023,6|0,0:0|0:0,0:0:0:0:
255,361,29800,2,0,L|173:352,1,75.000002861023,0|2,0:0|0:0,0:0:0:0:
127,289,30574,2,0,L|53:296,1,75.000002861023,0|0,0:0|0:0,0:0:0:0:
12,223,31348,1,2,0:0:0:0:
78,72,32122,6,0,L|197:78,2,112.500004291534,2|2|0,0:0|0:0|0:0,0:0:0:0:
97,152,33671,2,0,L|216:158,2,112.500004291534,2|2|0,0:0|0:0|0:0,0:0:0:0:
70,230,35219,6,0,P|72:274|149:340,1,150.000005722046,2|0,0:0|0:0,0:0:0:0:
223,306,36380,1,2,0:0:0:0:
291,351,36767,2,0,P|353:312|368:241,1,150.000005722046,2|2,0:0|0:0,0:0:0:0:
324,170,37929,1,2,0:0:0:0:
365,98,38316,6,0,L|485:105,2,112.500004291534,2|2|0,0:0|0:0|0:0,0:0:0:0:
305,41,39864,1,2,0:0:0:0:
193,94,40445,2,0,L|196:213,1,112.500004291534,4|8,0:1|0:3,0:0:0:0:
263,265,41413,6,0,P|227:290|128:263,1,150,6|0,0:0|0:0,0:0:0:0:
96,119,42574,1,8,0:0:0:0:
193,94,42961,2,0,L|347:116,2,150,2|2|8,0:0|0:0|0:3,0:0:0:0:
109,38,44509,6,0,B|67:75|67:75|55:184,1,150,2|0,0:0|0:0,0:0:0:0:
37,317,45671,1,8,0:0:0:0:
116,256,46058,2,0,P|162:238|266:251,2,150,2|2|8,0:0|0:0|0:3,0:0:0:0:
159,345,47606,6,0,B|193:337|193:337|311:365,1,150,2|0,0:0|0:0,0:0:0:0:
441,302,48767,1,8,0:0:0:0:
494,217,49154,2,0,L|497:113,1,99.9999999999999,2|0,0:0|0:0,0:0:0:0:
397,126,49929,2,0,L|394:22,1,99.9999999999999,2|10,0:0|0:0,0:0:0:0:
294,36,50703,6,0,P|257:31|185:27,2,99.9999999999999,2|0|2,0:0|0:0|0:0,0:0:0:0:
312,134,51864,1,8,0:0:0:0:
219,172,52251,2,0,P|124:178|63:89,1,200,2|2,0:0|0:0,0:0:0:0:
163,89,53413,1,8,0:0:0:0:
219,172,53800,6,0,L|224:323,1,150,6|0,0:0|0:0,0:0:0:0:
372,344,54961,1,8,0:0:0:0:
464,305,55348,2,0,B|482:256|482:256|476:156,2,150,2|2|8,0:0|0:0|0:3,0:0:0:0:
386,241,56896,6,0,P|330:212|275:220,1,99.9999999999999,2|0,0:0|0:0,0:0:0:0:
226,286,57671,2,0,P|183:311|134:313,1,99.9999999999999,2|8,0:0|0:0,0:0:0:0:
62,244,58445,2,0,L|56:140,2,99.9999999999999,2|0|0,0:0|0:0|0:0,0:0:0:0:
157,214,59606,1,8,0:3:0:0:
251,181,59993,6,0,P|305:191|347:229,1,99.9999999999999,6|0,0:0|0:0,0:0:0:0:
379,310,60767,2,0,P|420:321|485:302,1,99.9999999999999,2|8,0:0|0:0,0:0:0:0:
505,212,61542,2,0,L|501:109,1,99.9999999999999,2|0,0:0|0:0,0:0:0:0:
428,42,62316,2,0,L|320:28,1,99.9999999999999,2|8,0:0|0:0,0:0:0:0:
238,70,63090,6,0,P|183:81|137:80,1,99.9999999999999,2|8,0:0|0:0,0:0:0:0:
58,139,63864,2,0,B|45:238|45:238|100:327,1,200,6|8,0:0|0:0,0:0:0:0:
196,338,65025,1,8,0:0:0:0:
264,264,65413,2,0,L|269:162,1,99.9999999999999,8|8,0:0|0:3,0:0:0:0:
349,105,66187,6,0,P|387:101|455:107,2,99.9999999999999,12|8|8,0:0|0:0|0:0,0:0:0:0:
256,68,67348,1,8,0:0:0:0:
156,69,67735,2,0,P|106:75|57:88,1,99.9999999999999,8|8,0:0|0:0,0:0:0:0:
17,178,68509,2,0,L|14:284,1,99.9999999999999,8|8,0:0|0:0,0:0:0:0:
114,269,69284,6,0,P|124:233|137:166,2,99.9999999999999,8|8|8,0:0|0:0|0:0,0:0:0:0:
75,361,70445,1,8,0:0:0:0:
174,354,70832,2,0,P|221:343|269:317,1,99.9999999999999,8|8,0:0|0:0,0:0:0:0:
347,260,71606,2,0,L|446:267,1,99.9999999999999,8|8,0:0|0:0,0:0:0:0:
501,183,72380,6,0,P|504:140|383:57,1,200,12|8,0:0|0:0,0:0:0:0:
294,83,73542,1,8,0:0:0:0:
206,35,73929,2,0,B|114:68|101:16|8:43,1,200,8|8,0:0|0:0,0:0:0:0:
1,143,75090,1,8,0:0:0:0:
43,233,75477,6,0,P|49:264|54:337,1,99.9999999999999,12|8,0:0|0:0,0:0:0:0:
153,346,76251,2,0,P|162:297|152:197,1,150,8|2,0:0|0:0,0:0:0:0:
65,148,77219,2,0,P|89:118|202:114,1,150,4|8,0:0|0:0,0:0:0:0:
256,185,78187,1,8,0:0:0:0:
348,147,78574,6,0,L|449:157,2,99.9999999999999,12|8|8,0:0|0:0|0:0,0:0:0:0:
300,58,79735,1,8,0:0:0:0:
200,70,80122,2,0,P|155:71|93:55,1,99.9999999999999,8|8,0:0|0:0,0:0:0:0:
10,98,80896,2,0,L|4:202,1,99.9999999999999,8|8,0:0|0:0,0:0:0:0:
52,285,81671,6,0,P|93:296|153:300,2,99.9999999999999,12|8|10,0:0|0:0|0:0,0:0:0:0:
102,198,82832,1,8,0:0:0:0:
200,215,83219,2,0,B|276:224|276:224|361:205,1,150,8|4,0:0|0:0,0:0:0:0:
424,78,84380,1,8,0:0:0:0:
329,43,84767,6,0,L|225:49,1,99.9999999999999,8|8,0:0|0:0,0:0:0:0:
171,130,85542,2,0,L|275:136,1,99.9999999999999,2|8,0:0|0:0,0:0:0:0:
331,215,86316,2,0,P|325:256|295:325,2,99.9999999999999,4|0|0,0:0|0:0|0:0,0:0:0:0:
410,153,87477,1,8,0:3:0:0:
500,195,87864,5,4,0:0:0:0:
256,192,88058,12,0,89800,0:0:0:0:
