osu file format v12

[General]
AudioFilename: Nightcore - Take Me Away.mp3
AudioLeadIn: 2000
PreviewTime: 24922
Countdown: 0
SampleSet: Soft
StackLeniency: 0.3
Mode: 0
LetterboxInBreaks: 0

[Editor]
Bookmarks: 12246,25627,36190,49570,62246,73514,84077,96049,107317,119289,131260
DistanceSpacing: 1
BeatDivisor: 4
GridSize: 4

[Metadata]
Title:Take Me Away (Nightcore Mix)
TitleUnicode:Take Me Away (Nightcore Mix)
Artist:Club Crusherz!
ArtistUnicode:Club Crusherz!
Creator:Lally
Version:Hard
Source:
Tags:original edit remix maikel6311 dancecore -Bakari- Andrea osuplayer111
BeatmapID:232663
BeatmapSetID:84457

[Difficulty]
HPDrainRate:6
CircleSize:4
OverallDifficulty:6
ApproachRate:7
SliderMultiplier:1.5
SliderTickRate:1

[Events]
//Background and Video events
0,0,"konachan_bg_goes_here.jpg",0,0
//Break Periods
2,96249,105908
//Storyboard Layer 0 (Background)
//Storyboard Layer 1 (Fail)
//Storyboard Layer 2 (Pass)
//Storyboard Layer 3 (Foreground)
Sprite,Foreground,Centre,"sb\lally.png",520,424 F,0,275,979,0,1 S,0,275,12246,0.65 F,0,11894,12246,1,0 F,0,25627,25979,0,1 S,0,25627,36190,0.65 F,0,35838,36190,1,0 F,0,49570,49922,0,1 S,0,49570,59782,0.65 F,0,59429,59782,1,0 F,0,73514,73866,0,1 S,0,73514,84077,0.65 F,0,83725,84077,1,0 F,0,107317,107669,0,1 S,0,107317,117528,0.65 F,0,117176,117528,1,0
Sprite,Foreground,Centre,"sb\andrea.png",120,424 F,0,12246,12598,0,1 S,0,12246,24658,0.65 F,0,24306,24658,1,0 F,0,36190,36542,0,1 S,0,36190,49218,0.65 F,0,48866,49218,1,0 F,0,62246,62598,0,1 S,0,62246,73514,0.65 F,0,73162,73514,1,0 F,0,84077,84429,0,1 S,0,84077,96049,0.65 F,0,95697,96049,1,0 F,0,119289,119641,0,1 S,0,119289,130380,0.65 F,0,130028,130380,1,0
//Storyboard Sound Samples
//Background Colour Transformations
3,100,163,162,255

[TimingPoints]
275,352.112676056338,4,2,0,45,1,0
18584,-100,4,2,0,65,0,0
25627,-100,4,2,0,65,0,1
48162,-100,4,2,0,55,0,0
49570,-100,4,2,0,65,0,0
62246,-100,4,2,0,65,0,0
84782,-100,4,2,0,65,0,1
96049,-100,4,2,0,65,0,0
107317,-100,4,2,0,65,0,0
119993,-100,4,2,0,65,0,0
131260,-100,4,2,0,65,0,0

[Colours]
Combo1 : 251,198,243
Combo2 : 164,179,232
Combo3 : 200,133,228
Combo4 : 26,166,163

[HitObjects]
292,280,275,2,0,P|408:296|428:140,1,300,4|2,0:0|0:0,0:0:0:0:
316,56,1331,1,0,0:0:0:0:
220,168,1683,6,0,P|204:248|124:256,1,150,2|0,0:0|0:0,0:0:0:0:
72,260,2211,1,0,0:0:0:0:
36,192,2387,2,0,P|80:160|160:200,1,150,2|0,0:0|0:0,0:0:0:0:
200,260,2915,1,0,0:0:0:0:
256,308,3091,1,2,0:0:0:0:
312,260,3267,1,0,0:0:0:0:
353,197,3444,6,0,P|432:160|476:192,1,150,0|2,0:0|0:0,0:0:0:0:
440,260,3972,1,0,0:0:0:0:
366,264,4148,2,0,P|308:248|292:168,1,150,0|2,0:0|0:0,0:0:0:0:
364,152,4676,1,0,0:0:0:0:
436,132,4852,2,0,P|428:72|344:44,1,150,0|2,0:0|0:0,0:0:0:0:
304,100,5380,1,0,0:0:0:0:
256,156,5556,1,0,0:0:0:0:
208,100,5732,1,0,0:0:0:0:
160,41,5908,2,0,P|84:72|76:132,1,150,2|0,0:0|0:0,0:0:0:0:
68,284,6613,6,0,B|108:292|108:292|132:316|132:316|204:340,1,150,2|0,0:0|0:0,0:0:0:0:
256,284,7141,1,0,0:0:0:0:
308,340,7317,2,0,B|380:316|380:316|404:292|404:292|444:284,1,150,2|0,0:0|0:0,0:0:0:0:
452,136,8021,2,0,P|404:164|308:200,1,150,2|0,0:0|0:0,0:0:0:0:
256,152,8549,1,0,0:0:0:0:
195,197,8725,2,0,P|108:164|56:136,1,150,2|0,0:0|0:0,0:0:0:0:
20,72,9253,5,0,0:0:0:0:
88,44,9429,2,0,P|160:40|216:88,1,150,2|0,0:0|0:0,0:0:0:0:
256,152,9958,1,0,0:0:0:0:
296,88,10134,2,0,P|352:40|424:44,2,150,2|0|2,0:0|0:0|0:0,0:0:0:0:
256,152,11014,1,0,0:0:0:0:
220,216,11190,2,0,P|160:258|88:246,2,150,0|2|0,0:0|0:0|0:0,0:0:0:0:
352,288,12246,6,0,P|392:288|416:264,1,75,2|0,0:0|0:0,0:0:0:0:
432,192,12598,1,0,0:0:0:0:
416,120,12774,2,0,P|392:96|352:96,1,75,0|4,0:0|0:0,0:0:0:0:
212,44,13303,1,8,0:0:0:0:
64,44,13655,6,0,B|64:84|64:84|84:112,1,75
120,180,14007,1,8,0:0:0:0:
156,248,14183,1,0,0:0:0:0:
196,312,14359,2,0,P|257:350|316:312,1,150,0|8,0:0|0:0,0:0:0:0:
356,248,14887,1,0,0:0:0:0:
392,180,15063,1,0,0:0:0:0:
424,112,15239,6,0,P|369:58|299:47,1,150
88,112,15767,2,0,P|143:58|213:47,1,150,0|8,0:0|0:0,0:0:0:0:
256,128,16296,1,0,0:0:0:0:
216,192,16472,2,0,L|184:260,1,75
296,192,16824,2,0,L|328:260,1,75,8|0,0:0|0:0,0:0:0:0:
256,284,17176,1,0,0:0:0:0:
84,112,17528,1,8,0:0:0:0:
428,112,17880,5,8,0:0:0:0:
372,64,18056,1,0,0:0:0:0:
296,64,18232,2,0,B|256:64|256:64|224:44,1,75,8|0,0:0|0:0,0:0:0:0:
152,32,18584,6,0,P|76:32|28:84,2,150,0|8|0,0:0|0:0|0:0,0:0:0:0:
152,120,19465,1,0,0:0:0:0:
84,152,19641,1,8,0:0:0:0:
84,232,19817,1,0,0:0:0:0:
152,264,19993,6,0,B|228:264|228:264|292:304,2,150,0|8|0,0:0|0:0|0:0,0:0:0:0:
84,232,20873,1,0,0:0:0:0:
84,152,21049,1,8,0:0:0:0:
152,120,21225,1,0,0:0:0:0:
228,120,21401,6,0,P|304:120|352:68,2,150,0|8|0,0:0|0:0|0:0,0:0:0:0:
152,120,22282,1,0,0:0:0:0:
152,196,22458,2,0,P|176:224|212:228,1,75,8|0,0:0|0:0,0:0:0:0:
360,196,22810,2,0,P|336:224|300:228,1,75
256,288,23162,1,8,0:0:0:0:
216,352,23338,6,0,L|140:352,1,75
296,352,23690,2,0,L|372:352,1,75,0|8,0:0|0:0,0:0:0:0:
444,352,24042,1,0,0:0:0:0:
468,324,24130,1,0,0:0:0:0:
492,292,24218,1,4,0:0:0:0:
256,192,24306,12,0,25274,0:0:0:0:
100,156,25627,6,0,P|148:100|244:92,1,150,4|8,0:0|0:0,0:0:0:0:
288,120,26155,1,0,0:0:0:0:
328,184,26331,2,0,P|376:216|464:188,1,150,0|8,0:0|0:0,0:0:0:0:
468,120,26859,1,0,0:0:0:0:
396,132,27035,2,0,L|400:296,1,150,0|8,0:0|0:0,0:0:0:0:
344,332,27563,5,0,0:0:0:0:
276,296,27739,1,0,0:0:0:0:
216,252,27915,1,0,0:0:0:0:
160,204,28091,2,0,P|124:136|32:140,1,150,8|0,0:0|0:0,0:0:0:0:
84,196,28620,1,0,0:0:0:0:
84,196,28796,2,0,L|176:72,1,150,8|0,0:0|0:0,0:0:0:0:
338,75,29500,2,0,L|428:196,1,150,8|0,0:0|0:0,0:0:0:0:
496,224,30028,1,0,0:0:0:0:
444,280,30205,6,0,P|378:270|342:202,1,150,8|0,0:0|0:0,0:0:0:0:
300,140,30732,1,0,0:0:0:0:
264,208,30908,2,0,P|240:236|200:244,1,75,8|0,0:0|0:0,0:0:0:0:
132,220,31260,2,0,P|84:192|88:96,1,150,0|8,0:0|0:0,0:0:0:0:
156,92,31789,2,0,P|132:48|96:32,2,75
192,160,32317,2,0,L|220:240,1,75,8|0,0:0|0:0,0:0:0:0:
295,230,32669,2,0,L|320:160,1,75
364,100,33021,6,0,B|416:88|416:88|456:92|508:48,2,150,8|0|8,0:0|0:0|0:0,0:0:0:0:
304,56,33901,1,0,0:0:0:0:
256,116,34077,1,0,0:0:0:0:
208,56,34253,1,0,0:0:0:0:
148,100,34429,2,0,B|96:88|96:88|56:92|8:52,2,150,8|0|8,0:0|0:0|0:0,0:0:0:0:
188,164,35310,1,0,0:0:0:0:
256,196,35486,2,0,L|256:276,2,75,0|0|8,0:0|0:0|0:0,0:0:0:0:
216,52,36190,6,0,B|176:52|176:52|152:80,1,75,0|0,0:0|0:0,0:0:0:0:
296,52,36542,2,0,B|336:52|336:52|360:80,1,75,8|0,0:0|0:0,0:0:0:0:
396,144,36894,1,4,0:0:0:0:
372,292,37246,1,8,0:0:0:0:
256,196,37598,1,0,0:0:0:0:
140,292,37951,1,8,0:0:0:0:
116,144,38303,1,0,0:0:0:0:
256,196,38655,1,8,0:0:0:0:
256,48,39007,5,0,0:0:0:0:
296,112,39183,2,0,P|336:112|364:88,1,75,0|8,0:0|0:0,0:0:0:0:
216,112,39535,2,0,P|176:112|148:88,1,75
80,224,40063,2,0,P|148:224|148:292,1,150,8|0,0:0|0:0,0:0:0:0:
432,224,40767,2,0,P|364:224|364:292,1,150,8|0,0:0|0:0,0:0:0:0:
256,196,41472,1,8,0:0:0:0:
216,52,41824,6,0,L|140:52,1,75
296,52,42176,2,0,L|372:52,1,75,8|0,0:0|0:0,0:0:0:0:
444,52,42528,1,0,0:0:0:0:
500,192,42880,1,8,0:0:0:0:
444,332,43232,2,0,B|368:332|368:332|304:288,1,150,0|8,0:0|0:0,0:0:0:0:
68,332,43936,2,0,B|144:332|144:332|208:288,1,150,0|8,0:0|0:0,0:0:0:0:
256,148,44641,5,0,0:0:0:0:
216,84,44817,2,0,P|176:84|152:112,1,75,0|8,0:0|0:0,0:0:0:0:
296,84,45169,2,0,P|336:84|360:112,1,75
444,232,45697,2,0,B|392:232|360:260|360:260|296:260,2,150,8|0|8,0:0|0:0|0:0,0:0:0:0:
68,232,46753,2,0,B|120:232|152:260|152:260|216:260,2,150,0|8|0,0:0|0:0|0:0,0:0:0:0:
36,164,47634,1,0,0:0:0:0:
36,88,47810,1,8,0:0:0:0:
112,88,47986,1,0,0:0:0:0:
112,164,48162,5,4,0:0:0:0:
256,200,48514,1,2,0:0:0:0:
400,164,48866,1,2,0:0:0:0:
168,352,49570,6,0,P|120:332|92:240,1,150,4|2,0:0|0:0,0:0:0:0:
108,172,50098,1,0,0:0:0:0:
176,136,50275,2,0,P|140:100|96:96,1,75
312,204,50979,5,2,0:0:0:0:
428,108,51331,1,0,0:0:0:0:
372,156,51507,5,2,0:0:0:0:
180,56,51859,1,0,0:0:0:0:
236,104,52035,1,2,0:0:0:0:
344,352,52387,6,0,P|392:332|420:240,1,150,4|2,0:0|0:0,0:0:0:0:
404,172,52915,1,0,0:0:0:0:
336,136,53092,2,0,P|372:100|416:96,1,75
256,264,53796,5,2,0:0:0:0:
124,196,54148,1,2,0:0:0:0:
248,112,54500,1,8,0:0:0:0:
384,52,54852,6,0,P|424:72|444:100,1,75,2|0,0:0|0:0,0:0:0:0:
468,164,55204,2,0,P|480:200|424:292,1,150,4|2,0:0|0:0,0:0:0:0:
353,279,55732,2,0,P|310:253|296:217,1,75
369,206,56084,1,2,0:0:0:0:
257,306,56436,5,0,0:0:0:0:
182,291,56613,2,0,P|189:269|227:236,1,75,4|0,0:0|0:0,0:0:0:0:
301,238,56964,2,0,P|291:196|189:169,2,150,2|4|2,0:0|0:0|0:0,0:0:0:0:
257,306,57845,1,0,0:0:0:0:
183,291,58021,5,4,0:0:0:0:
149,224,58197,1,2,0:0:0:0:
199,164,58373,2,0,L|199:84,2,75,4|2|4,0:0|0:0|0:0,0:0:0:0:
230,232,58901,1,2,0:0:0:0:
257,306,59077,1,4,0:0:0:0:
206,361,59253,1,2,0:0:0:0:
256,192,59429,12,4,60838,0:0:0:0:
72,48,62246,6,0,P|148:48|204:96,1,150,4|8,0:0|0:0,0:0:0:0:
256,144,62774,1,0,0:0:0:0:
309,93,62951,2,0,P|364:48|440:48,2,150,0|8|0,0:0|0:0|0:0,0:0:0:0:
332,164,63831,2,0,B|332:204|332:204|312:232,1,75,0|8,0:0|0:0,0:0:0:0:
180,164,64183,2,0,B|180:204|180:204|200:232,1,75
256,280,64535,2,0,L|256:372,1,75,0|8,0:0|0:0,0:0:0:0:
128,292,65063,5,0,0:0:0:0:
72,244,65239,1,0,0:0:0:0:
72,168,65415,2,0,B|72:92|72:92|24:36,2,150,8|0|8,0:0|0:0|0:0,0:0:0:0:
72,244,66296,1,0,0:0:0:0:
128,292,66472,1,0,0:0:0:0:
204,292,66648,1,0,0:0:0:0:
260,244,66824,2,0,P|328:244|392:296,2,150,8|0|8,0:0|0:0|0:0,0:0:0:0:
260,92,67880,6,0,B|184:92|184:92|120:52,2,150,0|8|0,0:0|0:0|0:0,0:0:0:0:
336,92,68760,1,0,0:0:0:0:
412,92,68936,2,0,P|412:168|464:216,2,150,8|0|8,0:0|0:0|0:0,0:0:0:0:
328,216,69993,1,0,0:0:0:0:
256,244,70169,1,0,0:0:0:0:
184,216,70345,6,0,P|108:216|56:264,2,150,8|0|8,0:0|0:0|0:0,0:0:0:0:
184,292,71225,1,0,0:0:0:0:
256,320,71401,1,0,0:0:0:0:
328,292,71577,1,0,0:0:0:0:
328,216,71753,2,0,P|404:216|456:264,2,150,8|0|8,0:0|0:0|0:0,0:0:0:0:
300,68,72810,2,0,L|348:132,1,75
212,68,73162,2,0,L|164:132,1,75,8|0,0:0|0:0,0:0:0:0:
256,144,73514,6,0,L|256:296,2,150,4|8|0,0:0|0:0|0:0,0:0:0:0:
328,112,74394,1,0,0:0:0:0:
372,48,74570,1,8,0:0:0:0:
432,96,74746,1,0,0:0:0:0:
392,160,74922,2,0,P|360:232|288:284,1,150,0|8,0:0|0:0,0:0:0:0:
120,160,75627,2,0,P|152:232|224:284,1,150,0|8,0:0|0:0,0:0:0:0:
256,128,76331,6,0,L|256:36,2,75,0|0|8,0:0|0:0|0:0,0:0:0:0:
164,244,77035,2,0,P|132:276|28:268,2,150,0|8|0,0:0|0:0|0:0,0:0:0:0:
197,175,77915,2,0,P|239:139|270:122,1,75,0|8,0:0|0:0,0:0:0:0:
296,188,78267,1,0,0:0:0:0:
348,244,78443,6,0,P|380:276|478:272,2,150,0|8|0,0:0|0:0|0:0,0:0:0:0:
296,188,79324,1,0,0:0:0:0:
368,164,79500,2,0,P|352:132|304:112,1,75,8|0,0:0|0:0,0:0:0:0:
257,70,79852,1,0,0:0:0:0:
193,113,80028,2,0,P|160:132|144:164,1,75,0|8,0:0|0:0,0:0:0:0:
216,188,80380,1,0,0:0:0:0:
176,252,80556,2,0,B|120:256|120:256|84:220|20:212,2,150,0|8|0,0:0|0:0|0:0,0:0:0:0:
256,292,81436,1,0,0:0:0:0:
336,252,81613,6,0,B|392:256|392:256|428:220|492:212,2,150,8|0|8,0:0|0:0|0:0,0:0:0:0:
276,208,82493,1,0,0:0:0:0:
220,160,82669,1,0,0:0:0:0:
160,116,82845,1,0,0:0:0:0:
104,64,83021,2,0,P|60:60|16:156,2,150,8|0|8,0:0|0:0|0:0,0:0:0:0:
252,44,84077,6,0,P|292:44|320:68,1,75
364,124,84429,1,8,0:0:0:0:
440,124,84605,1,0,0:0:0:0:
496,176,84782,2,0,P|496:252|452:308,1,150,4|8,0:0|0:0,0:0:0:0:
320,240,85486,2,0,B|320:280|320:280|304:312,1,75
256,368,85838,1,8,0:0:0:0:
208,312,86014,2,0,B|192:280|192:280|192:240,1,75
128,136,86542,6,0,P|168:136|196:112,1,75,8|0,0:0|0:0,0:0:0:0:
144,60,86894,1,0,0:0:0:0:
216,36,87070,1,0,0:0:0:0:
296,36,87246,1,8,0:0:0:0:
368,60,87422,1,0,0:0:0:0:
384,136,87598,2,0,P|344:136|316:112,2,75,0|0|8,0:0|0:0|0:0,0:0:0:0:
372,284,88303,2,0,P|332:284|308:308,1,75
256,364,88655,1,8,0:0:0:0:
140,284,88831,2,0,P|180:284|204:308,1,75
256,40,89359,6,0,L|256:190,1,150,8|0,0:0|0:0,0:0:0:0:
180,192,89887,1,0,0:0:0:0:
216,260,90063,1,8,0:0:0:0:
296,260,90239,1,0,0:0:0:0:
332,192,90415,1,0,0:0:0:0:
296,336,90767,5,8,0:0:0:0:
216,336,90944,1,0,0:0:0:0:
256,272,91120,2,0,L|256:196,1,75
208,140,91472,1,8,0:0:0:0:
256,84,91648,1,0,0:0:0:0:
304,140,91824,6,0,P|380:140|428:84,1,150,0|8,0:0|0:0,0:0:0:0:
452,16,92352,1,0,0:0:0:0:
504,72,92528,1,0,0:0:0:0:
484,144,92704,1,0,0:0:0:0:
427,89,92880,1,8,0:0:0:0:
376,36,93056,1,0,0:0:0:0:
304,65,93232,6,0,P|264:65|236:45,1,75
163,70,93584,2,0,P|143:102|87:118,1,75,8|0,0:0|0:0,0:0:0:0:
40,152,93936,1,0,0:0:0:0:
40,232,94113,1,0,0:0:0:0:
81,294,94289,2,0,L|124:356,1,75,8|0,0:0|0:0,0:0:0:0:
188,320,94641,2,0,P|216:300|256:300,1,75
328,320,94993,2,0,P|404:320|452:268,1,150,8|0,0:0|0:0,0:0:0:0:
452,192,95521,1,0,0:0:0:0:
452,116,95697,2,0,P|404:64|328:64,1,150,8|4,0:0|0:0,0:0:0:0:
220,240,107317,6,0,B|188:268|188:268|160:320|160:320|120:352,1,150,4|8,0:0|0:0,0:0:0:0:
44,224,108021,2,0,B|88:188|88:188|136:188|160:116,1,150,0|8,0:0|0:0,0:0:0:0:
204,76,108549,1,0,0:0:0:0:
256,132,108725,1,0,0:0:0:0:
308,76,108901,1,0,0:0:0:0:
460,40,109253,5,0,0:0:0:0:
416,100,109429,2,0,B|376:144|376:144|368:176|368:176|320:224,1,150,0|8,0:0|0:0,0:0:0:0:
256,240,109958,1,0,0:0:0:0:
184,216,110134,2,0,B|144:176|144:176|136:144|136:144|96:100,2,150,0|8|0,0:0|0:0|0:0,0:0:0:0:
208,288,111014,2,0,L|220:368,1,75,0|8,0:0|0:0,0:0:0:0:
292,362,111366,2,0,L|304:288,1,75
406,183,111894,6,0,P|440:147|443:118,1,75,8|0,0:0|0:0,0:0:0:0:
388,68,112246,2,0,P|328:56|304:144,1,150,0|8,0:0|0:0,0:0:0:0:
124,68,112951,2,0,P|184:56|208:144,1,150,4|8,0:0|0:0,0:0:0:0:
204,276,113655,2,0,P|160:312|72:272,2,150,0|8|0,0:0|0:0|0:0,0:0:0:0:
280,148,114711,5,8,0:0:0:0:
328,88,114887,1,0,0:0:0:0:
392,48,115063,2,0,P|440:40|504:120,1,150,0|8,0:0|0:0,0:0:0:0:
468,172,115591,1,0,0:0:0:0:
408,216,115767,2,0,P|348:232|304:304,2,150,0|8|0,0:0|0:0|0:0,0:0:0:0:
460,356,116824,1,8,0:0:0:0:
256,192,117176,12,4,118584,0:0:0:0:
216,348,119289,6,0,L|168:288,1,75,2|0,0:0|0:0,0:0:0:0:
296,348,119641,2,0,L|344:288,1,75,2|0,0:0|0:0,0:0:0:0:
256,268,119993,2,0,L|256:116,1,150,4|4,0:0|0:0,0:0:0:0:
180,120,120521,1,0,0:0:0:0:
216,56,120697,1,4,0:0:0:0:
296,56,120873,1,0,0:0:0:0:
332,120,121049,2,0,L|408:120,1,75
480,120,121401,6,0,B|480:196|480:196|436:256,1,150,2|0,0:0|0:0,0:0:0:0:
388,312,121929,1,0,0:0:0:0:
312,312,122105,1,2,0:0:0:0:
256,360,122282,2,0,P|184:355|121:312,1,150
60,356,122810,2,0,L|184:264,1,150,4|4,0:0|0:0,0:0:0:0:
240,220,123338,1,0,0:0:0:0:
172,188,123514,1,4,0:0:0:0:
172,112,123690,2,0,P|132:112|104:92,1,75
156,40,124042,1,0,0:0:0:0:
232,40,124218,6,0,B|280:40|280:40|324:64|324:64|376:64,2,150,2|2|2,0:0|0:0|0:0,0:0:0:0:
156,40,125098,1,0,0:0:0:0:
80,40,125274,1,0,0:0:0:0:
28,96,125451,1,0,0:0:0:0:
28,172,125627,2,0,P|28:248|80:304,1,150,4|4,0:0|0:0,0:0:0:0:
148,300,126155,2,0,B|188:300|188:300|216:320,1,75,0|4,0:0|0:0,0:0:0:0:
256,256,126507,1,0,0:0:0:0:
364,300,126683,2,0,B|324:300|324:300|296:320,1,75,2|0,0:0|0:0,0:0:0:0:
256,256,127035,6,0,L|256:104,1,150,4|2,0:0|0:0,0:0:0:0:
256,32,127563,1,0,0:0:0:0:
332,32,127739,2,0,P|408:32|464:76,1,150,4|2,0:0|0:0,0:0:0:0:
504,140,128267,1,0,0:0:0:0:
436,168,128444,6,0,P|368:204|368:272,1,150,4|2,0:0|0:0,0:0:0:0:
76,168,129148,2,0,P|144:204|144:272,2,150,4|2|4,0:0|0:0|0:0,0:0:0:0:
256,192,130028,12,4,131260,0:0:0:0:
