osu file format v12

[General]
AudioFilename: Nightcore - Take Me Away.mp3
AudioLeadIn: 2000
PreviewTime: 24922
Countdown: 0
SampleSet: Soft
StackLeniency: 0.7
Mode: 0
LetterboxInBreaks: 0

[Editor]
DistanceSpacing: 0.9
BeatDivisor: 4
GridSize: 4

[Metadata]
Title:Take Me Away (Nightcore Mix)
TitleUnicode:Take Me Away (Nightcore Mix)
Artist:Club Crusherz!
ArtistUnicode:Club Crusherz!
Creator:Lally
Version:Easy
Source:
Tags:original edit remix maikel6311 dancecore -Bakari- Andrea osuplayer111
BeatmapID:232662
BeatmapSetID:84457

[Difficulty]
HPDrainRate:3
CircleSize:3
OverallDifficulty:3
ApproachRate:3
SliderMultiplier:1
SliderTickRate:1

[Events]
//Background and Video events
0,0,"konachan_bg_goes_here.jpg",0,0
//Break Periods
2,96249,105877
//Storyboard Layer 0 (Background)
//Storyboard Layer 1 (Fail)
//Storyboard Layer 2 (Pass)
//Storyboard Layer 3 (Foreground)
//Storyboard Sound Samples
//Background Colour Transformations
3,100,163,162,255

[TimingPoints]
275,352.112676056338,4,2,0,45,1,0
18584,-100,4,2,0,55,0,0
25627,-100,4,2,0,65,0,1
48162,-100,4,2,0,55,0,0
62246,-100,4,1,0,55,0,0
84782,-100,4,2,0,65,0,1
96049,-100,4,2,0,65,0,0
107317,-100,4,2,0,65,0,0
119993,-100,4,2,0,65,0,0
131260,-100,4,2,0,65,0,0

[Colours]
Combo1 : 251,198,243
Combo2 : 164,179,232
Combo3 : 200,133,228
Combo4 : 26,166,163

[HitObjects]
68,152,275,2,0,P|80:108|216:84,1,200,4|2,0:0|0:0,0:0:0:0:
256,160,1331,2,0,L|256:272,2,100,0|2|0,0:0|0:0|0:0,0:0:0:0:
298,81,2387,2,0,P|432:108|444:152,1,200,2|2,0:0|0:0,0:0:0:0:
460,240,3444,6,0,P|432:292|384:304,1,100,0|2,0:0|0:0,0:0:0:0:
332,240,4148,2,0,P|308:192|300:136,1,100,0|2,0:0|0:0,0:0:0:0:
256,68,4852,2,0,L|256:8,2,50,0|0|2,0:0|0:0|0:0,0:0:0:0:
211,146,5556,2,0,P|204:192|180:240,2,100,0|2|0,0:0|0:0|0:0,0:0:0:0:
164,72,6613,5,2,0:0:0:0:
80,44,6965,1,0,0:0:0:0:
24,112,7317,2,0,P|8:172|16:220,1,100,2|0,0:0|0:0,0:0:0:0:
48,292,8021,6,0,P|92:324|152:324,1,100,2|0,0:0|0:0,0:0:0:0:
196,260,8725,2,0,P|240:160|328:160,2,200,2|2|2,0:0|0:0|0:0,0:0:0:0:
256,328,10486,1,0,0:0:0:0:
316,260,10838,2,0,P|272:160|184:160,1,200,2|2,0:0|0:0,0:0:0:0:
56,68,12951,6,0,P|84:68|156:100,1,100,4|8,0:0|0:0,0:0:0:0:
144,184,13655,2,0,P|209:210|240:208,1,100,2|8,0:0|0:0,0:0:0:0:
284,132,14359,2,0,P|312:132|380:156,2,100,2|8|2,0:0|0:0|0:0,0:0:0:0:
208,84,15415,5,8,0:0:0:0:
128,124,15767,2,0,B|92:192|92:192|112:228|172:200|192:260,1,200,2|2,0:0|0:0,0:0:0:0:
256,316,16824,1,8,0:0:0:0:
321,255,17176,2,0,B|340:200|400:228|420:192|420:192|384:124,2,200,2|2|4,0:0|0:0|0:0,0:0:0:0:
256,316,18936,6,0,P|212:336|148:316,1,100,8|2,0:0|0:0,0:0:0:0:
80,288,19641,1,8,0:0:0:0:
36,208,19993,1,2,0:0:0:0:
68,124,20345,2,0,P|100:92|160:80,1,100,8|2,0:0|0:0,0:0:0:0:
208,152,21049,5,8,0:0:0:0:
256,228,21401,2,0,L|256:292,2,50,2|0|8,0:0|0:0|0:0,0:0:0:0:
304,152,22105,1,2,0:0:0:0:
368,88,22458,1,8,0:0:0:0:
256,192,22810,12,4,24218,0:0:0:0:
208,280,25627,6,0,L|104:232,1,100,4|8,1:0|0:0,0:0:0:0:
40,192,26331,1,0,1:0:0:0:
84,112,26683,1,8,0:0:0:0:
152,56,27035,2,0,P|208:96|208:140,1,100,0|8,1:0|0:0,0:0:0:0:
256,200,27739,6,0,L|256:260,2,50,0|0|8,1:0|0:0|0:0,0:0:0:0:
300,122,28444,2,0,P|304:96|360:56,1,100,0|8,1:0|0:0,0:0:0:0:
432,108,29148,2,0,P|488:92|504:44,2,100,0|8|0,1:0|0:0|1:0,0:0:0:0:
380,180,30204,1,8,0:0:0:0:
316,244,30556,6,0,P|432:256|424:104,1,300,0|8,1:0|0:0,0:0:0:0:
356,60,31965,1,0,1:0:0:0:
304,136,32317,1,8,0:0:0:0:
256,212,32669,2,0,L|256:316,2,100,0|8|0,1:0|0:0|1:0,0:0:0:0:
208,136,33725,5,8,0:0:0:0:
156,60,34077,1,0,1:0:0:0:
68,44,34429,2,0,P|28:92|32:144,1,100,8|0,0:0|1:0,0:0:0:0:
44,216,35134,2,0,P|72:256|128:284,1,100,8|0,0:0|1:0,0:0:0:0:
196,236,35838,1,8,0:0:0:0:
256,168,36190,2,0,L|256:104,2,50,0|0|8,1:0|0:0|0:0,0:0:0:0:
284,252,36894,6,0,P|312:300|364:312,2,100,4|8|0,1:0|0:0|1:0,0:0:0:0:
340,180,37951,1,8,0:0:0:0:
392,104,38303,2,0,B|364:88|364:88|328:88|328:88|300:72,1,100,0|8,1:0|0:0,0:0:0:0:
256,152,39007,6,0,L|256:204,2,50,0|0|8,1:0|0:0|0:0,0:0:0:0:
212,72,39711,2,0,B|184:88|184:88|148:88|148:88|120:104,1,100,4|8,1:0|0:0,0:0:0:0:
40,144,40415,2,0,P|16:100|16:48,2,100,0|8|0,1:0|0:0|1:0,0:0:0:0:
152,288,41824,6,0,P|120:228|220:168,1,200,0|4,1:0|1:0,0:0:0:0:
256,244,42880,2,0,L|256:308,2,50,8|0|0,0:0|0:0|1:0,0:0:0:0:
301,164,43584,2,0,P|392:228|360:288,1,200,8|8,0:0|0:0,0:0:0:0:
304,360,44641,6,0,P|256:372|208:360,1,100,0|8,1:0|0:0,0:0:0:0:
212,272,45345,2,0,P|256:128|300:272,1,400,4|0,1:0|1:0,0:0:0:0:
56,76,48162,5,4,0:0:0:0:
119,139,48514,1,2,0:0:0:0:
182,202,48866,1,0,0:0:0:0:
312,328,49570,2,0,P|380:356|412:340,2,100,4|8|2,1:0|0:0|0:0,0:0:0:0:
232,168,50979,5,2,0:0:0:0:
156,120,51331,1,8,0:0:0:0:
68,104,51683,2,0,L|24:52,2,50,2|0|8,0:0|0:0|0:0,0:0:0:0:
96,188,52387,6,0,P|92:232|28:256,2,100,4|8|2,1:0|0:0|0:0,0:0:0:0:
256,104,53796,2,0,L|256:224,2,100,2|0|8,0:0|1:0|0:0,0:0:0:0:
432,64,55204,6,0,L|480:32,2,50,4|0|8,0:0|0:0|0:0,0:0:0:0:
392,144,55908,2,0,P|360:212|328:220,1,100,2|8,0:0|0:0,0:0:0:0:
256,248,56613,2,0,L|256:144,2,100,4|8|2,1:0|0:0|0:0,0:0:0:0:
256,336,57669,1,0,1:0:0:0:
256,192,58021,12,4,60838,0:0:0:0:
144,152,62246,6,0,B|112:148|112:148|76:156|76:156|44:152,2,100,4|8|0,0:0|2:0|0:0,0:0:0:0:
208,216,63303,2,0,B|240:228|240:228|276:228|276:228|308:216,1,100,8|4,2:0|0:0,0:0:0:0:
368,152,64007,2,0,B|400:148|400:148|436:156|436:156|468:152,2,100,8|0|8,2:0|0:0|2:0,0:0:0:0:
300,92,65063,5,4,0:0:0:0:
384,64,65415,2,0,P|428:36|488:40,2,100,8|0|8,2:0|0:0|2:0,0:0:0:0:
368,152,66472,1,0,0:0:0:0:
376,240,66824,2,0,B|340:248|364:320|308:332,1,100,8|0,2:0|0:0,0:0:0:0:
256,376,67528,1,0,0:0:0:0:
184,323,67880,6,0,B|148:320|172:248|136:240,1,100,4|8,0:0|2:0,0:0:0:0:
60,196,68584,2,0,P|8:160|0:104,2,100,0|8|4,0:0|2:0|0:0,0:0:0:0:
140,156,69641,1,8,2:0:0:0:
92,80,69993,2,0,P|124:48|192:48,1,100,0|8,0:0|2:0,0:0:0:0:
228,116,70697,6,0,P|264:140|304:188,1,100,4|8,0:0|2:0,0:0:0:0:
328,268,71401,1,0,0:0:0:0:
256,320,71753,1,8,2:0:0:0:
184,268,72105,1,0,0:0:0:0:
211,182,72458,2,0,P|248:140|284:116,1,100,8|0,2:0|0:0,0:0:0:0:
360,72,73162,1,0,0:0:0:0:
420,140,73514,6,0,P|464:184|504:184,2,100,4|8|0,0:0|2:0|0:0,0:0:0:0:
448,56,74570,1,8,2:0:0:0:
360,72,74922,6,0,P|304:132|296:164,1,100,4|8,0:0|2:0,0:0:0:0:
256,228,75627,1,0,0:0:0:0:
316,296,75979,2,0,P|352:340|412:348,1,100,8|4,2:0|0:0,0:0:0:0:
472,308,76683,6,0,P|500:248|480:208,1,100,8|0,2:0|0:0,0:0:0:0:
444,144,77387,2,0,P|412:112|344:112,1,100,8|0,2:0|0:0,0:0:0:0:
272,92,78091,2,0,P|300:40|344:16,2,100,8|0|0,2:0|0:0|0:0,0:0:0:0:
324,168,79148,5,4,0:0:0:0:
256,228,79500,1,8,2:0:0:0:
196,296,79852,2,0,P|160:340|100:348,1,100,0|8,0:0|2:0,0:0:0:0:
40,308,80556,6,0,P|12:248|32:208,1,100,4|8,0:0|2:0,0:0:0:0:
68,144,81260,2,0,P|100:112|168:112,1,100,0|8,0:0|2:0,0:0:0:0:
240,92,81964,2,0,P|212:40|168:16,2,100,4|8|0,0:0|2:0|0:0,0:0:0:0:
256,180,83021,1,8,2:0:0:0:
316,244,83373,2,0,B|356:280|356:280|424:288,2,100,0|8|0,0:0|2:0|0:0,0:0:0:0:
192,116,84782,5,6,0:0:0:0:
124,60,85134,2,0,P|76:36|12:40,2,100,8|0|8,0:0|1:0|0:0,0:0:0:0:
108,148,86190,2,0,P|136:188|192:208,1,100,0|8,1:0|0:0,0:0:0:0:
256,260,86894,6,0,L|256:332,2,50,0|0|8,1:0|0:0|0:0,0:0:0:0:
330,207,87598,2,0,P|376:188|404:148,1,100,4|8,0:0|0:0,0:0:0:0:
444,68,88303,1,0,1:0:0:0:
364,32,88655,2,0,P|332:88|328:124,1,100,8|4,0:0|0:0,0:0:0:0:
184,122,89711,6,0,P|180:88|148:32,2,100,0|8|4,1:0|0:0|0:0,0:0:0:0:
120,188,90767,1,8,0:0:0:0:
52,248,91120,2,0,P|68:300|200:284,1,200,0|4,1:0|0:0,0:0:0:0:
256,232,92176,1,8,0:0:0:0:
319,297,92528,6,0,P|444:300|460:248,2,200,0|0|0,1:0|1:0|1:0,0:0:0:0:
256,232,94289,1,8,0:0:0:0:
256,192,94641,12,4,96049,0:0:0:0:
108,192,107317,6,0,P|128:152|20:64,2,200,4|0|0,0:0|1:0|1:0,0:0:0:0:
52,260,109077,1,8,0:0:0:0:
124,312,109429,1,0,1:0:0:0:
200,264,109782,1,8,0:0:0:0:
256,192,110134,6,0,L|256:84,2,100,4|8|0,0:0|0:0|1:0,0:0:0:0:
312,264,111190,1,8,0:0:0:0:
388,312,111542,1,0,1:0:0:0:
460,260,111894,1,8,0:0:0:0:
428,176,112246,6,0,P|364:152|336:112,1,100,0|8,1:0|0:0,0:0:0:0:
256,148,112951,2,0,L|256:256,1,100,4|8,0:0|0:0,0:0:0:0:
196,316,113655,2,0,P|116:344|44:260,1,200,0|0,1:0|1:0,0:0:0:0:
48,180,114711,1,8,0:0:0:0:
116,120,115063,1,0,1:0:0:0:
204,104,115415,1,8,0:0:0:0:
256,192,115767,12,4,118584,0:0:0:0:
296,156,119993,6,0,P|316:92|444:72,1,200,4|2,0:0|0:0,0:0:0:0:
484,140,121049,1,8,0:0:0:0:
400,168,121401,2,0,P|340:240|240:232,1,200,2|2,0:0|0:0,0:0:0:0:
204,152,122458,1,8,0:0:0:0:
292,128,122810,6,0,P|320:220|320:328,2,200,4|2|2,1:0|0:0|0:0,0:0:0:0:
124,60,124922,1,2,0:0:0:0:
52,112,125274,1,8,0:0:0:0:
12,192,125627,6,0,P|16:240|148:296,1,200,4|2,1:0|0:0,0:0:0:0:
196,228,126683,1,8,0:0:0:0:
256,160,127035,1,4,0:0:0:0:
316,228,127387,1,8,0:0:0:0:
373,299,127739,6,0,P|496:240|500:192,2,200,0|4|0,1:0|0:0|0:0,0:0:0:0:
284,312,129500,1,8,0:0:0:0:
256,192,129852,12,4,131260,0:0:0:0:
