osu file format v12

[General]
AudioFilename: Nightcore - Take Me Away.mp3
AudioLeadIn: 2000
PreviewTime: 24922
Countdown: 0
SampleSet: Soft
StackLeniency: 0.7
Mode: 0
LetterboxInBreaks: 0

[Editor]
DistanceSpacing: 1.2
BeatDivisor: 4
GridSize: 4

[Metadata]
Title:Take Me Away (Nightcore Mix)
TitleUnicode:Take Me Away (Nightcore Mix)
Artist:Club Crusherz!
ArtistUnicode:Club Crusherz!
Creator:Lally
Version:Beginner
Source:
Tags:original edit remix maikel6311 dancecore -Bakari- Andrea osuplayer111
BeatmapID:232665
BeatmapSetID:84457

[Difficulty]
HPDrainRate:2
CircleSize:2
OverallDifficulty:2
ApproachRate:3
SliderMultiplier:0.8
SliderTickRate:1

[Events]
//Background and Video events
0,0,"konachan_bg_goes_here.jpg",0,0
//Break Periods
2,96249,105877
//Storyboard Layer 0 (Background)
//Storyboard Layer 1 (Fail)
//Storyboard Layer 2 (Pass)
//Storyboard Layer 3 (Foreground)
//Storyboard Sound Samples
//Background Colour Transformations
3,100,163,162,255

[TimingPoints]
275,352.112676056338,4,2,0,45,1,0
18584,-100,4,2,0,65,0,0
25627,-100,4,2,0,65,0,1
48162,-100,4,2,0,65,0,0
62246,-100,4,2,0,65,0,0
84782,-100,4,2,0,65,0,1
96049,-100,4,2,0,65,0,0
107317,-100,4,2,0,65,0,0
119993,-100,4,2,0,65,0,0
131260,-100,4,2,0,65,0,0

[Colours]
Combo1 : 251,198,243
Combo2 : 164,179,232
Combo3 : 200,133,228
Combo4 : 26,166,163

[HitObjects]
420,156,275,2,0,P|436:116|308:104,1,240,4|0,0:0|0:0,0:0:0:0:
304,200,1683,6,0,P|328:256|432:280,2,160,2|2|2,0:0|0:0|0:0,0:0:0:0:
256,116,3444,1,0,0:0:0:0:
208,200,3796,2,0,P|184:256|80:280,2,160,2|2|2,0:0|0:0|0:0,0:0:0:0:
180,108,5556,2,0,P|144:76|96:68,1,80,0|2,0:0|0:0,0:0:0:0:
24,240,6613,6,0,B|72:264|72:264|96:328|172:320,1,160,2|2,0:0|0:0,0:0:0:0:
358,320,8021,2,0,B|416:328|440:264|440:264|488:240,1,160,2|2,0:0|0:0,0:0:0:0:
436,56,9429,6,0,P|368:60|308:132,1,160,2|2,0:0|0:0,0:0:0:0:
256,204,10486,2,0,L|256:300,2,80,0|2|0,0:0|0:0|0:0,0:0:0:0:
202,125,11542,2,0,P|144:60|76:56,1,160,2|2,0:0|0:0,0:0:0:0:
48,244,12951,6,0,B|96:252|96:252|152:280|152:280|208:276,1,160,4|2,0:0|0:0,0:0:0:0:
256,196,14007,1,8,0:0:0:0:
311,276,14359,2,0,B|360:280|360:280|416:252|416:252|464:244,2,160,2|2|2,0:0|0:0|0:0,0:0:0:0:
256,196,16120,2,0,P|260:136|408:72,2,240,8|2|8,0:0|0:0|0:0,0:0:0:0:
208,284,18584,6,0,B|144:320|144:320|44:320|44:204,1,240,4|8,0:0|0:0,0:0:0:0:
69,123,19993,1,2,0:0:0:0:
144,61,20345,2,0,B|201:113|201:113|209:195,1,160,8|8,0:0|0:0,0:0:0:0:
256,284,21401,1,2,0:0:0:0:
303,195,21753,2,0,B|311:113|311:113|368:61,1,160,8|8,0:0|0:0,0:0:0:0:
256,192,22810,12,4,24218,0:0:0:0:
40,120,25627,6,0,P|96:56|180:52,2,160,4|2|0,0:0|0:0|1:0,0:0:0:0:
16,212,27387,1,8,0:0:0:0:
52,300,27739,2,0,P|96:320|144:320,1,80,0|8,1:0|0:0,0:0:0:0:
204,264,28444,2,0,P|212:208|208:176,1,80,0|8,1:0|0:0,0:0:0:0:
256,100,29148,2,0,L|256:16,2,80,0|8|4,1:0|0:0|0:0,0:0:0:0:
424,192,30556,6,0,P|464:240|472:264,1,80,0|8,1:0|0:0,0:0:0:0:
424,340,31260,2,0,P|388:360|280:236,1,240,4|8,0:0|0:0,0:0:0:0:
352,180,32669,2,0,P|376:112|312:56,1,160,0|0,1:0|1:0,0:0:0:0:
256,128,33725,2,0,L|256:224,2,80,8|0|8,0:0|1:0|0:0,0:0:0:0:
193,56,34782,2,0,P|136:112|160:180,1,160,0|4,1:0|0:0,0:0:0:0:
304,308,36190,6,0,B|388:340|388:340|468:340,2,160,2|4|0,0:0|0:0|1:0,0:0:0:0:
256,224,37951,1,8,0:0:0:0:
208,308,38303,2,0,B|124:340|124:340|44:340,2,160,0|0|0,1:0|1:0|1:0,0:0:0:0:
256,224,40063,2,0,P|296:80|384:64,1,240,8|4,0:0|0:0,0:0:0:0:
436,240,41824,6,0,P|424:308|332:332,1,160,0|4,1:0|0:0,0:0:0:0:
256,300,42880,2,0,L|256:208,2,80,8|0|8,0:0|1:0|0:0,0:0:0:0:
166,336,43936,2,0,P|88:308|76:240,2,160,4|0|4,0:0|1:0|0:0,0:0:0:0:
256,192,45697,12,2,47458,0:0:0:0:
196,260,48162,5,4,0:0:0:0:
108,296,48514,1,2,0:0:0:0:
32,236,48866,1,0,0:0:0:0:
176,108,49570,6,0,P|144:68|36:48,2,160,4|0|2,1:0|1:0|0:0,0:0:0:0:
336,108,52387,6,0,P|368:68|476:48,2,160,4|0|8,1:0|1:0|0:0,0:0:0:0:
168,332,55204,6,0,B|104:316|104:316|68:272|68:272|28:244,1,160,4|0,1:0|1:0,0:0:0:0:
144,92,56613,2,0,P|188:160|192:252,1,160,4|0,1:0|1:0,0:0:0:0:
256,192,58021,12,2,60838,0:0:0:0:
253,273,62246,6,0,L|252:360,2,80,4|8|0,1:0|0:0|1:0,0:0:0:0:
177,214,63303,1,8,0:0:0:0:
208,124,63655,6,0,L|134:74,2,80,4|8|0,1:0|0:0|1:0,0:0:0:0:
306,127,64711,1,8,0:0:0:0:
332,220,65063,6,0,L|405:269,2,80,4|8|0,1:0|0:0|1:0,0:0:0:0:
256,280,66120,1,8,0:0:0:0:
172,324,66472,2,0,P|96:344|44:216,1,240,0|8,1:0|0:0,0:0:0:0:
100,144,67880,6,0,L|56:56,2,80,4|8|0,1:0|0:0|1:0,0:0:0:0:
176,204,68936,1,8,0:0:0:0:
256,260,69289,6,0,L|256:356,2,80,4|8|0,1:0|0:0|1:0,0:0:0:0:
336,204,70345,1,8,0:0:0:0:
412,144,70697,6,0,L|447:72,2,80,4|8|0,1:0|0:0|1:0,0:0:0:0:
428,240,71753,1,8,0:0:0:0:
360,304,72105,2,0,B|328:310|280:278|228:196|147:207,1,240,0|8,1:0|0:0,0:0:0:0:
152,304,73514,6,0,B|183:310|231:278|284:196|368:208,1,240,4|8,1:0|0:0,0:0:0:0:
460,192,74922,2,0,P|440:108|296:80,1,240,4|8,1:0|0:0,0:0:0:0:
207,75,76331,2,0,P|72:108|52:192,1,240,4|8,1:0|0:0,0:0:0:0:
56,288,77739,6,0,P|136:248|152:184,1,160,0|0,1:0|1:0,0:0:0:0:
96,108,78796,1,8,0:0:0:0:
48,192,79148,6,0,P|136:280|256:304,1,240,4|8,1:0|0:0,0:0:0:0:
340,304,80556,2,0,P|424:288|464:144,1,240,4|8,1:0|0:0,0:0:0:0:
428,68,81965,2,0,P|332:96|388:208,1,240,4|8,1:0|0:0,0:0:0:0:
428,280,83373,2,0,P|396:320|296:280,1,160,0|0,1:0|1:0,0:0:0:0:
204,128,84782,6,0,B|164:104|164:104|104:96|104:96|52:56,2,160,4|0|0,0:0|1:0|1:0,0:0:0:0:
256,208,86542,1,8,0:0:0:0:
308,128,86894,2,0,B|348:104|348:104|408:96|408:96|460:56,2,160,0|4|0,1:0|0:0|1:0,0:0:0:0:
256,208,88655,2,0,P|220:248|184:264,1,80,8|4,0:0|0:0,0:0:0:0:
20,188,89711,6,0,P|24:272|96:304,1,160,0|4,1:0|0:0,0:0:0:0:
160,248,90767,1,8,0:0:0:0:
256,232,91120,2,0,L|256:140,2,80,0|8|0,1:0|0:0|1:0,0:0:0:0:
352,248,92176,1,8,0:0:0:0:
416,320,92528,2,0,P|464:276|476:248,1,80,0|8,1:0|0:0,0:0:0:0:
256,192,93232,12,4,96049,0:0:0:0:
36,232,107317,6,0,P|68:112|184:96,1,240,4|8,0:0|0:0,0:0:0:0:
256,132,108725,2,0,L|256:300,2,160,0|0|4,1:0|1:0|0:0,0:0:0:0:
342,90,110486,2,0,P|444:112|476:232,1,240,8|4,0:0|0:0,0:0:0:0:
308,324,112246,6,0,P|340:360|384:368,2,80,0|8|4,1:0|0:0|0:0,0:0:0:0:
212,156,113655,2,0,L|152:92,2,80,0|8|4,1:0|0:0|0:0,0:0:0:0:
256,240,114711,1,8,0:0:0:0:
300,156,115063,2,0,L|360:92,2,80,0|8|4,1:0|0:0|0:0,0:0:0:0:
256,192,116120,12,4,118584,0:0:0:0:
308,112,119993,6,0,P|352:80|444:196,1,240,4|8,0:0|0:0,0:0:0:0:
388,268,121401,2,0,L|320:312,1,80,2|8,0:0|0:0,0:0:0:0:
256,240,122105,1,2,0:0:0:0:
192,312,122458,6,0,L|124:268,1,80,8|0,0:0|1:0,0:0:0:0:
65,191,123162,2,0,P|160:80|204:112,1,240,8|4,0:0|0:0,0:0:0:0:
336,252,124922,6,0,P|384:184|380:96,2,160,2|4|0,0:0|0:0|1:0,0:0:0:0:
176,252,127035,2,0,P|128:184|132:96,2,160,0|0|4,1:0|1:0|0:0,0:0:0:0:
256,192,128796,12,4,131260,0:0:0:0:
