osu file format v11

[General]
AudioFilename: 13. Clonepa - Monochromatic Rose.mp3
AudioLeadIn: 0
PreviewTime: -1
Countdown: 1
SampleSet: Normal
StackLeniency: 0.7
Mode: 0
LetterboxInBreaks: 1

[Editor]
DistanceSpacing: 1
BeatDivisor: 4
GridSize: 8

[Metadata]
Title:Monochromatic Rose
TitleUnicode:Monochromatic Rose
Artist:Clonepa
ArtistUnicode:Clonepa
Creator:GensokyoAkuma
Version:I hate everyone
Source:
Tags:
BeatmapID:217404
BeatmapSetID:77458

[Difficulty]
HPDrainRate:7
CircleSize:4
OverallDifficulty:7
ApproachRate:9
SliderMultiplier:1.39999990463257
SliderTickRate:2

[Events]
//Background and Video events
//Break Periods
//Storyboard Layer 0 (Background)
//Storyboard Layer 1 (Fail)
//Storyboard Layer 2 (Pass)
//Storyboard Layer 3 (Foreground)
//Storyboard Sound Samples
//Background Colour Transformations
3,100,163,162,255

[TimingPoints]
20221.4243079513,315.703070738535,4,1,0,100,1,0

[Colours]
Combo1 : 157,0,0
Combo2 : 77,77,155
Combo3 : 0,54,108
Combo4 : 191,0,96

[HitObjects]
32,96,1920,2,0,P|144:96,1,69.9999976158143
480,96,2236,2,0,P|384:96,1,69.9999976158143
32,96,2552,2,0,P|112:96,1,69.9999976158143
480,96,2867,2,0,P|400:96,1,69.9999976158143
448,240,3183,5,0,0:0:0
336,320,3341,1,0,0:0:0
336,176,3499,1,0,0:0:0
224,272,3657,1,0,0:0:0
224,128,3814,1,0,0:0:0
112,224,3972,1,0,0:0:0
112,80,4130,1,0,0:0:0
112,224,4288,1,0,0:0:0
32,352,4446,6,0,P|144:272,1,69.9999976158143
208,144,4761,1,0,0:0:0
288,256,4919,1,0,0:0:0
480,32,5077,6,0,P|400:96,1,69.9999976158143
288,256,5393,1,0,0:0:0
208,144,5551,1,0,0:0:0
192,288,5709,5,0,0:0:0
336,288,5866,1,0,0:0:0
224,208,6024,1,0,0:0:0
272,336,6182,1,0,0:0:0
304,192,6340,1,0,0:0:0
192,288,6498,1,0,0:0:0
320,240,6656,1,0,0:0:0
320,240,6814,1,0,0:0:0
448,192,6971,5,0,0:0:0
304,192,7129,1,0,0:0:0
160,192,7287,1,0,0:0:0
304,192,7445,1,0,0:0:0
448,192,7603,1,0,0:0:0
304,192,7761,1,0,0:0:0
304,48,7919,1,0,0:0:0
160,48,8076,1,0,0:0:0
160,192,8234,5,0,0:0:0
160,48,8392,1,0,0:0:0
160,192,8550,1,0,0:0:0
160,48,8708,1,0,0:0:0
304,48,8866,1,0,0:0:0
304,192,9023,1,0,0:0:0
304,336,9181,1,0,0:0:0
304,192,9339,1,0,0:0:0
400,96,9497,6,0,P|336:160,1,69.9999976158143
448,48,9813,1,0,0:0:0
304,192,9971,1,0,0:0:0
112,96,10128,6,0,P|176:160,1,69.9999976158143
64,48,10444,1,0,0:0:0
208,192,10602,1,0,0:0:0
336,272,10760,5,0,0:0:0
240,176,10918,1,0,0:0:0
400,320,11076,1,0,0:0:0
192,128,11233,1,0,0:0:0
256,336,11391,5,0,0:0:0
464,144,11549,1,0,0:0:0
192,80,11707,1,0,0:0:0
256,336,11865,1,0,0:0:0
256,192,12023,12,0,14233,0:0:0
464,256,14548,6,0,P|80:160|96:96,1,559.999980926514
80,160,15811,6,0,P|176:272|272:256|288:144|368:96|272:80|176:96|256:144|272:256|368:272|464:160,1,559.999980926514
450,174,17074,6,0,P|448:168|448:168|456:168|456:168|448:160|448:160|456:160|456:160|448:152|448:152|456:152|456:152|448:144|448:144|456:144|456:144|448:136|448:136|456:136|456:136|448:128|448:128|456:128|456:128|448:120|448:120|456:120|456:120|448:112|448:112|456:112|456:112|448:104|448:104|456:104|456:104|448:96|448:96|456:96|456:96|448:88|448:88|456:88|456:88|448:80|448:80|456:80|456:80|448:72|448:72|456:72|456:72|448:64|448:64|456:64|456:64|448:56|448:56|456:56|456:56|448:48|448:48|456:48|456:48|448:40|448:40|456:40|456:40|448:32|448:32|456:32|456:32|448:24|448:24|456:24|456:24|456:16|456:16|440:16|440:16|440:24|440:24|432:16|432:16|432:24|432:24|424:16|424:16|424:24|424:24|416:16|416:16|416:24|416:24|408:16|408:16|408:24|408:24|400:16|400:16|400:24|400:24|392:16|392:16|392:24|392:24|384:16|384:16|384:24|384:24|376:16|376:16|376:24|376:24|360:16,1,559.999980926514
368,24,18337,6,0,P|189:220|415:271,1,559.999980926514
120,56,19915,1,0,0:0:0
376,296,20223,1,0,0:0:0
96,328,20537,1,0,0:0:0
192,144,20852,1,0,0:0:0
240,272,21168,1,0,0:0:0
288,224,21484,1,0,0:0:0
288,224,21799,1,0,0:0:0
360,24,22115,6,0,P|280:24,1,69.9999952316284
64,192,22431,2,0,P|136:192,1,69.9999952316284
360,360,22747,2,0,P|280:360,1,69.9999952316284
64,192,23062,6,0,P|144:192,1,69.9999952316284
416,192,23378,2,0,P|328:192,1,69.9999952316284
488,192,23694,1,0,0:0:0
280,192,23852,1,0,0:0:0
416,192,24009,1,0,0:0:0
208,192,24167,1,0,0:0:0
352,192,24325,1,0,0:0:0
144,192,24483,1,0,0:0:0
224,40,24641,5,0,0:0:0
344,208,24799,1,0,0:0:0
136,216,24956,1,0,0:0:0
224,40,25114,5,0,0:0:0
392,264,25272,1,0,0:0:0
112,288,25430,1,0,0:0:0
224,40,25588,5,0,0:0:0
440,320,25746,1,0,0:0:0
88,352,25904,1,0,0:0:0
224,40,26061,5,0,0:0:0
368,192,26219,2,0,P|296:192,1,69.9999952316284
256,320,26535,2,0,P|256:248,1,69.9999952316284
144,192,26851,2,0,P|232:192,1,69.9999952316284
512,192,27166,5,0,0:0:0
344,64,27324,1,0,0:0:0
176,192,27482,1,0,0:0:0
344,320,27640,5,0,0:0:0
176,192,27798,1,0,0:0:0
8,320,27956,1,0,0:0:0
8,112,28113,5,0,0:0:0
144,272,28271,1,0,0:0:0
168,64,28429,1,0,0:0:0
32,224,28587,1,0,0:0:0
240,176,28745,1,0,0:0:0
64,64,28903,1,0,0:0:0
272,64,29061,1,0,0:0:0
64,64,29218,1,0,0:0:0
272,64,29376,1,0,0:0:0
64,64,29534,1,0,0:0:0
256,0,29692,6,0,P|256:96,1,69.9999952316284
256,384,30008,2,0,P|256:304,1,69.9999952316284
256,0,30323,2,0,P|256:96,1,69.9999952316284
256,384,30639,2,0,P|256:304,1,69.9999952316284
32,192,30955,5,0,0:0:0
32,192,31113,1,0,0:0:0
32,192,31271,1,0,0:0:0
400,192,31428,1,0,0:0:0
32,192,31586,5,0,0:0:0
32,192,31744,1,0,0:0:0
32,192,31902,1,0,0:0:0
400,192,32059,1,0,0:0:0
400,48,32218,6,0,P|400:136,1,69.9999952316284
400,256,32533,2,0,P|400:336,1,69.9999952316284
328,48,32849,2,0,P|328:128,1,69.9999952316284
328,256,33165,2,0,P|328:328,1,69.9999952316284
48,328,33480,5,0,0:0:0
48,184,33638,5,0,0:0:0
192,184,33796,1,0,0:0:0
192,328,33954,1,0,0:0:0
48,328,34112,5,0,0:0:0
48,120,34270,5,0,0:0:0
256,120,34428,1,0,0:0:0
256,328,34585,1,0,0:0:0
48,328,34743,5,0,0:0:0
48,48,34901,5,0,0:0:0
117,41,35058,1,0,0:0:0
187,41,35216,1,0,0:0:0
252,61,35374,1,0,0:0:0
221,120,35532,1,0,0:0:0
177,175,35690,1,0,0:0:0
182,237,35848,1,0,0:0:0
249,252,36005,1,0,0:0:0
313,230,36163,1,0,0:0:0
286,174,36321,1,0,0:0:0
224,142,36479,1,0,0:0:0
156,125,36637,1,0,0:0:0
87,132,36795,1,0,0:0:0
45,185,36953,1,0,0:0:0
51,253,37110,1,0,0:0:0
100,302,37268,1,0,0:0:0
167,321,37426,1,0,0:0:0
236,326,37584,1,0,0:0:0
306,324,37742,1,0,0:0:0
376,320,37900,1,0,0:0:0
448,304,38058,2,0,P|456:296|456:296|448:296|448:296|456:288|456:288|448:288|448:288|456:280|456:280|448:280|448:280|456:272|456:272|448:272|448:272|456:264|456:264|448:264|448:264|456:256|456:256|448:256|448:256|456:248|456:248|448:248|448:248|456:240|456:240|448:240|448:240|456:232|456:232|448:232|448:232|464:224|464:224|440:224|440:224|464:216|464:216|440:216|440:216|464:208|464:208|440:208|440:208|464:200|464:200|440:200|440:200|472:192|472:192|432:192|432:192|472:184|472:184|432:184|432:184|472:176|472:176|432:176|432:176|472:224|472:224,1,629.999957084656
40,40,39794,5,0,0:0:0
72,40,39873,1,0,0:0:0
104,40,39952,1,0,0:0:0
136,40,40031,1,0,0:0:0
168,40,40110,1,0,0:0:0
240,40,40268,1,0,0:0:0
312,40,40426,1,0,0:0:0
384,40,40584,1,0,0:0:0
456,40,40742,1,0,0:0:0
480,192,41057,5,0,0:0:0
24,192,41215,1,0,0:0:0
480,192,41373,1,0,0:0:0
24,192,41531,1,0,0:0:0
480,192,41689,1,0,0:0:0
480,352,42320,5,0,0:0:0
344,352,42477,1,0,0:0:0
200,352,42635,1,0,0:0:0
344,32,42794,1,0,0:0:0
344,64,42873,1,0,0:0:0
344,96,42952,1,0,0:0:0
344,128,43030,1,0,0:0:0
344,160,43109,1,0,0:0:0
48,160,43267,2,0,P|96:160,2,34.9999976158142
32,352,43583,6,0,P|120:352,1,69.9999952316284
480,32,43899,2,0,P|384:32,1,69.9999952316284
32,352,44214,1,0,0:0:0
480,32,44372,1,0,0:0:0
32,352,44530,1,0,0:0:0
480,32,44688,1,0,0:0:0
256,192,44846,6,0,P|256:264,1,69.9999952316285
288,264,45083,1,0,0:0:0
320,264,45161,1,0,0:0:0
352,264,45240,1,0,0:0:0
384,264,45319,1,0,0:0:0
256,56,45477,5,0,0:0:0
120,104,45635,1,0,0:0:0
112,240,45793,1,0,0:0:0
256,240,45951,1,0,0:0:0
400,240,46109,1,0,0:0:0
400,104,46266,1,0,0:0:0
256,56,46424,5,0,0:0:0
256,240,46582,1,0,0:0:0
256,56,46740,1,0,0:0:0
256,304,46898,1,0,0:0:0
256,56,47056,1,0,0:0:0
256,368,47214,1,0,0:0:0
256,56,47371,5,0,0:0:0
112,56,47529,1,0,0:0:0
392,56,47687,1,0,0:0:0
256,240,47845,1,0,0:0:0
256,208,47924,1,0,0:0:0
256,176,48003,1,0,0:0:0
256,144,48082,1,0,0:0:0
256,112,48161,1,0,0:0:0
256,240,48318,5,0,0:0:0
256,240,48397,1,0,0:0:0
256,240,48476,1,0,0:0:0
392,192,48634,5,0,0:0:0
256,304,48792,1,0,0:0:0
120,192,48950,1,0,0:0:0
256,88,49108,1,0,0:0:0
392,192,49266,5,0,0:0:0
256,304,49423,1,0,0:0:0
120,192,49581,1,0,0:0:0
256,88,49739,1,0,0:0:0
432,88,49897,5,0,0:0:0
360,248,50055,1,0,0:0:0
336,72,50213,1,0,0:0:0
264,232,50371,1,0,0:0:0
80,88,50528,5,0,0:0:0
152,248,50686,1,0,0:0:0
176,72,50844,1,0,0:0:0
248,232,51002,1,0,0:0:0
256,56,51160,5,0,0:0:0
368,192,51318,1,0,0:0:0
256,328,51476,1,0,0:0:0
144,192,51633,1,0,0:0:0
256,192,51791,6,0,P|312:144,1,69.9999952316285
256,192,52107,6,0,P|200:144,1,69.9999952316285
32,192,52423,5,0,0:0:0
144,192,52580,1,0,0:0:0
32,192,52738,1,0,0:0:0
144,192,52896,1,0,0:0:0
176,192,52975,1,0,0:0:0
208,192,53054,1,0,0:0:0
240,192,53133,1,0,0:0:0
272,192,53212,1,0,0:0:0
360,40,53370,5,0,0:0:0
360,352,53528,1,0,0:0:0
360,352,53685,1,0,0:0:0
360,40,53843,1,0,0:0:0
152,40,54001,1,0,0:0:0
144,352,54159,1,0,0:0:0
144,352,54317,1,0,0:0:0
152,40,54475,1,0,0:0:0
256,192,54633,6,0,P|256:112,1,69.9999952316285
256,192,54948,6,0,P|304:168|304:128,1,69.9999952316285
40,320,55264,1,0,0:0:0
40,320,55343,1,0,0:0:0
40,320,55422,1,0,0:0:0
40,32,55580,1,0,0:0:0
472,320,55895,1,0,0:0:0
472,192,56052,1,0,0:0:0
472,64,56210,1,0,0:0:0
256,192,56369,5,0,0:0:0
256,192,56448,1,0,0:0:0
256,192,56527,1,0,0:0:0
40,192,56685,1,0,0:0:0
256,32,57000,5,0,0:0:0
472,192,57158,1,0,0:0:0
256,352,57316,1,0,0:0:0
40,192,57474,5,0,0:0:0
472,192,57632,5,0,0:0:0
40,192,57790,1,0,0:0:0
472,192,57947,1,0,0:0:0
440,192,58026,1,0,0:0:0
408,192,58105,1,0,0:0:0
376,192,58184,1,0,0:0:0
336,192,58263,1,0,0:0:0
152,32,58421,5,0,0:0:0
352,32,58579,1,0,0:0:0
296,352,58737,2,0,P|216:352,1,69.9999952316285
352,32,59052,5,0,0:0:0
152,32,59210,1,0,0:0:0
224,352,59368,2,0,P|296:352,1,69.9999952316285
296,280,59684,2,0,P|208:280,1,69.9999952316285
256,192,60000,5,0,0:0:0
256,192,60157,1,0,0:0:0
256,32,60315,1,0,0:0:0
256,32,60394,1,0,0:0:0
256,32,60473,1,0,0:0:0
256,192,60631,1,0,0:0:0
32,352,60947,5,0,0:0:0
256,352,61104,1,0,0:0:0
480,352,61262,1,0,0:0:0
256,352,61578,1,0,0:0:0
256,32,61736,1,0,0:0:0
256,192,62052,5,0,0:0:0
256,192,62209,2,0,P|304:192,2,34.9999976158143
