osu file format v11

[General]
AudioFilename: 13. Clonepa - Monochromatic Rose.mp3
AudioLeadIn: 0
PreviewTime: -1
Countdown: 1
SampleSet: Normal
StackLeniency: 0.7
Mode: 0
LetterboxInBreaks: 1

[Editor]
DistanceSpacing: 1
BeatDivisor: 4
GridSize: 8

[Metadata]
Title:Monochromatic Rose
TitleUnicode:Monochromatic Rose
Artist:Clonepa
ArtistUnicode:Clonepa
Creator:GensokyoAkuma
Version:I hate everyone AR10
Source:
Tags:
BeatmapID:217403
BeatmapSetID:77458

[Difficulty]
HPDrainRate:7
CircleSize:4
OverallDifficulty:7
ApproachRate:10
SliderMultiplier:2.79999990463257
SliderTickRate:2

[Events]
//Background and Video events
//Break Periods
//Storyboard Layer 0 (Background)
//Storyboard Layer 1 (Fail)
//Storyboard Layer 2 (Pass)
//Storyboard Layer 3 (Foreground)
//Storyboard Sound Samples
//Background Colour Transformations
3,100,163,162,255

[TimingPoints]
20231.4243079513,631.405556738342,4,1,0,100,1,0

[Colours]
Combo1 : 157,0,0
Combo2 : 77,77,155
Combo3 : 0,54,108
Combo4 : 191,0,96

[HitObjects]
32,96,1920,2,0,P|144:96,1,69.9999976158143
480,96,2236,2,0,P|384:96,1,69.9999976158143
32,96,2552,2,0,P|112:96,1,69.9999976158143
480,96,2867,2,0,P|400:96,1,69.9999976158143
448,240,3183,5,0,0:0:0
336,320,3341,1,0,0:0:0
336,176,3499,1,0,0:0:0
224,272,3657,1,0,0:0:0
224,128,3814,1,0,0:0:0
112,224,3972,1,0,0:0:0
112,80,4130,1,0,0:0:0
112,224,4288,1,0,0:0:0
32,352,4446,6,0,P|144:272,1,69.9999976158143
208,144,4761,1,0,0:0:0
288,256,4919,1,0,0:0:0
480,32,5077,6,0,P|400:96,1,69.9999976158143
288,256,5393,1,0,0:0:0
208,144,5551,1,0,0:0:0
192,288,5709,5,0,0:0:0
336,288,5866,1,0,0:0:0
224,208,6024,1,0,0:0:0
272,336,6182,1,0,0:0:0
304,192,6340,1,0,0:0:0
192,288,6498,1,0,0:0:0
320,240,6656,1,0,0:0:0
320,240,6814,1,0,0:0:0
448,192,6971,5,0,0:0:0
304,192,7129,1,0,0:0:0
160,192,7287,1,0,0:0:0
304,192,7445,1,0,0:0:0
448,192,7603,1,0,0:0:0
304,192,7761,1,0,0:0:0
304,48,7919,1,0,0:0:0
160,48,8076,1,0,0:0:0
160,192,8234,5,0,0:0:0
160,48,8392,1,0,0:0:0
160,192,8550,1,0,0:0:0
160,48,8708,1,0,0:0:0
304,48,8866,1,0,0:0:0
304,192,9023,1,0,0:0:0
304,336,9181,1,0,0:0:0
304,192,9339,1,0,0:0:0
400,96,9497,6,0,P|336:160,1,69.9999976158143
448,48,9813,1,0,0:0:0
304,192,9971,1,0,0:0:0
112,96,10128,6,0,P|176:160,1,69.9999976158143
64,48,10444,1,0,0:0:0
208,192,10602,1,0,0:0:0
336,272,10760,5,0,0:0:0
240,176,10918,1,0,0:0:0
400,320,11076,1,0,0:0:0
192,128,11233,1,0,0:0:0
256,336,11391,5,0,0:0:0
464,144,11549,1,0,0:0:0
192,80,11707,1,0,0:0:0
256,336,11865,1,0,0:0:0
256,192,12023,12,0,14233,0:0:0
464,256,14548,6,0,P|80:160|96:96,1,559.999980926514
80,160,15811,6,0,P|176:272|272:256|288:144|368:96|272:80|176:96|256:144|272:256|368:272|464:160,1,559.999980926514
450,174,17074,6,0,P|448:168|448:168|456:168|456:168|448:160|448:160|456:160|456:160|448:152|448:152|456:152|456:152|448:144|448:144|456:144|456:144|448:136|448:136|456:136|456:136|448:128|448:128|456:128|456:128|448:120|448:120|456:120|456:120|448:112|448:112|456:112|456:112|448:104|448:104|456:104|456:104|448:96|448:96|456:96|456:96|448:88|448:88|456:88|456:88|448:80|448:80|456:80|456:80|448:72|448:72|456:72|456:72|448:64|448:64|456:64|456:64|448:56|448:56|456:56|456:56|448:48|448:48|456:48|456:48|448:40|448:40|456:40|456:40|448:32|448:32|456:32|456:32|448:24|448:24|456:24|456:24|456:16|456:16|440:16|440:16|440:24|440:24|432:16|432:16|432:24|432:24|424:16|424:16|424:24|424:24|416:16|416:16|416:24|416:24|408:16|408:16|408:24|408:24|400:16|400:16|400:24|400:24|392:16|392:16|392:24|392:24|384:16|384:16|384:24|384:24|376:16|376:16|376:24|376:24|360:16,1,559.999980926514
368,24,18337,6,0,P|189:220|415:271,1,559.999980926514
120,56,19915,1,0,0:0:0
376,296,20231,1,0,0:0:0
96,328,20547,1,0,0:0:0
192,144,20862,1,0,0:0:0
240,272,21178,1,0,0:0:0
288,224,21494,1,0,0:0:0
288,224,21809,1,0,0:0:0
360,24,22125,6,0,P|280:24,1,69.9999976158143
64,192,22441,2,0,P|136:192,1,69.9999976158143
360,360,22757,2,0,P|280:360,1,69.9999976158143
64,192,23072,6,0,P|144:192,1,69.9999976158143
416,192,23388,2,0,P|328:192,1,69.9999976158143
488,192,23704,1,0,0:0:0
280,192,23862,1,0,0:0:0
416,192,24019,1,0,0:0:0
208,192,24177,1,0,0:0:0
352,192,24335,1,0,0:0:0
144,192,24493,1,0,0:0:0
224,40,24651,5,0,0:0:0
344,208,24809,1,0,0:0:0
136,216,24966,1,0,0:0:0
224,40,25124,5,0,0:0:0
392,264,25282,1,0,0:0:0
112,288,25440,1,0,0:0:0
224,40,25598,5,0,0:0:0
440,320,25756,1,0,0:0:0
88,352,25914,1,0,0:0:0
224,40,26071,5,0,0:0:0
368,192,26229,2,0,P|296:192,1,69.9999976158143
256,320,26545,2,0,P|256:248,1,69.9999976158143
144,192,26861,2,0,P|232:192,1,69.9999976158143
512,192,27176,5,0,0:0:0
344,64,27334,1,0,0:0:0
176,192,27492,1,0,0:0:0
344,320,27650,5,0,0:0:0
176,192,27808,1,0,0:0:0
8,320,27966,1,0,0:0:0
8,112,28123,5,0,0:0:0
144,272,28281,1,0,0:0:0
168,64,28439,1,0,0:0:0
32,224,28597,1,0,0:0:0
240,176,28755,1,0,0:0:0
64,64,28913,1,0,0:0:0
272,64,29071,1,0,0:0:0
64,64,29228,1,0,0:0:0
272,64,29386,1,0,0:0:0
64,64,29544,1,0,0:0:0
256,0,29702,6,0,P|256:96,1,69.9999976158143
256,384,30018,2,0,P|256:304,1,69.9999976158143
256,0,30333,2,0,P|256:96,1,69.9999976158143
256,384,30649,2,0,P|256:304,1,69.9999976158143
32,192,30965,5,0,0:0:0
32,192,31123,1,0,0:0:0
32,192,31281,1,0,0:0:0
400,192,31438,1,0,0:0:0
32,192,31596,5,0,0:0:0
32,192,31754,1,0,0:0:0
32,192,31912,1,0,0:0:0
400,192,32069,1,0,0:0:0
400,48,32228,6,0,P|400:136,1,69.9999976158143
400,256,32543,2,0,P|400:336,1,69.9999976158143
328,48,32859,2,0,P|328:128,1,69.9999976158143
328,256,33175,2,0,P|328:328,1,69.9999976158143
48,328,33490,5,0,0:0:0
48,184,33648,5,0,0:0:0
192,184,33806,1,0,0:0:0
192,328,33964,1,0,0:0:0
48,328,34122,5,0,0:0:0
48,120,34280,5,0,0:0:0
256,120,34438,1,0,0:0:0
256,328,34595,1,0,0:0:0
48,328,34753,5,0,0:0:0
48,48,34911,5,0,0:0:0
117,41,35068,1,0,0:0:0
187,41,35226,1,0,0:0:0
252,61,35384,1,0,0:0:0
221,120,35542,1,0,0:0:0
177,175,35700,1,0,0:0:0
182,237,35858,1,0,0:0:0
249,252,36015,1,0,0:0:0
313,230,36173,1,0,0:0:0
286,174,36331,1,0,0:0:0
224,142,36489,1,0,0:0:0
156,125,36647,1,0,0:0:0
87,132,36805,1,0,0:0:0
45,185,36963,1,0,0:0:0
51,253,37120,1,0,0:0:0
100,302,37278,1,0,0:0:0
167,321,37436,1,0,0:0:0
236,326,37594,1,0,0:0:0
306,324,37752,1,0,0:0:0
376,320,37910,1,0,0:0:0
448,304,38068,2,0,P|448:296|448:296|456:288|456:288|448:288|448:288|456:280|456:280|448:280|448:280|456:272|456:272|448:272|448:272|456:264|456:264|448:264|448:264|456:256|456:256|448:256|448:256|456:248|456:248|448:248|448:248|456:240|456:240|448:240|448:240|456:232|456:232|448:232|448:232|464:224|464:224|440:224|440:224|464:216|464:216|440:216|440:216|464:208|464:208|440:208|440:208|464:200|464:200|440:200|440:200|472:192|472:192|432:192|432:192|472:184|472:184|432:184|432:184|472:176|472:176|432:176|432:176|456:160|456:160,1,612.499979138375
456,40,39804,5,0,0:0:0
424,40,39883,1,0,0:0:0
392,40,39962,1,0,0:0:0
360,40,40041,1,0,0:0:0
328,40,40120,1,0,0:0:0
256,40,40278,1,0,0:0:0
184,40,40436,1,0,0:0:0
112,40,40594,1,0,0:0:0
40,40,40752,1,0,0:0:0
32,192,41067,5,0,0:0:0
488,192,41225,1,0,0:0:0
32,192,41383,1,0,0:0:0
488,192,41541,1,0,0:0:0
32,192,41699,1,0,0:0:0
