osu file format v12

[General]
AudioFilename: Clokx - Angels.mp3
AudioLeadIn: 2000
PreviewTime: 27557
Countdown: 0
SampleSet: Soft
StackLeniency: 0.6
Mode: 0
LetterboxInBreaks: 0
EpilepsyWarning: 1

[Editor]
Bookmarks: 68700,75557,164700
DistanceSpacing: 1
BeatDivisor: 4
GridSize: 8

[Metadata]
Title:Angels
TitleUnicode:Angels
Artist:Clokx
ArtistUnicode:Clokx
Creator:BounceBabe
Version:Insane
Source:
Tags:Ron van den Beuken trance techno vipto
BeatmapID:221239
BeatmapSetID:79225

[Difficulty]
HPDrainRate:5
CircleSize:4
OverallDifficulty:6
ApproachRate:8
SliderMultiplier:1.8
SliderTickRate:2

[Events]
//Background and Video events
0,0,"BG.jpg",0,0
//Break Periods
2,68912,74700
//Storyboard Layer 0 (Background)
//Storyboard Layer 1 (Fail)
//Storyboard Layer 2 (Pass)
//Storyboard Layer 3 (Foreground)
//Storyboard Sound Samples
//Background Colour Transformations
3,100,255,255,255

[TimingPoints]
141,428.571428571429,4,2,3,40,1,0
12998,-100,4,2,2,60,0,0
13855,-100,4,2,2,40,0,0
16426,-100,4,2,2,30,0,0
17069,-100,4,2,2,40,0,0
19855,-100,4,2,2,30,0,0
20498,-100,4,2,2,40,0,0
23283,-100,4,2,2,30,0,0
23926,-100,4,2,2,40,0,0
25855,-100,4,2,2,50,0,0
26712,-100,4,2,2,70,0,0
27569,-100,4,1,1,50,0,1
54998,-100,4,2,2,70,0,0
75569,-100,4,2,3,70,0,0
80712,-100,4,2,2,70,0,0
96141,-100,4,2,3,30,0,0
108141,-100,4,2,3,60,0,0
108998,-100,4,2,3,80,0,0
109855,-100,4,1,3,50,0,0
123141,-100,4,2,3,50,0,0
123569,-100,4,1,1,50,0,1
150998,-100,4,2,2,50,0,0
164712,-100,4,1,1,50,0,1
164819,-100,4,1,1,50,0,0

[Colours]
Combo1 : 0,0,160
Combo2 : 255,255,255
Combo3 : 0,128,192
Combo4 : 175,175,175
Combo5 : 0,100,200

[HitObjects]
48,48,141,6,2,L|112:120,1,90,6|2,0:0|0:0,0:0:0:0:
192,96,569,2,0,L|256:168,1,90
312,232,998,5,2,0:0:0:0:
400,208,1212,1,2,0:0:0:0:
376,296,1426,1,0,0:0:0:0:
464,272,1641,1,0,0:0:0:0:
400,208,1855,6,2,P|400:120|464:56,1,180
296,136,2712,2,2,P|296:224|232:288,1,180
144,312,3355,1,0,0:0:0:0:
144,312,3462,1,0,0:0:0:0:
144,312,3569,6,2,L|64:272,1,90,10|2,0:0|0:0,0:0:0:0:
88,184,3998,2,0,L|168:224,1,90,0|0,0:0|0:0,0:0:0:0:
256,256,4426,5,2,0:0:0:0:
240,168,4641,1,2,0:0:0:0:
328,200,4855,1,0,0:0:0:0:
312,112,5069,1,0,0:0:0:0:
328,200,5283,6,2,B|384:264|384:264|432:280|448:328,1,180
408,152,6141,2,2,B|352:88|352:88|304:72|288:24,1,180
200,32,6783,1,0,0:0:0:0:
200,32,6890,1,0,0:0:0:0:
200,32,6998,6,2,L|104:32,1,90,10|2,0:0|0:0,0:0:0:0:
88,120,7426,2,0,L|184:120,1,90
152,208,7855,1,2,0:0:0:0:
216,272,8069,1,2,0:0:0:0:
128,296,8283,1,0,0:0:0:0:
192,360,8498,1,0,0:0:0:0:
216,272,8712,6,2,B|312:272|312:272|376:328,1,180
272,184,9569,2,2,B|176:184|176:184|112:128,1,180
48,64,10212,1,0,0:0:0:0:
48,64,10319,1,0,0:0:0:0:
48,64,10426,6,2,P|88:40|132:40,1,90,10|2,0:0|0:0,0:0:0:0:
304,16,10855,2,0,P|264:40|221:40,1,90
176,120,11283,1,2,0:0:0:0:
160,208,11498,1,2,0:0:0:0:
176,296,11712,1,0,0:0:0:0:
248,352,11926,1,0,0:0:0:0:
264,264,12140,6,2,L|320:192,1,90
176,296,12569,2,2,L|120:368,1,90
264,264,12998,1,2,0:0:0:0:
278,246,13105,1,0,0:0:0:0:
293,229,13212,1,0,0:0:0:0:
307,211,13319,1,0,0:0:0:0:
322,194,13426,2,0,L|384:112,1,90,0|0,0:0|0:0,0:0:0:0:
424,40,13855,6,0,P|376:32|336:40,1,90,12|0,0:0|0:0,0:0:0:0:
248,40,14283,1,0,0:0:0:0:
232,128,14498,2,0,P|160:112|160:16,1,180
157,19,15140,2,0,L|72:48,1,90
40,136,15569,37,4,0:0:0:0:
40,136,15998,1,4,0:0:0:0:
56,312,16426,1,4,0:0:0:0:
56,312,16855,1,4,0:0:0:0:
72,224,17069,6,0,B|140:244|144:312|144:312|200:328,1,180,4|0,0:0|0:0,0:0:0:0:
288,352,17712,1,0,0:0:0:0:
296,264,17926,2,0,B|228:244|224:176|224:176|168:160,1,180,0|0,0:0|0:0,0:0:0:0:
168,160,18569,2,0,L|104:96,1,90
40,32,18998,5,4,0:0:0:0:
40,32,19426,1,4,0:0:0:0:
224,32,19855,1,4,0:0:0:0:
312,32,20069,1,4,0:0:0:0:
224,32,20283,1,4,0:0:0:0:
312,32,20498,6,0,P|280:100|184:108,1,180,4|0,0:0|0:0,0:0:0:0:
96,80,21141,1,0,0:0:0:0:
112,168,21355,2,0,B|96:216|96:216|112:296|112:296|96:344,1,180
96,341,21998,2,0,L|192:344,1,90
280,344,22426,37,4,0:0:0:0:
280,344,22855,1,4,0:0:0:0:
448,272,23283,1,4,0:0:0:0:
448,272,23712,1,4,0:0:0:0:
360,288,23926,6,0,B|352:232|392:200|392:200|400:144|400:144|392:104,1,180,4|0,0:0|0:0,0:0:0:0:
344,40,24569,1,0,0:0:0:0:
296,120,24783,2,0,B|304:176|264:208|264:208|256:264|256:264|264:304,1,180
260,288,25426,2,0,L|184:336,1,90
96,368,25855,5,4,0:0:0:0:
112,280,26069,1,0,0:0:0:0:
88,192,26283,1,4,0:0:0:0:
32,120,26498,1,0,0:0:0:0:
32,120,26712,5,4,0:0:0:0:
122,115,26926,1,0,0:0:0:0:
204,76,27141,1,4,0:0:0:0:
264,8,27355,1,0,0:0:0:0:
296,88,27569,6,2,L|344:168,1,90,4|2,0:0|0:0,0:0:0:0:
478,86,27998,2,0,L|432:164,1,90,8|0,0:0|0:0,0:0:0:0:
392,240,28426,1,2,0:0:0:0:
432,320,28641,1,2,0:0:0:0:
392,240,28855,1,8,0:0:0:0:
432,320,29069,1,0,0:0:0:0:
344,312,29283,6,2,P|256:312|168:352,1,180
88,328,29926,1,0,0:0:0:0:
72,240,30141,2,2,P|160:240|248:200,1,180
243,203,30783,6,0,L|328:176,1,90,0|2,0:0|0:0,0:0:0:0:
459,62,31212,2,0,L|408:136,1,90,2|8,0:0|0:0,0:0:0:0:
400,224,31641,1,0,0:0:0:0:
392,312,31855,1,2,0:0:0:0:
472,272,32069,1,2,0:0:0:0:
400,224,32283,1,8,0:0:0:0:
392,312,32498,1,0,0:0:0:0:
320,264,32712,5,2,0:0:0:0:
320,264,33141,1,2,0:0:0:0:
144,248,33569,1,2,0:0:0:0:
56,240,33783,1,0,0:0:0:0:
40,152,33998,1,2,0:0:0:0:
40,152,34212,6,2,P|72:80|168:72,1,180
256,72,34855,2,0,L|336:136,1,90,8|0,0:0|0:0,0:0:0:0:
408,152,35283,1,2,0:0:0:0:
498,6,35498,2,0,L|466:90,1,90,2|8,0:0|0:0,0:0:0:0:
408,152,35926,1,0,0:0:0:0:
432,240,36141,5,2,0:0:0:0:
432,240,36569,1,2,0:0:0:0:
280,344,36998,1,2,0:0:0:0:
280,344,37426,1,2,0:0:0:0:
344,280,37641,6,2,B|282:226|235:291|174:237,1,180
88,264,38283,2,0,L|32:184,1,90,8|0,0:0|0:0,0:0:0:0:
64,104,38712,1,2,0:0:0:0:
155,92,38926,2,0,L|218:155,1,90,2|8,0:0|0:0,0:0:0:0:
64,104,39355,1,0,0:0:0:0:
104,24,39569,5,2,0:0:0:0:
104,24,39998,1,2,0:0:0:0:
280,72,40426,1,2,0:0:0:0:
348,12,40641,1,0,0:0:0:0:
280,72,40855,1,2,0:0:0:0:
368,96,41069,6,2,B|409:146|389:200|389:200|364:267,1,180
288,312,41712,1,8,0:0:0:0:
224,376,41926,2,2,B|183:326|203:272|203:272|226:207,1,180
226,207,42569,2,0,L|200:120,1,90,8|0,0:0|0:0,0:0:0:0:
176,32,42998,5,2,0:0:0:0:
176,32,43426,1,2,0:0:0:0:
40,152,43855,1,2,0:0:0:0:
40,152,44283,1,2,0:0:0:0:
96,80,44498,6,2,P|144:136|96:224,1,180
40,288,45140,1,8,0:0:0:0:
128,312,45355,2,2,B|184:288|248:344|304:312,1,180
303,312,45998,2,0,L|400:312,1,90,8|0,0:0|0:0,0:0:0:0:
480,312,46426,5,2,0:0:0:0:
480,312,46855,1,2,0:0:0:0:
480,136,47283,1,2,0:0:0:0:
424,64,47498,1,0,0:0:0:0:
480,136,47712,1,2,0:0:0:0:
392,144,47926,6,2,B|356:128|344:96|344:96|232:96,1,180
144,96,48569,1,8,0:0:0:0:
56,96,48783,2,2,B|56:168|56:168|40:208|40:208|40:280,1,180
40,272,49426,2,0,L|96:344,1,90,8|0,0:0|0:0,0:0:0:0:
184,344,49855,5,2,0:0:0:0:
184,344,50283,1,2,0:0:0:0:
368,344,50712,1,2,0:0:0:0:
440,296,50926,1,0,0:0:0:0:
368,344,51140,1,2,0:0:0:0:
360,256,51355,6,2,B|368:208|408:184|408:184|448:96,1,180
384,32,51998,1,8,0:0:0:0:
328,104,52212,2,2,B|320:152|280:176|280:176|240:264,1,180
242,258,52855,2,0,L|160:304,1,90,8|0,0:0|0:0,0:0:0:0:
80,328,53283,5,2,0:0:0:0:
80,328,53712,1,2,0:0:0:0:
40,152,54140,1,2,0:0:0:0:
112,104,54355,1,0,0:0:0:0:
40,152,54569,1,2,0:0:0:0:
112,104,54783,2,0,L|192:56,1,90,0|4,0:0|0:0,0:0:0:0:
272,16,55212,37,0,0:0:0:0:
360,16,55426,1,8,0:0:0:0:
272,16,55640,1,0,0:0:0:0:
384,152,55855,5,0,0:0:0:0:
472,152,56069,1,0,0:0:0:0:
384,152,56283,1,8,0:0:0:0:
472,152,56498,1,0,0:0:0:0:
424,232,56712,6,2,P|392:288|280:304,1,180
200,272,57355,1,0,0:0:0:0:
120,232,57569,2,2,P|64:200|45:93,1,180
72,8,58212,2,2,L|160:32,1,90
248,56,58640,5,0,0:0:0:0:
336,80,58855,1,8,0:0:0:0:
248,56,59069,1,0,0:0:0:0:
328,208,59283,5,0,0:0:0:0:
416,240,59498,1,0,0:0:0:0:
328,208,59712,1,8,0:0:0:0:
416,240,59926,1,0,0:0:0:0:
344,288,60140,6,2,P|272:336|192:304,1,180
112,264,60783,1,0,0:0:0:0:
32,216,60998,2,2,P|104:168|184:200,1,180
272,184,61640,2,2,L|360:160,1,90
448,136,62069,5,0,0:0:0:0:
448,136,62283,1,8,0:0:0:0:
448,136,62498,1,0,0:0:0:0:
424,224,62712,5,0,0:0:0:0:
400,312,62926,1,0,0:0:0:0:
400,312,63140,1,8,0:0:0:0:
400,312,63355,1,0,0:0:0:0:
312,320,63569,6,2,L|128:320,1,180
48,160,64426,2,2,L|232:160,1,180
256,72,65069,2,2,L|352:72,1,90
440,72,65498,5,0,0:0:0:0:
440,72,65712,1,8,0:0:0:0:
440,72,65926,1,0,0:0:0:0:
408,160,66140,5,0,0:0:0:0:
376,248,66355,1,0,0:0:0:0:
376,248,66569,1,8,0:0:0:0:
376,248,66783,1,0,0:0:0:0:
256,192,66998,12,4,68712,0:0:0:0:
48,48,75569,54,2,L|112:120,1,90
248,144,75998,2,0,L|184:72,1,90
168,192,76426,2,2,L|232:264,1,90
368,288,76855,2,0,L|304:216,1,90
344,136,77283,6,2,P|384:104|392:56,1,90
248,144,77712,2,2,P|208:176|200:224,1,90,2|2,0:0|0:0,0:0:0:0:
256,288,78140,2,0,P|296:256|304:208,1,90,0|2,0:0|0:0,0:0:0:0:
160,296,78569,2,2,P|120:328|112:376,1,90,2|2,0:0|0:0,0:0:0:0:
110,363,78998,6,2,L|40:296,1,90
0,152,79426,2,0,L|70:219,1,90
200,216,79855,2,2,L|129:148,1,90
89,4,80283,2,0,L|159:71,1,90
248,64,80712,6,2,B|296:48|296:48|336:48,1,90
352,64,81033,1,0,0:0:0:0:
368,80,81140,2,2,B|408:80|408:80|456:64,1,90
456,240,81783,1,2,0:0:0:0:
456,240,81998,1,2,0:0:0:0:
456,240,82212,1,2,0:0:0:0:
376,288,82426,5,4,0:0:0:0:
296,328,82640,1,0,0:0:0:0:
272,328,82748,1,0,0:0:0:0:
248,328,82855,2,2,L|152:328,1,90
72,328,83283,1,0,0:0:0:0:
72,240,83498,1,0,0:0:0:0:
72,240,83605,1,0,0:0:0:0:
72,240,83712,2,2,L|72:136,1,90
72,56,84140,5,0,0:0:0:0:
160,56,84355,1,0,0:0:0:0:
184,56,84462,1,0,0:0:0:0:
208,56,84569,2,2,L|304:56,1,90
392,56,84998,1,0,0:0:0:0:
408,144,85212,1,0,0:0:0:0:
408,144,85319,1,0,0:0:0:0:
408,144,85426,2,2,L|464:216,1,90
424,328,85855,6,0,L|368:256,1,90
344,248,86176,1,0,0:0:0:0:
320,240,86283,2,2,L|264:168,1,90
200,104,86712,5,0,0:0:0:0:
144,32,86926,1,0,0:0:0:0:
144,32,87033,1,0,0:0:0:0:
144,32,87140,2,2,P|116:64|108:112,1,90
56,184,87569,5,0,0:0:0:0:
72,272,87783,1,0,0:0:0:0:
80,296,87890,1,0,0:0:0:0:
88,320,87998,2,2,L|176:344,1,90
264,360,88426,1,0,0:0:0:0:
352,344,88640,1,0,0:0:0:0:
352,344,88748,1,0,0:0:0:0:
352,344,88855,2,2,L|438:320,1,90
440,232,89283,6,0,L|464:144,1,90
376,136,89712,2,2,L|400:48,1,90
288,176,90140,2,0,L|264:264,1,90
224,80,90569,2,2,L|200:168,1,90
128,104,90998,5,0,0:0:0:0:
56,56,91212,2,0,L|16:32,2,45,0|0|2,0:0|0:0|0:0,0:0:0:0:
128,104,91640,1,2,0:0:0:0:
48,144,91855,5,0,0:0:0:0:
120,192,92069,2,0,L|160:216,2,45,0|0|2,0:0|0:0|0:0,0:0:0:0:
48,144,92498,1,2,0:0:0:0:
40,232,92712,6,0,P|48:288|80:320,1,90
272,360,93140,2,2,P|264:304|243:279,1,90
152,256,93569,2,0,P|160:312|192:344,1,90
384,384,93998,2,2,P|376:328|355:303,1,90
320,224,94426,5,0,0:0:0:0:
400,184,94640,2,0,L|448:160,2,45,0|0|2,0:0|0:0|0:0,0:0:0:0:
320,224,95069,1,2,0:0:0:0:
324,136,95283,5,0,0:0:0:0:
244,176,95498,2,0,L|196:200,2,45,0|0|2,0:0|0:0|0:0,0:0:0:0:
324,136,95926,1,2,0:0:0:0:
248,88,96140,6,0,L|176:32,1,90,4|0,0:0|0:0,0:0:0:0:
87,33,96569,1,8,0:0:0:0:
176,32,96783,1,0,0:0:0:0:
48,160,97212,1,0,0:0:0:0:
104,232,97426,1,0,0:0:0:0:
48,304,97640,1,0,0:0:0:0:
136,328,97855,6,2,B|208:344|208:344|224:296|288:280,1,180
464,328,98712,2,2,B|392:312|392:312|376:360|312:376,1,180
288,288,99355,22,2,P|321:200|401:168,1,180
464,104,99998,1,8,0:0:0:0:
395,168,100212,1,0,0:0:0:0:
264,32,100640,1,0,0:0:0:0:
256,120,100855,1,0,0:0:0:0:
264,32,101069,1,0,0:0:0:0:
184,72,101283,6,2,L|96:56,1,90
48,136,101712,2,2,L|136:152,1,90
184,232,102140,2,2,P|216:312|304:320,1,180
392,324,102783,6,2,P|360:244|272:236,1,180
275,234,103426,2,0,L|312:144,1,90,8|0,0:0|0:0,0:0:0:0:
464,64,104069,1,0,0:0:0:0:
392,120,104283,1,0,0:0:0:0:
320,64,104498,1,0,0:0:0:0:
232,64,104712,21,2,0:0:0:0:
232,64,105140,1,2,0:0:0:0:
232,64,105569,2,2,B|136:64|136:64|104:136,1,180
72,224,106212,6,2,B|152:240|192:160|192:160|216:184,1,180,2|0,0:0|0:0,0:0:0:0:
272,248,106855,1,8,0:0:0:0:
214,182,107069,1,0,0:0:0:0:
344,304,107498,1,0,0:0:0:0:
416,248,107712,1,0,0:0:0:0:
488,304,107926,1,0,0:0:0:0:
416,248,108140,6,2,P|408:168|472:96,1,180
288,96,108998,2,2,P|296:136|264:176,2,90
200,88,109640,22,0,B|67:78|67:78|40:120,1,180
72,200,110283,1,8,0:0:0:0:
112,280,110498,2,0,B|244:289|244:289|272:248,1,180
270,250,111140,2,0,L|368:232,1,90
448,224,111569,5,2,0:0:0:0:
400,48,111783,1,0,0:0:0:0:
456,224,111998,1,2,0:0:0:0:
392,48,112212,1,0,0:0:0:0:
304,48,112426,2,2,L|200:48,2,90
392,48,113069,6,2,B|464:112|464:112|456:200,1,180
440,288,113712,1,8,0:0:0:0:
368,232,113926,2,0,B|336:272|352:320|352:320|264:320,1,180
265,320,114569,2,0,L|176:336,1,90
88,352,114998,5,2,0:0:0:0:
56,176,115212,1,0,0:0:0:0:
80,352,115426,1,2,0:0:0:0:
64,176,115640,1,0,0:0:0:0:
104,96,115855,2,2,B|136:40|136:40|168:40,2,90
64,176,116498,6,2,P|88:256|176:240,1,180
224,176,117140,1,8,0:0:0:0:
280,104,117355,2,0,P|361:95|385:175,1,180
385,175,117998,2,0,L|432:256,1,90
464,336,118426,5,2,0:0:0:0:
280,336,118640,1,0,0:0:0:0:
464,344,118855,1,2,0:0:0:0:
280,328,119069,1,0,0:0:0:0:
192,336,119283,2,2,L|104:360,2,90
224,248,119926,6,2,B|200:192|200:192|160:160|160:160|136:96,1,180
144,8,120569,1,8,0:0:0:0:
224,48,120783,2,0,B|248:112|248:112|288:144|288:144|312:200,1,180
311,199,121426,2,0,L|392:240,1,90
472,272,121855,5,2,0:0:0:0:
472,272,122283,1,2,0:0:0:0:
448,96,122712,2,0,P|472:32|464:8,1,90,2|0,0:0|0:0,0:0:0:0:
384,40,123140,1,2,0:0:0:0:
368,56,123248,1,0,0:0:0:0:
360,80,123355,1,2,0:0:0:0:
360,104,123462,1,0,0:0:0:0:
368,128,123569,6,2,L|368:224,1,90,6|2,0:0|0:0,0:0:0:0:
280,344,123998,2,0,L|280:248,1,90,8|0,0:0|0:0,0:0:0:0:
280,72,124426,2,2,L|280:168,1,90
192,288,124855,2,0,L|192:192,1,90,8|0,0:0|0:0,0:0:0:0:
192,112,125283,6,2,P|120:64|40:112,1,180
112,272,126140,2,2,P|184:320|259:280,1,180
259,280,126783,6,0,L|352:248,1,90,0|2,0:0|0:0,0:0:0:0:
448,136,127212,2,0,L|355:168,1,90,2|8,0:0|0:0,0:0:0:0:
192,216,127640,2,0,L|284:183,1,90,0|2,0:0|0:0,0:0:0:0:
380,71,128069,2,0,L|287:103,1,90,2|8,0:0|0:0,0:0:0:0:
208,120,128498,1,0,0:0:0:0:
120,120,128712,6,2,B|48:112|48:112|80:216,1,180
168,224,129355,1,0,0:0:0:0:
256,240,129569,2,2,L|344:256,1,90
480,200,129998,2,2,L|392:184,1,90
391,183,130640,5,0,0:0:0:0:
384,96,130855,2,2,L|304:48,1,90,10|2,0:0|0:0,0:0:0:0:
160,64,131283,2,0,L|240:112,1,90
392,208,131712,2,2,L|312:160,1,90,10|2,0:0|0:0,0:0:0:0:
232,200,132140,6,2,B|160:240|160:240|208:336,1,180
104,176,132998,2,2,B|176:136|176:136|128:40,1,180
132,48,133640,6,0,L|224:24,1,90,0|2,0:0|0:0,0:0:0:0:
400,16,134069,2,0,L|308:40,1,90,2|8,0:0|0:0,0:0:0:0:
152,144,134498,2,0,L|243:119,1,90,0|2,0:0|0:0,0:0:0:0:
419,111,134926,2,0,L|327:135,1,90,2|8,0:0|0:0,0:0:0:0:
272,208,135355,1,0,0:0:0:0:
296,296,135569,6,2,B|368:320|368:320|432:280|416:232,1,180
424,144,136212,1,0,0:0:0:0:
368,72,136426,2,2,L|296:16,1,90
144,8,136855,2,2,L|216:64,1,90
215,63,137498,5,0,0:0:0:0:
176,144,137712,2,2,L|136:224,1,90,10|2,0:0|0:0,0:0:0:0:
240,128,138355,1,0,0:0:0:0:
200,208,138569,2,2,L|160:288,1,90,10|2,0:0|0:0,0:0:0:0:
248,320,138998,6,2,L|432:320,1,180
440,232,139640,1,0,0:0:0:0:
448,144,139855,2,2,L|268:144,1,180
280,56,140498,2,0,L|100:56,1,180,2|0,0:0|0:0,0:0:0:0:
100,56,141140,6,2,L|80:144,1,90
120,152,141783,2,2,L|96:240,2,90,2|10|2,0:0|0:0|0:0,0:0:0:0:
208,152,142426,6,2,L|160:336,1,180
256,328,143069,1,0,0:0:0:0:
344,328,143283,2,2,L|389:153,1,180
464,208,143926,2,0,L|509:33,1,180,2|0,0:0|0:0,0:0:0:0:
509,33,144569,6,2,L|416:16,1,90
408,64,145212,2,2,L|314:46,2,90,2|10|2,0:0|0:0|0:0,0:0:0:0:
392,152,145855,6,2,B|272:128|272:128|240:96|240:80,1,180
176,144,146498,1,0,0:0:0:0:
240,208,146712,2,2,B|360:232|360:232|392:264|392:280,1,180
304,312,147355,2,0,B|184:288|184:288|152:256|152:240,1,180,2|0,0:0|0:0,0:0:0:0:
152,241,147998,6,2,P|108:216|88:184,1,90
120,144,148641,2,2,P|75:118|55:86,2,90,2|10|2,0:0|0:0|0:0,0:0:0:0:
208,144,149283,5,4,0:0:0:0:
208,144,149712,1,4,0:0:0:0:
368,64,150141,1,4,0:0:0:0:
432,128,150355,1,0,0:0:0:0:
392,208,150569,2,0,L|448:288,1,90,4|0,0:0|0:0,0:0:0:0:
443,281,150998,6,2,P|400:336|296:336,1,180,4|0,0:0|0:0,0:0:0:0:
120,312,151855,2,2,P|163:257|267:257,1,180
344,96,152712,5,8,0:0:0:0:
168,48,153141,1,0,0:0:0:0:
296,176,153569,1,8,0:0:0:0:
248,0,153998,5,2,0:0:0:0:
344,96,154212,1,0,0:0:0:0:
336,8,154426,2,2,P|416:32|432:120,1,180
472,296,155283,2,2,P|392:272|376:184,1,180
200,232,156141,5,8,0:0:0:0:
64,352,156569,1,0,0:0:0:0:
232,312,156998,1,8,0:0:0:0:
140,304,157212,1,0,0:0:0:0:
56,264,157426,1,10,0:0:0:0:
24,176,157641,1,0,0:0:0:0:
24,88,157855,6,2,B|50:20|118:13|118:13|172:28,1,180
352,48,158712,2,2,B|325:115|257:122|257:122|203:107,1,180
206,108,159355,6,0,L|208:208,1,90,0|8,0:0|0:0,0:0:0:0:
312,344,159998,1,0,0:0:0:0:
207,198,160426,1,8,0:0:0:0:
312,344,160855,5,2,0:0:0:0:
207,198,161069,1,0,0:0:0:0:
280,256,161283,2,2,B|360:240|400:296|400:296|456:296,1,180
472,120,162141,2,2,B|392:136|352:80|352:80|296:80,1,180
306,80,162783,6,0,L|216:48,1,90,0|8,0:0|0:0,0:0:0:0:
40,40,163426,1,0,0:0:0:0:
221,50,163855,5,10,0:0:0:0:
40,40,164069,1,0,0:0:0:0:
221,50,164283,1,10,0:0:0:0:
128,56,164498,2,0,P|128:104|104:136,1,90,0|4,0:0|0:0,0:0:0:0:
