osu file format v12

[General]
AudioFilename: Clokx - Angels.mp3
AudioLeadIn: 2000
PreviewTime: 27557
Countdown: 0
SampleSet: Soft
StackLeniency: 0.6
Mode: 0
LetterboxInBreaks: 0
EpilepsyWarning: 1

[Editor]
Bookmarks: 68700,75557,164700
DistanceSpacing: 1
BeatDivisor: 4
GridSize: 4

[Metadata]
Title:Angels
TitleUnicode:Angels
Artist:Clokx
ArtistUnicode:Clokx
Creator:BounceBabe
Version:Extra
Source:
Tags:Ron van den Beuken trance techno vipto
BeatmapID:238939
BeatmapSetID:79225

[Difficulty]
HPDrainRate:7
CircleSize:4
OverallDifficulty:8
ApproachRate:8
SliderMultiplier:2.1
SliderTickRate:2

[Events]
//Background and Video events
0,0,"BG.jpg",0,0
//Break Periods
2,68912,74819
//Storyboard Layer 0 (Background)
//Storyboard Layer 1 (Fail)
//Storyboard Layer 2 (Pass)
//Storyboard Layer 3 (Foreground)
//Storyboard Sound Samples
//Background Colour Transformations
3,100,255,255,255

[TimingPoints]
141,428.571428571429,4,2,3,40,1,0
12998,-100,4,2,2,40,0,0
13426,-100,4,2,2,30,0,0
13641,-100,4,2,2,50,0,0
13855,-100,4,2,2,40,0,0
26712,-100,4,2,2,45,0,0
27141,-100,4,2,2,50,0,0
27569,-76.9230769230769,4,1,1,50,0,1
54998,-76.9230769230769,4,2,2,70,0,0
61855,-100,4,2,2,70,0,0
96141,-166.666666666667,4,2,2,25,0,0
108569,-166.666666666667,4,2,2,20,0,0
109855,-100,4,2,2,70,0,0
123569,-76.9230769230769,4,1,1,50,0,1
150998,-100,4,2,2,50,0,0
164712,-100,4,1,1,50,0,1
164819,-100,4,1,1,50,0,0

[Colours]
Combo1 : 0,0,160
Combo2 : 255,255,255
Combo3 : 0,128,192
Combo4 : 175,175,175
Combo5 : 0,100,200

[HitObjects]
104,264,141,2,0,L|224:280,1,105,4|0,0:0|0:0,0:0:0:0:
185,196,569,2,0,L|305:212,1,105,2|0,0:0|0:0,0:0:0:0:
266,128,998,2,0,L|386:144,1,105,2|0,0:0|0:0,0:0:0:0:
413,213,1426,2,0,P|428:273|394:334,1,105,2|0,0:0|0:0,0:0:0:0:
344,264,1855,6,0,P|256:312|168:264,2,210,2|2|2,0:0|0:0|0:0,0:0:0:0:
256,208,3141,5,2,0:0:0:0:
419,129,3355,1,8,0:0:0:0:
416,104,3462,1,8,0:0:0:0:
412,80,3569,6,0,P|359:65|301:86,1,105,2|0,0:0|0:0,0:0:0:0:
255,139,3998,1,2,0:0:0:0:
326,183,4212,2,0,P|249:223|169:138,1,210,2|2,0:0|0:0,0:0:0:0:
199,69,4855,1,2,0:0:0:0:
255,139,5069,1,0,0:0:0:0:
281,59,5283,5,2,0:0:0:0:
229,219,5712,1,2,0:0:0:0:
353,105,6141,1,2,0:0:0:0:
298,263,6569,1,2,0:0:0:0:
225,305,6783,1,8,0:0:0:0:
199,311,6891,1,8,0:0:0:0:
173,317,6998,6,0,B|116:331|116:331|58:309,1,105,2|0,0:0|0:0,0:0:0:0:
28,243,7426,2,0,P|14:183|38:134,1,105,2|0,0:0|0:0,0:0:0:0:
97,194,7855,1,2,0:0:0:0:
173,229,8069,1,0,0:0:0:0:
239,178,8283,2,0,P|251:139|234:74,1,105,2|0,0:0|0:0,0:0:0:0:
166,31,8712,5,2,0:0:0:0:
325,83,9141,1,2,0:0:0:0:
164,130,9569,1,2,0:0:0:0:
324,180,9998,1,2,0:0:0:0:
357,257,10212,1,8,0:0:0:0:
352,282,10319,1,8,0:0:0:0:
348,307,10426,6,0,L|226:331,1,105,2|0,0:0|0:0,0:0:0:0:
165,299,10855,1,2,0:0:0:0:
112,364,11069,2,0,P|81:309|172:215,1,210,2|2,0:0|0:0,0:0:0:0:
165,299,11712,1,2,0:0:0:0:
43,192,11926,6,0,P|32:135|51:81,1,105,0|2,0:0|0:0,0:0:0:0:
115,45,12355,1,0,0:0:0:0:
193,73,12569,1,2,0:0:0:0:
264,29,12783,1,0,0:0:0:0:
294,107,12998,1,2,0:0:0:0:
313,114,13105,1,0,0:0:0:0:
333,117,13212,1,0,0:0:0:0:
353,117,13319,1,0,0:0:0:0:
373,115,13426,1,4,0:0:0:0:
392,107,13533,1,0,0:0:0:0:
410,95,13641,1,4,0:0:0:0:
426,81,13748,1,0,0:0:0:0:
437,63,13855,6,0,L|445:172,1,105,2|0,0:0|0:0,0:0:0:0:
436,251,14283,1,0,0:0:0:0:
367,299,14498,1,2,0:0:0:0:
367,299,14926,1,2,0:0:0:0:
295,253,15141,1,0,0:0:0:0:
211,250,15355,1,2,0:0:0:0:
135,286,15569,5,6,0:0:0:0:
117,298,15998,1,2,0:0:0:0:
100,310,16426,1,6,0:0:0:0:
83,322,16855,1,2,0:0:0:0:
23,381,17069,5,2,0:0:0:0:
7,298,17283,1,0,0:0:0:0:
68,239,17498,1,2,0:0:0:0:
146,268,17712,1,2,0:0:0:0:
159,350,17926,2,0,P|220:305|181:192,1,210,2|0,0:0|0:0,0:0:0:0:
146,268,18569,1,2,0:0:0:0:
290,347,18783,1,0,0:0:0:0:
373,336,18998,5,6,0:0:0:0:
327,174,19426,1,2,0:0:0:0:
446,292,19855,1,6,0:0:0:0:
373,336,20069,1,2,0:0:0:0:
290,347,20283,1,2,0:0:0:0:
214,308,20498,6,0,P|176:229|244:117,1,210,2|0,0:0|0:0,0:0:0:0:
307,102,21141,1,0,0:0:0:0:
345,176,21355,2,0,P|388:115|317:19,1,210,2|0,0:0|0:0,0:0:0:0:
237,47,21998,1,0,0:0:0:0:
196,120,22212,1,2,0:0:0:0:
141,56,22426,5,6,0:0:0:0:
155,223,22855,1,2,0:0:0:0:
321,201,23283,1,6,0:0:0:0:
232,330,23712,1,0,0:0:0:0:
150,311,23926,5,2,0:0:0:0:
80,263,24141,2,0,P|72:204|107:150,1,105,2|0,0:0|0:0,0:0:0:0:
151,223,24569,2,0,P|206:238|252:220,1,105,2|0,0:0|0:0,0:0:0:0:
200,152,24998,2,0,P|252:136|314:169,1,105
358,210,25426,1,2,0:0:0:0:
414,272,25641,1,0,0:0:0:0:
441,189,25855,6,0,L|452:132,3,52.5,6|0|0|0,0:0|0:0|0:0|0:0,0:0:0:0:
446,111,26283,2,0,L|414:45,3,52.5,2|0|0|0,0:0|0:0|0:0|0:0,0:0:0:0:
405,43,26712,1,6,0:0:0:0:
382,29,26819,1,0,0:0:0:0:
356,24,26926,1,0,0:0:0:0:
329,21,27033,1,0,0:0:0:0:
303,26,27141,1,2,0:0:0:0:
278,34,27248,1,0,0:0:0:0:
251,36,27355,1,0,0:0:0:0:
224,35,27462,1,0,0:0:0:0:
198,30,27569,6,0,P|115:22|50:60,1,136.499993751526,4|0,0:2|0:0,0:0:0:0:
27,115,27891,1,0,0:0:0:0:
4,193,27998,2,0,P|-2:270|37:344,1,136.499993751526,10|0,0:0|0:0,0:0:0:0:
162,370,28426,2,0,P|242:376|298:339,1,136.499993751526
334,280,28748,1,0,0:0:0:0:
272,225,28855,2,0,P|334:199|411:257,1,136.499993751526,8|0,0:0|0:0,0:0:0:0:
212,276,29283,6,0,B|143:299|76:274|76:274|56:205,1,204.749990627289,2|0,0:0|0:0,0:0:0:0:
71,129,29712,2,0,B|140:106|207:131|207:131|225:194,1,204.749990627289,2|0,0:0|0:0,0:0:0:0:
291,243,30141,2,0,P|363:262|430:220,1,136.499993751526,2|0,0:0|0:0,0:0:0:0:
462,7,30569,2,0,P|449:73|466:151,1,136.499993751526,10|0,0:0|0:0,0:0:0:0:
507,283,30998,5,0,0:0:0:0:
382,366,31212,1,0,0:0:0:0:
296,242,31426,1,10,0:0:0:0:
195,354,31641,1,0,0:0:0:0:
94,242,31855,2,0,P|77:173|102:106,1,136.499993751526
230,43,32283,2,0,P|307:34|375:45,1,136.499993751526,10|0,0:0|0:0,0:0:0:0:
437,81,32605,1,0,0:0:0:0:
493,140,32712,6,0,P|510:218|406:273,1,204.749990627289,2|0,0:0|0:0,0:0:0:0:
429,194,33141,2,0,P|346:228|358:334,1,204.749990627289,10|0,0:0|0:0,0:0:0:0:
427,365,33569,1,2,0:0:0:0:
251,270,33783,1,0,0:0:0:0:
131,361,33998,2,0,P|57:369|-8:338,1,136.499993751526,10|0,0:0|0:0,0:0:0:0:
83,219,34426,5,0,0:0:0:0:
221,159,34641,1,0,0:0:0:0:
334,257,34855,2,0,P|396:285|463:246,1,136.499993751526,10|0,0:0|0:0,0:0:0:0:
396,199,35176,1,0,0:0:0:0:
455,144,35283,2,0,P|393:116|335:144,1,136.499993751526
251,269,35712,1,10,0:0:0:0:
257,119,35926,1,0,0:0:0:0:
172,243,36141,6,0,P|99:265|21:258,1,136.499993751526,2|0,0:0|0:0,0:0:0:0:
153,165,36569,2,0,P|80:188|22:176,1,136.499993751526,10|0,0:0|0:0,0:0:0:0:
136,78,36998,2,0,P|64:109|9:57,2,136.499993751526,2|0|10,0:0|0:0|0:0,0:0:0:0:
282,34,37641,1,0,0:0:0:0:
430,53,37855,5,0,0:0:0:0:
426,202,38069,1,0,0:0:0:0:
417,52,38283,1,10,0:0:0:0:
413,202,38498,1,0,0:0:0:0:
292,289,38712,2,0,P|218:306|157:280,1,136.499993751526
138,206,39033,1,0,0:0:0:0:
171,130,39141,2,0,P|245:113|306:139,1,136.499993751526,10|0,0:0|0:0,0:0:0:0:
320,213,39462,1,0,0:0:0:0:
292,289,39569,5,2,0:0:0:0:
267,300,39998,1,0,0:0:0:0:
239,301,40426,1,0,0:0:0:0:
212,295,40855,1,0,0:0:0:0:
155,201,41069,1,0,0:0:0:0:
243,132,41283,6,0,P|316:147|388:120,1,136.499993751526
420,61,41605,1,0,0:0:0:0:
459,132,41712,2,0,P|473:206|465:269,1,136.499993751526,10|0,0:0|0:0,0:0:0:0:
401,317,42033,1,0,0:0:0:0:
321,294,42141,2,0,P|249:273|165:291,1,136.499993751526
35,336,42569,1,10,0:0:0:0:
143,213,42783,1,0,0:0:0:0:
239,345,42998,6,0,P|326:388|409:298,1,204.749990627289,2|0,0:0|0:0,0:0:0:0:
393,247,43426,2,0,P|306:204|223:294,1,204.749990627289,2|0,0:0|0:0,0:0:0:0:
316,294,43855,1,2,0:0:0:0:
477,269,44069,1,0,0:0:0:0:
361,154,44283,1,10,0:0:0:0:
214,180,44497,1,0,0:0:0:0:
165,322,44712,6,0,P|87:340|31:325,1,136.499993751526
10,247,45033,1,0,0:0:0:0:
9,164,45141,2,0,B|9:84|9:84|61:43,1,136.499993751526,10|0,0:0|0:0,0:0:0:0:
280,156,45569,2,0,P|231:181|158:155,1,136.499993751526
221,97,45891,1,0,0:0:0:0:
301,80,45998,2,0,P|375:70|442:83,1,136.499993751526,10|0,0:0|0:0,0:0:0:0:
365,228,46426,5,2,0:0:0:0:
473,105,46641,1,0,0:0:0:0:
376,237,46855,1,10,0:0:0:0:
506,137,47069,1,0,0:0:0:0:
388,250,47283,2,0,P|310:268|243:251,1,136.499993751526,2|0,0:0|0:0,0:0:0:0:
138,141,47712,2,0,P|112:83|160:3,1,136.499993751526,10|8,0:0|0:0,0:0:0:0:
201,193,48141,6,0,P|138:223|72:191,1,136.499993751526
138,141,48462,1,0,0:0:0:0:
215,114,48569,2,0,B|302:114|302:114|349:169,1,136.499993751526,10|0,0:0|0:0,0:0:0:0:
364,299,48998,1,0,0:0:0:0:
228,363,49212,1,0,0:0:0:0:
99,286,49426,1,10,0:0:0:0:
138,141,49641,1,0,0:0:0:0:
264,60,49855,6,0,B|319:46|379:60|379:60|358:109|391:155,1,204.749990627289,2|0,0:0|0:0,0:0:0:0:
452,100,50283,2,0,P|455:183|335:208,1,204.749990627289,10|0,0:0|0:0,0:0:0:0:
292,274,50712,1,2,0:0:0:0:
264,60,50926,1,0,0:0:0:0:
242,209,51141,1,10,0:0:0:0:
184,70,51355,1,0,0:0:0:0:
162,218,51569,6,0,B|150:291|150:291|89:331,1,136.499993751526
17,197,51998,2,0,P|8:123|43:57,1,136.499993751526,10|0,0:0|0:0,0:0:0:0:
184,70,52426,1,0,0:0:0:0:
242,209,52641,1,0,0:0:0:0:
179,345,52855,2,0,P|249:358|316:337,1,136.499993751526,10|0,0:0|0:0,0:0:0:0:
380,207,53283,6,0,L|421:52,1,136.499993751526,2|0,0:0|0:0,0:0:0:0:
282,146,53712,2,0,L|261:-8,1,136.499993751526,10|0,0:0|0:0,0:0:0:0:
165,124,54141,2,0,L|77:4,2,136.499993751526,2|0|10,0:0|0:0|0:0,0:0:0:0:
258,241,54783,1,4,0:0:0:0:
141,337,54998,6,0,P|64:353|-3:334,1,136.499993751526,4|0,0:0|0:0,0:0:0:0:
4,189,55426,2,0,P|81:173|148:192,1,136.499993751526,8|0,0:0|0:0,0:0:0:0:
238,296,55855,2,0,B|287:343|287:343|362:343,1,136.499993751526
446,223,56283,2,0,B|397:176|397:176|322:176,1,136.499993751526,8|0,0:0|0:0,0:0:0:0:
187,229,56712,5,2,0:0:0:0:
146,330,56926,1,0,0:0:0:0:
30,195,57141,1,10,0:0:0:0:
111,122,57355,1,0,0:0:0:0:
251,317,57569,1,2,0:0:0:0:
349,363,57783,1,0,0:0:0:0:
414,274,57998,2,0,P|440:210|402:145,1,136.499993751526,10|0,0:0|0:0,0:0:0:0:
359,215,58319,1,0,0:0:0:0:
297,161,58426,6,0,P|269:103|295:39,1,136.499993751526
359,215,58855,2,0,P|295:243|228:208,1,136.499993751526,8|0,0:0|0:0,0:0:0:0:
167,85,59283,1,0,0:0:0:0:
297,161,59498,1,0,0:0:0:0:
147,168,59712,1,8,0:0:0:0:
219,299,59926,1,0,0:0:0:0:
290,338,60033,1,0,0:0:0:0:
368,313,60141,6,0,B|413:270|413:270|413:176,1,136.499993751526,2|0,0:0|0:0,0:0:0:0:
164,232,60569,2,0,P|135:287|156:355,1,136.499993751526,10|0,0:0|0:0,0:0:0:0:
245,217,60998,2,0,P|256:142|244:78,1,136.499993751526,2|0,0:0|0:0,0:0:0:0:
111,15,61426,1,10,0:0:0:0:
24,138,61641,1,0,0:0:0:0:
9,218,61748,1,0,0:0:0:0:
46,292,61855,6,0,P|102:302|173:286,1,105,4|0,0:0|0:0,0:0:0:0:
224,222,62283,2,0,P|271:215|327:225,1,105
414,284,62712,2,0,P|429:229|415:171,1,105
337,117,63141,2,0,L|228:117,1,105
135,158,63569,5,2,0:0:0:0:
118,170,63998,1,2,0:0:0:0:
101,182,64426,1,2,0:0:0:0:
84,194,64855,1,2,0:0:0:0:
45,291,65069,1,2,0:0:0:0:
125,358,65283,6,0,P|186:369|240:359,1,105
306,292,65712,1,0,0:0:0:0:
301,187,65926,1,0,0:0:0:0:
237,102,66141,2,0,P|171:93|109:116,1,105
84,194,66569,1,0,0:0:0:0:
150,275,66783,1,0,0:0:0:0:
255,277,66998,6,0,L|365:253,1,105,2|0,0:0|0:0,0:0:0:0:
274,190,67426,2,0,L|384:166,1,105,2|0,0:0|0:0,0:0:0:0:
293,102,67855,2,0,L|403:78,2,105,2|2|2,0:0|0:0|0:0,0:0:0:0:
190,125,68498,1,0,0:0:0:0:
87,146,68712,1,4,0:0:0:0:
99,296,75569,6,0,P|158:306|207:280,1,105,2|2,0:0|0:0,0:0:0:0:
143,197,75998,2,0,P|133:142|158:95,1,105,0|2,0:0|0:0,0:0:0:0:
241,157,76426,2,0,P|295:163|363:153,1,105,0|2,0:0|0:0,0:0:0:0:
429,94,76855,2,0,P|449:151|431:212,1,105,0|2,0:0|0:0,0:0:0:0:
370,271,77283,6,0,P|359:327|410:362,2,105,0|2|0,0:0|0:0|0:0,0:0:0:0:
441,193,77926,1,2,0:0:0:0:
274,296,78141,2,0,P|219:303|168:281,1,105,0|2,0:0|0:0,0:0:0:0:
134,188,78569,2,0,L|120:52,1,105,0|2,0:0|0:0,0:0:0:0:
213,29,78998,6,0,P|278:17|324:55,1,105,0|2,0:0|0:0,0:0:0:0:
359,127,79426,2,0,P|423:145|457:111,1,105,0|2,0:0|0:0,0:0:0:0:
324,201,79855,2,0,P|373:226|439:219,1,105,0|2,0:0|0:0,0:0:0:0:
241,200,80283,2,0,P|256:251|312:281,1,105,0|2,0:0|0:0,0:0:0:0:
279,127,80712,6,0,P|220:119|161:221,1,157.5
161,212,81141,2,0,L|85:117,1,105
169,56,81569,2,2,P|282:31|388:85,1,210
445,134,82212,1,0,0:0:0:0:
461,178,82319,1,0,0:0:0:0:
476,219,82426,6,0,L|440:326,1,105,6|2,0:0|0:0,0:0:0:0:
382,231,82855,2,0,L|346:338,1,105,2|2,0:0|0:0,0:0:0:0:
252,287,83283,1,0,0:0:0:0:
152,321,83498,1,2,0:0:0:0:
79,245,83712,2,0,P|63:184|77:137,1,105,0|2,0:0|0:0,0:0:0:0:
167,190,84141,6,0,P|190:137|237:102,1,105,0|2,0:0|0:0,0:0:0:0:
276,95,84462,1,0,0:0:0:0:
328,100,84569,2,0,L|432:111,1,105,0|2,0:0|0:0,0:0:0:0:
489,199,84998,2,0,P|495:260|469:312,1,105,0|2,0:0|0:0,0:0:0:0:
386,349,85426,1,0,0:0:0:0:
282,327,85641,1,2,0:0:0:0:
177,314,85855,6,0,P|122:322|74:351,1,105,0|2,0:0|0:0,0:0:0:0:
89,241,86283,2,0,P|99:180|85:132,1,105,0|2,0:0|0:0,0:0:0:0:
48,41,86712,2,0,P|105:54|168:38,1,105,0|2,0:0|0:0,0:0:0:0:
227,117,87141,1,0,0:0:0:0:
323,76,87355,1,2,0:0:0:0:
411,132,87569,6,0,B|433:181|433:181|424:242,1,105,0|2,0:0|0:0,0:0:0:0:
343,297,87998,2,0,L|205:312,1,105,0|2,0:0|0:0,0:0:0:0:
150,252,88426,2,0,B|128:203|128:203|137:142,1,105,0|2,0:0|0:0,0:0:0:0:
218,87,88855,2,0,L|356:72,1,105,0|2,0:0|0:0,0:0:0:0:
396,149,89283,5,0,0:0:0:0:
353,245,89498,1,2,0:0:0:0:
353,245,89605,1,0,0:0:0:0:
353,245,89712,2,0,L|215:260,1,105,0|2,0:0|0:0,0:0:0:0:
156,205,90141,1,0,0:0:0:0:
63,254,90355,1,2,0:0:0:0:
67,149,90569,2,0,P|112:109|170:100,1,105,0|2,0:0|0:0,0:0:0:0:
245,151,90998,6,0,P|305:157|356:138,1,105,0|2,0:0|0:0,0:0:0:0:
407,57,91426,2,0,P|446:110|451:162,1,105,0|2,0:0|0:0,0:0:0:0:
420,248,91855,2,0,B|364:296|364:296|220:296,1,210
132,248,92498,1,2,0:0:0:0:
231,214,92712,6,0,L|351:214,1,105,0|2,0:0|0:0,0:0:0:0:
388,122,93141,2,0,L|283:122,1,105
188,77,93569,1,0,0:0:0:0:
96,128,93783,1,2,0:0:0:0:
96,128,93891,1,0,0:0:0:0:
96,128,93998,2,0,P|79:183|90:244,1,105
157,304,94426,6,0,L|283:325,1,105,0|2,0:0|0:0,0:0:0:0:
282,218,94855,2,0,L|397:186,1,105,0|2,0:0|0:0,0:0:0:0:
349,90,95283,1,0,0:0:0:0:
453,99,95498,1,2,0:0:0:0:
383,189,95712,1,0,0:0:0:0:
463,257,95926,1,2,0:0:0:0:
365,296,96141,6,0,P|304:312|226:292,1,125.999996154785,6|0,0:0|0:0,0:0:0:0:
205,214,96783,2,0,L|191:82,2,125.999996154785,2|0|2,0:0|0:0|0:0,0:0:0:0:
243,300,97855,1,0,0:0:0:0:
243,300,98283,1,0,0:0:0:0:
282,207,98712,1,2,0:0:0:0:
331,294,99141,1,0,0:0:0:0:
331,294,99355,6,0,P|398:303|463:294,1,125.999996154785,2|0,0:0|0:0,0:0:0:0:
494,223,99998,1,0,0:0:0:0:
490,141,100212,2,0,L|463:66,1,62.9999980773926,2|0,0:0|0:0,0:0:0:0:
406,135,100641,2,0,L|345:93,1,62.9999980773926
287,146,101069,1,0,0:0:0:0:
223,196,101283,2,0,P|152:208|87:188,1,125.999996154785,2|0,0:0|0:0,0:0:0:0:
101,93,102141,2,0,P|172:81|237:101,1,125.999996154785,2|0,0:0|0:0,0:0:0:0:
287,146,102783,5,2,0:0:0:0:
319,306,103212,1,0,0:0:0:0:
388,349,103426,1,0,0:0:0:0:
457,305,103641,2,0,L|497:246,1,62.9999980773926,2|0,0:0|0:0,0:0:0:0:
390,265,104069,2,0,L|389:191,1,62.9999980773926
319,306,104498,2,0,L|286:239,1,62.9999980773926,0|2,0:0|0:0,0:0:0:0:
232,96,105141,1,0,0:0:0:0:
211,258,105569,1,2,0:0:0:0:
150,105,105998,1,0,0:0:0:0:
150,105,106212,5,2,0:0:0:0:
211,258,106641,1,0,0:0:0:0:
291,271,106855,1,0,0:0:0:0:
371,284,107069,2,0,L|463:300,1,62.9999980773926,2|0,0:0|0:0,0:0:0:0:
344,208,107498,2,0,L|413:177,1,62.9999980773926
264,195,107926,1,0,0:0:0:0:
241,115,108141,6,0,L|217:31,1,62.9999980773926
157,103,108569,2,0,L|105:43,1,62.9999980773926
72,125,108998,2,0,L|-5:88,1,62.9999980773926
73,206,109426,1,0,0:0:0:0:
132,262,109641,1,0,0:0:0:0:
207,295,109855,6,0,P|253:305|339:286,1,105,4|0,0:0|0:0,0:0:0:0:
354,270,110176,1,0,0:0:0:0:
381,225,110283,2,0,P|395:171|376:113,1,105,2|0,0:0|0:0,0:0:0:0:
344,87,110605,1,0,0:0:0:0:
295,66,110712,2,0,P|247:56|191:69,1,105
158,107,111033,1,0,0:0:0:0:
151,159,111141,2,0,L|151:264,1,105,2|0,0:0|0:0,0:0:0:0:
188,301,111462,1,0,0:0:0:0:
225,263,111569,6,0,L|225:158,1,105
262,120,111891,1,0,0:0:0:0:
299,157,111998,2,0,L|299:272,1,105,2|0,0:0|0:0,0:0:0:0:
336,299,112319,1,0,0:0:0:0:
373,261,112426,2,0,L|373:149,1,105
411,119,112748,2,0,L|484:120,1,52.5,0|2,0:0|0:0,0:0:0:0:
511,213,113069,1,0,0:0:0:0:
336,299,113283,6,0,P|261:310|223:299,1,105
124,202,113712,2,0,P|199:191|227:198,1,105,2|0,0:0|0:0,0:0:0:0:
62,251,114141,2,0,P|47:197|74:140,1,105
289,149,114569,2,0,P|304:203|277:260,1,105,2|0,0:0|0:0,0:0:0:0:
53,237,114998,6,0,P|47:181|84:129,1,105
294,175,115426,2,0,P|299:230|262:282,1,105,2|0,0:0|0:0,0:0:0:0:
141,325,115855,2,0,L|27:325,1,105
136,72,116283,2,0,L|250:72,1,105,2|0,0:0|0:0,0:0:0:0:
317,190,116712,6,0,B|375:189|375:189|415:147,1,105
212,190,117141,2,0,L|317:190,1,105,2|0,0:0|0:0,0:0:0:0:
174,280,117569,2,0,B|174:228|174:228|212:190,1,105
138,368,117998,2,0,B|174:338|174:338|174:280,1,105,2|0,0:0|0:0,0:0:0:0:
120,160,118426,6,0,B|120:103|120:103|80:64,1,105
39,163,118855,2,0,B|39:220|39:220|79:259,1,105,2|0,0:0|0:0,0:0:0:0:
267,344,119283,2,0,P|319:360|368:343,1,105
416,252,119712,2,0,P|364:236|315:253,1,105,2|0,0:0|0:0,0:0:0:0:
183,341,120141,6,0,B|110:342|110:342|78:311,1,105
49,282,120462,1,0,0:0:0:0:
42,230,120569,2,0,B|42:170|42:170|73:137,1,105,2|0,0:0|0:0,0:0:0:0:
118,110,120891,1,0,0:0:0:0:
168,123,120998,2,0,P|217:135|282:121,1,105
307,89,121319,1,0,0:0:0:0:
285,41,121426,2,0,P|233:25|164:42,1,105,2|0,0:0|0:0,0:0:0:0:
152,74,121748,1,0,0:0:0:0:
168,123,121855,6,0,L|195:245,1,105,2|0,0:0|0:0,0:0:0:0:
265,152,122283,2,0,L|292:274,1,105,2|0,0:0|0:0,0:0:0:0:
364,182,122712,2,0,L|391:304,1,105,2|0,0:0|0:0,0:0:0:0:
307,354,123141,1,0,0:0:0:0:
280,354,123248,1,0,0:0:0:0:
253,354,123355,1,0,0:0:0:0:
226,354,123462,1,0,0:0:0:0:
198,354,123569,6,0,B|144:312|144:312|144:215,1,136.499993751526,4|0,0:0|0:0,0:0:0:0:
188,174,123891,1,0,0:0:0:0:
245,232,123998,2,0,P|269:167|232:105,1,136.499993751526,10|0,0:0|0:0,0:0:0:0:
160,89,124319,1,0,0:0:0:0:
110,154,124426,2,0,P|54:177|-30:140,1,136.499993751526
222,34,124855,2,0,P|296:25|362:35,1,136.499993751526,10|0,0:0|0:0,0:0:0:0:
468,133,125283,5,2,0:0:0:0:
475,283,125498,1,0,0:0:0:0:
349,365,125712,2,0,P|269:378|204:357,1,136.499993751526,10|0,0:0|0:0,0:0:0:0:
123,245,126141,1,2,0:0:0:0:
192,112,126355,1,0,0:0:0:0:
292,224,126569,2,0,P|359:242|423:209,1,136.499993751526,10|0,0:0|0:0,0:0:0:0:
317,102,126998,6,0,P|250:84|192:112,1,136.499993751526,0|0,0:0|0:0,0:0:0:0:
123,245,127426,1,10,0:0:0:0:
171,102,127641,1,0,0:0:0:0:
150,250,127855,2,0,P|214:282|286:263,1,136.499993751526
328,207,128176,1,0,0:0:0:0:
291,133,128283,2,0,B|291:62|291:62|346:16,1,136.499993751526,10|0,0:0|0:0,0:0:0:0:
399,78,128605,1,0,0:0:0:0:
456,20,128712,6,0,B|506:62|506:62|506:133,1,136.499993751526,2|0,0:0|0:0,0:0:0:0:
472,293,129141,2,0,B|421:250|421:250|421:179,1,136.499993751526,10|0,0:0|0:0,0:0:0:0:
347,294,129569,2,0,P|273:310|212:279,1,136.499993751526,2|0,0:0|0:0,0:0:0:0:
216,149,129998,2,0,P|290:133|351:164,1,136.499993751526,10|0,0:0|0:0,0:0:0:0:
392,222,130319,1,0,0:0:0:0:
347,294,130426,6,0,P|273:310|212:279,1,136.499993751526
172,218,130748,1,0,0:0:0:0:
216,149,130855,2,0,P|150:138|91:198,1,136.499993751526,10|0,0:0|0:0,0:0:0:0:
99,260,131176,1,0,0:0:0:0:
141,330,131283,2,0,B|183:374|183:374|263:374,1,136.499993751526
341,374,131605,1,0,0:0:0:0:
398,316,131712,2,0,P|424:248|380:168,1,136.499993751526,10|0,0:0|0:0,0:0:0:0:
292,88,132141,6,0,B|214:88|214:88|182:144,1,136.499993751526,2|0,0:0|0:0,0:0:0:0:
220,296,132569,2,0,B|298:296|298:296|330:240,1,136.499993751526,10|0,0:0|0:0,0:0:0:0:
153,244,132998,2,0,P|138:309|196:377,1,136.499993751526,2|0,0:0|0:0,0:0:0:0:
359,140,133426,2,0,P|374:75|316:7,1,136.499993751526,10|0,0:0|0:0,0:0:0:0:
236,129,133855,6,0,P|174:141|108:107,1,136.499993751526
63,42,134176,1,0,0:0:0:0:
27,115,134283,2,0,P|41:181|19:255,1,136.499993751526,10|0,0:0|0:0,0:0:0:0:
4,326,134605,1,0,0:0:0:0:
76,363,134712,2,0,P|145:380|219:356,1,136.499993751526
320,260,135141,5,10,0:0:0:0:
282,102,135355,1,0,0:0:0:0:
165,213,135569,1,2,0:0:0:0:
346,170,135783,5,0,0:0:0:0:
192,123,135997,1,10,0:0:0:0:
229,281,136211,1,0,0:0:0:0:
282,102,136426,5,2,0:0:0:0:
320,260,136640,1,0,0:0:0:0:
165,213,136855,2,0,B|96:196|96:196|28:228,1,136.499993751526,10|0,0:0|0:0,0:0:0:0:
347,171,137283,6,0,B|416:188|416:188|484:156,1,136.499993751526,10|0,0:0|0:0,0:0:0:0:
500,238,137605,1,0,0:0:0:0:
472,314,137712,2,0,B|431:363|431:363|353:363,1,136.499993751526,10|0,0:0|0:0,0:0:0:0:
308,299,138033,1,0,0:0:0:0:
259,365,138141,2,0,P|226:308|254:237,1,136.499993751526
372,164,138569,1,10,0:0:0:0:
494,252,138783,1,0,0:0:0:0:
436,112,138998,6,0,P|377:82|306:113,1,136.499993751526,2|0,0:0|0:0,0:0:0:0:
296,256,139426,2,0,B|296:328|296:328|344:376,1,136.499993751526,10|0,0:0|0:0,0:0:0:0:
197,104,139855,2,0,P|135:82|76:112,1,136.499993751526,2|0,0:0|0:0,0:0:0:0:
216,256,140283,2,0,B|216:328|216:328|168:376,1,136.499993751526,10|0,0:0|0:0,0:0:0:0:
309,175,140712,6,0,P|368:216|353:307,1,136.499993751526
139,275,141141,2,0,P|144:216|203:175,1,136.499993751526,10|0,0:0|0:0,0:0:0:0:
256,236,141462,1,0,0:0:0:0:
309,175,141569,2,0,P|335:111|299:48,1,136.499993751526
256,116,141891,1,0,0:0:0:0:
205,54,141998,2,0,P|177:111|203:175,1,136.499993751526,10|0,0:0|0:0,0:0:0:0:
333,249,142426,6,0,B|395:278|395:278|463:248,1,136.499993751526,2|0,0:0|0:0,0:0:0:0:
458,99,142855,2,0,B|396:70|396:70|328:100,1,136.499993751526,10|0,0:0|0:0,0:0:0:0:
254,224,143283,1,2,0:0:0:0:
146,118,143498,1,0,0:0:0:0:
83,254,143712,1,10,0:0:0:0:
202,344,143926,1,0,0:0:0:0:
281,363,144033,1,0,0:0:0:0:
359,336,144141,6,0,B|412:298|412:298|412:219,1,136.499993751526
396,77,144569,1,10,0:0:0:0:
258,18,144783,1,0,0:0:0:0:
146,118,144998,2,0,P|117:189|161:256,1,136.499993751526
198,182,145319,1,0,0:0:0:0:
277,163,145426,2,0,P|348:153|430:173,1,136.499993751526,10|0,0:0|0:0,0:0:0:0:
504,283,145855,5,2,0:0:0:0:
441,354,146069,1,0,0:0:0:0:
211,342,146283,1,0,0:0:0:0:
299,303,146498,1,10,0:0:0:0:
111,229,146712,1,2,0:0:0:0:
17,210,146926,1,0,0:0:0:0:
87,47,147141,2,0,P|127:25|221:48,1,136.499993751526,10|0,0:0|0:0,0:0:0:0:
277,91,147462,1,0,0:0:0:0:
315,163,147569,6,0,P|375:186|450:158,2,136.499993751526,0|0|10,0:0|0:0|0:0,0:0:0:0:
312,12,148212,1,0,0:0:0:0:
233,163,148426,2,0,P|220:237|236:301,1,136.499993751526
291,354,148748,1,0,0:0:0:0:
371,366,148855,2,0,B|452:366|452:366|497:301,1,136.499993751526,10|0,0:0|0:0,0:0:0:0:
456,172,149283,5,2,0:0:0:0:
442,148,149712,1,10,0:0:0:0:
428,124,150141,1,2,0:0:0:0:
415,100,150569,2,0,P|345:85|267:108,1,136.499993751526,10|0,0:0|0:0,0:0:0:0:
224,187,150998,6,0,P|163:203|119:188,1,105,4|0,0:0|0:0,0:0:0:0:
69,100,151426,2,0,P|130:84|169:96,1,105,2|0,0:0|0:0,0:0:0:0:
19,193,151855,2,0,L|2:301,1,105
80,367,152283,2,0,P|138:376|193:366,1,105,2|0,0:0|0:0,0:0:0:0:
277,321,152712,5,2,0:0:0:0:
284,301,153141,1,2,0:0:0:0:
291,281,153569,1,2,0:0:0:0:
299,261,153998,2,0,L|397:213,1,105,2|2,0:0|0:0,0:0:0:0:
483,268,154426,6,0,P|497:216|478:155,1,105
393,114,154855,1,2,0:0:0:0:
288,120,155069,1,0,0:0:0:0:
202,180,155283,2,0,P|180:131|193:74,1,105
246,249,155712,2,0,P|194:262|145:239,1,105,2|0,0:0|0:0,0:0:0:0:
317,201,156141,5,2,0:0:0:0:
333,213,156569,1,2,0:0:0:0:
349,225,156998,1,2,0:0:0:0:
365,237,157426,2,0,P|422:253|478:229,1,105,2|2,0:0|0:0,0:0:0:0:
496,139,157855,6,0,B|495:81|495:81|454:47,1,105
395,134,158283,2,0,B|363:170|363:170|302:170,1,105,2|0,0:0|0:0,0:0:0:0:
226,100,158712,2,0,B|258:64|258:64|319:64,2,105,0|0|2,0:0|0:0|0:0,0:0:0:0:
203,202,159355,1,0,0:0:0:0:
254,293,159569,6,0,P|347:338|445:280,3,210,2|2|2|2,0:0|0:0|0:0|0:0,0:0:0:0:
472,194,161069,1,0,0:0:0:0:
396,121,161283,2,0,P|335:106|283:126,1,105
217,187,161712,1,2,0:0:0:0:
112,194,161926,1,0,0:0:0:0:
26,131,162141,2,0,P|10:77|40:19,1,105
130,18,162569,1,2,0:0:0:0:
212,82,162783,1,0,0:0:0:0:
217,187,162998,6,0,L|203:305,1,105,2|0,0:0|0:0,0:0:0:0:
292,234,163426,2,0,L|278:352,1,105,2|0,0:0|0:0,0:0:0:0:
367,280,163855,2,0,L|353:398,2,105,2|0|2,0:0|0:0|0:0,0:0:0:0:
379,175,164498,1,0,0:0:0:0:
398,73,164712,1,4,2:0:0:0:
