osu file format v12

[General]
AudioFilename: Clokx - Angels.mp3
AudioLeadIn: 2000
PreviewTime: 27557
Countdown: 0
SampleSet: Soft
StackLeniency: 0.6
Mode: 0
LetterboxInBreaks: 0
EpilepsyWarning: 1

[Editor]
Bookmarks: 68700,75557,164700
DistanceSpacing: 1
BeatDivisor: 4
GridSize: 8

[Metadata]
Title:Angels
TitleUnicode:Angels
Artist:Clokx
ArtistUnicode:Clokx
Creator:BounceBabe
Version:Easy
Source:
Tags:Ron van den Beuken trance techno vipto
BeatmapID:222615
BeatmapSetID:79225

[Difficulty]
HPDrainRate:2
CircleSize:2
OverallDifficulty:2
ApproachRate:3
SliderMultiplier:1
SliderTickRate:1

[Events]
//Background and Video events
0,0,"BG.jpg",0,0
//Break Periods
2,68912,73843
//Storyboard Layer 0 (Background)
//Storyboard Layer 1 (Fail)
//Storyboard Layer 2 (Pass)
//Storyboard Layer 3 (Foreground)
//Storyboard Sound Samples
//Background Colour Transformations
3,100,255,255,255

[TimingPoints]
141,428.571428571429,4,2,3,40,1,0
12998,-100,4,2,2,60,0,0
13855,-100,4,2,2,40,0,0
16426,-100,4,2,2,50,0,0
17069,-100,4,2,2,40,0,0
19855,-100,4,2,2,30,0,0
20498,-100,4,2,2,40,0,0
21462,-100,4,2,2,60,0,0
21676,-100,4,2,2,40,0,0
23283,-100,4,2,2,50,0,0
23926,-100,4,2,2,40,0,0
25855,-100,4,2,2,50,0,0
26712,-100,4,2,2,70,0,0
27569,-100,4,1,1,50,0,1
54998,-100,4,2,2,70,0,0
75569,-100,4,2,3,70,0,0
80712,-100,4,2,2,70,0,0
96141,-100,4,2,3,30,0,0
108141,-100,4,2,3,60,0,0
108998,-100,4,2,3,80,0,0
109855,-100,4,1,3,50,0,0
123141,-100,4,1,3,50,0,0
123569,-100,4,1,1,50,0,1
150998,-100,4,2,2,50,0,0
164712,-100,4,1,1,50,0,1
164819,-100,4,1,1,50,0,0

[Colours]
Combo1 : 0,0,160
Combo2 : 255,255,255
Combo3 : 0,128,192
Combo4 : 175,175,175
Combo5 : 0,100,200

[HitObjects]
88,36,141,6,2,B|40:116|40:116|56:228,1,200,6|2,0:0|0:0,0:0:0:0:
208,348,1855,2,2,B|256:268|256:268|240:156,1,200,2|2,0:0|0:0,0:0:0:0:
440,164,3569,6,2,B|424:269|424:269|472:349,2,200,2|2|2,0:0|0:0|0:0,0:0:0:0:
280,48,6141,1,0,0:0:0:0:
96,120,6998,6,2,P|64:224|128:280,1,200
296,184,8712,2,2,P|354:238|322:342,1,200
472,208,10426,6,2,P|413:153|445:49,2,200
256,192,12355,12,4,13855,0:0:0:0:
96,336,14712,5,0,0:0:0:0:
48,144,15569,2,0,B|104:128|152:168|152:168|192:248,1,200,4|4,0:0|0:0,0:0:0:0:
256,320,16855,1,0,0:0:0:0:
320,248,17283,2,0,B|360:168|360:168|408:128|464:144,1,200,4|0,0:0|0:0,0:0:0:0:
264,136,18998,6,0,B|224:216|224:216|176:256|120:240,2,200,4|4|4,0:0|0:0|0:0,0:0:0:0:
448,56,21569,1,0,0:0:0:0:
464,256,22426,6,0,B|448:304|448:304|352:288|312:352,1,200,4|4,0:0|0:0,0:0:0:0:
256,264,23712,1,0,0:0:0:0:
197,348,24141,2,0,B|160:288|64:304|64:304|48:256,1,200,4|0,0:0|0:0,0:0:0:0:
88,64,25855,6,0,B|125:124|221:108|221:108|237:156,1,200,4|4,0:0|0:0,0:0:0:0:
336,152,27141,1,0,0:0:0:0:
376,64,27569,6,2,P|432:137|396:228,1,200,4|0,0:0|0:0,0:0:0:0:
240,360,29283,2,2,B|160:360|160:360|120:344|120:344|40:344,2,200
440,360,31855,5,0,0:0:0:0:
264,256,32712,2,2,B|184:256|184:256|144:240|144:240|64:240,2,200
464,256,35283,5,0,0:0:0:0:
464,56,36141,2,2,P|368:32|272:56,2,200
464,256,38712,5,0,0:0:0:0:
288,168,39569,2,2,P|192:144|96:168,2,200,2|2|6,0:0|0:0|0:0,0:0:0:0:
400,336,42141,5,0,0:0:0:0:
200,336,42998,2,2,P|104:304|104:216,1,200
152,24,44712,2,2,P|248:56|248:144,2,200
72,208,47283,5,0,0:0:0:0:
74,310,47712,1,0,0:0:0:0:
174,330,48140,1,0,0:0:0:0:
376,328,48998,5,0,0:0:0:0:
272,160,49855,2,2,B|360:160|360:160|400:200|464:192,2,200
72,168,52426,5,0,0:0:0:0:
176,336,53283,1,0,0:0:0:0:
276,336,53712,1,0,0:0:0:0:
224,252,54140,1,0,0:0:0:0:
48,168,54998,6,2,L|144:136|144:136|248:136,1,200
416,240,56712,2,2,L|320:272|320:272|216:272,1,200
120,272,57998,1,0,0:0:0:0:
172,188,58426,2,2,P|180:124|300:124,2,200
320,320,60998,1,0,0:0:0:0:
296,120,61855,6,2,B|417:77|417:77|464:136,1,200
336,288,63569,2,2,B|216:332|216:332|171:276,1,200
128,184,64855,1,0,0:0:0:0:
88,88,65283,2,2,L|161:66|161:66|201:102|201:102|273:80,2,200
256,192,67212,12,4,68712,0:0:0:0:
100,96,75569,6,2,P|140:64|188:56,2,100
188,272,77283,2,2,P|148:304|100:312,2,100
324,120,78998,6,2,P|364:88|412:80,2,100
412,296,80712,2,2,P|372:328|324:336,2,100
288,136,82426,6,2,B|240:88|184:104|184:104|104:64,1,200,6|2,0:0|0:0,0:0:0:0:
64,160,83712,1,0,0:0:0:0:
32,256,84140,2,2,B|80:304|136:288|136:288|216:328,1,200
400,248,85855,6,2,B|408:168|408:168|440:136|440:136|448:56,1,200
352,40,87140,1,0,0:0:0:0:
256,16,87569,2,2,B|248:96|248:96|216:128|216:128|208:208,1,200
80,352,89283,6,2,L|72:296|72:296|40:264,2,100
209,202,90998,2,2,L|217:258|217:258|249:290,2,100,2|2|2,0:0|0:0|0:0,0:0:0:0:
344,56,92712,6,2,L|440:88,2,100
440,232,94426,2,2,L|344:200,2,100
264,336,96140,6,2,P|144:344|112:192,1,300,10|2,0:0|0:0,0:0:0:0:
144,96,97855,1,2,0:0:0:0:
344,96,98712,1,2,0:0:0:0:
320,296,99569,6,2,B|368:272|384:224|384:224|456:152,1,200,10|2,0:0|0:0,0:0:0:0:
256,184,101283,2,2,B|208:208|192:256|192:256|120:328,2,200,2|2|10,0:0|0:0|0:0,0:0:0:0:
400,48,103855,1,0,0:0:0:0:
200,56,104712,6,2,P|104:48|72:136,1,200
88,328,106426,2,2,P|184:336|216:248,2,200,10|2|2,0:0|0:0|0:0,0:0:0:0:
72,128,108998,1,2,0:0:0:0:
168,96,109426,1,2,0:0:0:0:
264,64,109855,6,2,L|464:64,1,200,6|2,0:0|0:0,0:0:0:0:
464,160,111140,1,0,0:0:0:0:
464,256,111569,2,2,L|392:304|272:304,2,200
280,192,114140,1,0,0:0:0:0:
128,64,114998,2,2,P|56:120|80:216,1,200
240,336,116712,6,2,L|440:336,1,200
440,232,117998,1,0,0:0:0:0:
440,136,118426,2,2,B|424:72|424:72|336:80|304:24,2,200
440,336,120998,1,0,0:0:0:0:
240,344,121855,2,2,P|112:320|112:168,1,300
144,80,123569,6,2,L|240:40,1,100,2|10,0:0|0:0,0:0:0:0:
328,8,124426,2,2,P|400:40|384:152,1,200
456,336,126140,1,0,0:0:0:0:
360,336,126569,1,0,0:0:0:0:
264,336,126998,6,2,L|160:336,1,100,2|10,0:0|0:0,0:0:0:0:
64,336,127855,2,2,B|64:280|120:248|120:248|56:176,1,200
200,40,129569,1,0,0:0:0:0:
300,40,129998,1,0,0:0:0:0:
400,40,130426,6,2,L|464:120,1,100,2|10,0:0|0:0,0:0:0:0:
472,216,131283,2,2,B|440:312|440:312|344:360,1,200
184,256,132998,1,0,0:0:0:0:
152,352,133426,1,0,0:0:0:0:
56,316,133855,6,2,P|36:228|104:148,1,200
280,56,135569,1,0,0:0:0:0:
380,56,135998,1,0,0:0:0:0:
440,136,136426,2,0,L|464:248,1,100
472,336,137283,6,2,L|264:336,1,200,6|2,0:0|0:0,0:0:0:0:
72,328,138998,2,2,L|24:128,1,200
56,40,140283,1,0,0:0:0:0:
128,112,140712,6,2,L|336:112,1,200
432,280,142426,1,0,0:0:0:0:
456,184,142855,1,0,0:0:0:0:
360,216,143283,1,0,0:0:0:0:
192,320,144140,6,2,P|96:320|104:240,1,200,2|2,0:0|0:0,0:0:0:0:
264,128,145855,2,2,P|272:48|176:48,1,200,2|2,0:0|0:0,0:0:0:0:
168,144,147141,1,0,0:0:0:0:
232,216,147569,6,2,B|304:240|360:200|432:224,1,200
256,328,149283,1,0,0:0:0:0:
160,328,149712,1,0,0:0:0:0:
64,328,150141,2,0,L|40:224,1,100
40,128,150998,6,2,B|136:120|152:32|152:32|296:32,1,300
392,32,152712,2,2,B|352:112|480:208|456:320,1,300
360,320,154426,6,2,L|48:320,1,300
60,220,156141,2,2,B|164:188|132:108|132:108|188:84|272:136,1,300,2|2,0:0|0:0,0:0:0:0:
360,176,157855,5,2,0:0:0:0:
256,344,158712,1,2,0:0:0:0:
432,256,159569,2,2,P|464:200|464:160,2,100
232,240,161283,5,2,0:0:0:0:
120,76,162141,1,2,0:0:0:0:
136,272,162998,2,2,P|160:312|208:336,2,100
104,176,164283,1,2,0:0:0:0:
120,76,164712,1,4,0:0:0:0:
