osu file format v12

[General]
AudioFilename: Love Letters (MitiS Chilled Overnight Remix).mp3
AudioLeadIn: 0
PreviewTime: 13179
Countdown: 0
SampleSet: Soft
StackLeniency: 0.6
Mode: 0
LetterboxInBreaks: 0
EpilepsyWarning: 1
WidescreenStoryboard: 1

[Editor]
Bookmarks: 13221,26372,39523,52674,65824,78975,92126
DistanceSpacing: 0.8
BeatDivisor: 4
GridSize: 4

[Metadata]
Title:Love Letters (MitiS Chilled Overnight Remix)
TitleUnicode:Love Letters (MitiS Chilled Overnight Remix)
Artist:Clinton VanSciver & Swedish Egil
ArtistUnicode:Clinton VanSciver & Swedish Egil
Creator:[Luanny]
Version:Suicide Note
Source:
Tags:blue dragon kyshiro chillstep _gezo_ collab collaboration
BeatmapID:299716
BeatmapSetID:116068

[Difficulty]
HPDrainRate:6
CircleSize:4
OverallDifficulty:7
ApproachRate:8
SliderMultiplier:1.6
SliderTickRate:2

[Events]
//Background and Video events
0,0,"letter.jpg",0,0
//Break Periods
2,39723,50280
//Storyboard Layer 0 (Background)
Sprite,Background,TopLeft,"letter.jpg",0,0
Sprite,Background,Centre,"sb\backg.jpg",320,240 F,0,71,13221,0,1 F,0,92126,95413,1,0
Sprite,Background,Centre,"sb\blur.jpg",320,240 L,13221,16 F,0,-102,0,0,1 F,0,0,720,1,0 F,0,720,1542,0
Sprite,Background,Centre,"sb\contrast.jpg",320,240 L,14043,16 F,0,-102,0,0,0.2 F,0,0,720,0.2,0 F,0,720,1542,0
Sprite,Background,Centre,"sb\blur.jpg",320,240 L,52674,24 F,0,-102,0,0,1 F,0,0,720,1,0 F,0,720,1542,0
Sprite,Background,Centre,"sb\contrast.jpg",320,240 L,53495,16 F,0,-102,0,0,0.2 F,0,0,720,0.2,0 F,0,720,1542,0
//Storyboard Layer 1 (Fail)
//Storyboard Layer 2 (Pass)
//Storyboard Layer 3 (Foreground)
Sprite,Foreground,Centre,"sb\1.png",320,240 F,0,13016,13221,0,1 M,0,13016,14865,250,79,338,79 F,0,14660,14865,1,0
Sprite,Foreground,Centre,"sb\2.png",320,240 F,0,14660,14865,0,1 M,0,14660,16509,386,124,300,124 F,0,16304,16509,1,0
Sprite,Foreground,Centre,"sb\3.png",320,240 F,0,16304,16509,0,1 M,0,16304,18153,250,165,338,165 F,0,17948,18153,1,0
Sprite,Foreground,Centre,"sb\4.png",320,240 F,0,17948,18153,1 M,0,17948,19797,386,206,300,206 F,0,19591,19797,1,0
Sprite,Foreground,Centre,"sb\5.png",320,240 F,0,19591,19797,0,1 M,0,19591,21441,250,247,338,247 F,0,21235,21441,1,0
Sprite,Foreground,Centre,"sb\6.png",320,240 F,0,21235,21441,0,1 M,0,21235,23085,386,288,300,288 F,0,22879,23085,1,0
Sprite,Foreground,Centre,"sb\7.png",320,240 F,0,22879,23085,0,1 M,0,22879,24728,250,329,338,329 F,0,24523,24728,1,0
Sprite,Foreground,Centre,"sb\8.png",320,240 F,0,24523,24728,0,1 M,0,24523,26372,386,370,300,370 F,0,26167,26372,1,0
Sprite,Foreground,Centre,"sb\1.png",320,240 F,0,26167,26372,0,1 M,0,26167,28016,250,79,338,79 F,0,27811,28016,1,0
Sprite,Foreground,Centre,"sb\2.png",320,240 F,0,27811,28016,0,1 M,0,27811,29660,386,124,300,124 F,0,29455,29660,1,0
Sprite,Foreground,Centre,"sb\3.png",320,240 F,0,29454,29659,0,1 M,0,29454,31303,250,165,338,165 F,0,31098,31303,1,0
Sprite,Foreground,Centre,"sb\9.png",320,240 F,0,31098,31303,1 M,0,31098,32947,386,206,300,206 F,0,32741,32947,1,0
Sprite,Foreground,Centre,"sb\X.png",320,240 F,0,32742,32948,0,1 M,0,32742,34592,250,247,338,247 F,0,34386,34592,1,0
Sprite,Foreground,Centre,"sb\11.png",320,240 F,0,34386,34592,0,1 M,0,34386,36236,386,288,300,288 F,0,36030,36236,1,0
Sprite,Foreground,Centre,"sb\12.png",320,240 F,0,36030,36236,0,1 M,0,36030,37879,250,329,338,329 F,0,37674,37879,1,0
Sprite,Foreground,Centre,"sb\1.png",320,240 F,0,52468,52673,0,1 M,0,52468,54317,250,79,338,79 F,0,54112,54317,1,0
Sprite,Foreground,Centre,"sb\2.png",320,240 F,0,54112,54317,0,1 M,0,54112,55961,386,124,300,124 F,0,55756,55961,1,0
Sprite,Foreground,Centre,"sb\3.png",320,240 F,0,55756,55961,0,1 M,0,55756,57605,250,165,338,165 F,0,57400,57605,1,0
Sprite,Foreground,Centre,"sb\4.png",320,240 F,0,57400,57605,1 M,0,57400,59249,386,206,300,206 F,0,59043,59249,1,0
Sprite,Foreground,Centre,"sb\5.png",320,240 F,0,59043,59249,0,1 M,0,59043,60893,250,247,338,247 F,0,60687,60893,1,0
Sprite,Foreground,Centre,"sb\6.png",320,240 F,0,60687,60893,0,1 M,0,60687,62537,386,288,300,288 F,0,62331,62537,1,0
Sprite,Foreground,Centre,"sb\7.png",320,240 F,0,62331,62537,0,1 M,0,62331,64180,250,329,338,329 F,0,63975,64180,1,0
Sprite,Foreground,Centre,"sb\8.png",320,240 F,0,63975,64180,0,1 M,0,63975,65824,386,370,300,370 F,0,65619,65824,1,0
Sprite,Foreground,Centre,"sb\1.png",320,240 F,0,65619,65824,0,1 M,0,65619,67468,250,79,338,79 F,0,67263,67468,1,0
Sprite,Foreground,Centre,"sb\2.png",320,240 F,0,67263,67468,0,1 M,0,67263,69112,386,124,300,124 F,0,68907,69112,1,0
Sprite,Foreground,Centre,"sb\3.png",320,240 F,0,68906,69111,0,1 M,0,68906,70755,250,165,338,165 F,0,70550,70755,1,0
Sprite,Foreground,Centre,"sb\9.png",320,240 F,0,70550,70755,1 M,0,70550,72399,386,206,300,206 F,0,72193,72399,1,0
Sprite,Foreground,Centre,"sb\X.png",320,240 F,0,72194,72400,0,1 M,0,72194,74044,250,247,338,247 F,0,73838,74044,1,0
Sprite,Foreground,Centre,"sb\11.png",320,240 F,0,73838,74044,0,1 M,0,73838,75688,386,288,300,288 F,0,75482,75688,1,0
Sprite,Foreground,Centre,"sb\12.png",320,240 F,0,75482,75688,0,1 M,0,75482,77331,250,329,338,329 F,0,77126,77331,1,0
//Storyboard Sound Samples
//Background Colour Transformations

[TimingPoints]
13222,410.958904109589,4,2,1,100,1,0
39523,-100,4,2,1,50,0,0
52674,-100,4,2,1,100,0,1
78975,-100,4,2,1,100,0,0
92126,-100,4,2,1,50,0,0

[Colours]
Combo1 : 255,255,170
Combo2 : 244,244,244
SliderBorder : 0,0,0

[HitObjects]
48,152,13221,2,0,P|104:164|132:192,1,80,2|0,0:0|0:0,0:0:0:0:
140,344,13632,2,0,P|122:289|132:251,1,80
268,172,14043,2,0,P|229:214|191:224,1,80,8|0,0:0|0:0,0:0:0:0:
120,178,14454,2,0,P|145:108|235:81,1,160,0|2,0:0|0:0,0:0:0:0:
312,104,15071,1,0,0:0:0:0:
392,156,15276,2,0,P|436:148|472:128,1,80
312,104,15687,2,0,P|276:86|237:79,1,80,8|4,0:0|0:0,0:0:0:0:
304,196,16098,2,0,P|306:236|319:273,1,80,0|4,0:0|0:0,0:0:0:0:
392,336,16509,6,0,P|328:296|248:308,1,160,2|0,0:0|0:0,0:0:0:0:
164,360,17126,1,0,0:0:0:0:
216,236,17331,2,0,P|260:220|304:216,1,80,8|0,0:0|0:0,0:0:0:0:
387,233,17742,2,0,P|427:257|457:288,1,80,0|0,0:0|0:0,0:0:0:0:
328,300,18153,2,0,P|296:228|344:152,1,160,2|0,0:0|0:0,0:0:0:0:
420,124,18769,1,4,0:0:0:0:
402,320,18975,2,0,P|362:318|328:300,1,80,8|0,0:0|0:0,0:0:0:0:
240,256,19386,2,0,L|204:272,2,40,0|0|8,0:0|0:0|0:0,0:0:0:0:
308,188,19797,5,2,0:0:0:0:
280,96,20002,1,0,0:0:0:0:
336,284,20208,2,0,P|388:284|416:268,1,80
280,96,20619,2,0,P|243:80|204:83,1,80,8|0,0:0|0:0,0:0:0:0:
291,280,21030,2,0,P|366:261|404:176,1,160,0|2,0:0|0:0,0:0:0:0:
280,96,21646,1,0,0:0:0:0:
184,168,21852,1,0,0:0:0:0:
252,268,22057,1,0,0:0:0:0:
352,204,22263,2,0,P|396:188|444:192,1,80,8|4,0:0|0:0,0:0:0:0:
252,268,22674,2,0,P|208:284|160:280,1,80,0|4,0:0|0:0,0:0:0:0:
276,120,23085,6,0,P|302:89|315:52,2,80,2|0|0,0:0|0:0|0:0,0:0:0:0:
184,168,23701,1,0,0:0:0:0:
184,168,23906,2,0,L|104:160,1,80,8|0,0:0|0:0,0:0:0:0:
32,40,24317,2,0,L|112:48,1,80
276,120,24728,1,2,0:0:0:0:
336,44,24934,1,0,0:0:0:0:
432,168,25139,2,0,P|395:183|356:179,1,80,0|4,0:0|0:0,0:0:0:0:
276,120,25550,2,0,P|236:116|199:130,1,80,8|0,0:0|0:0,0:0:0:0:
172,156,25858,1,0,0:0:0:0:
156,188,25961,2,0,L|156:272,1,80,0|8,0:0|0:0,0:0:0:0:
280,200,26372,6,0,P|332:208|384:296,1,160,2|0,0:0|0:0,0:0:0:0:
288,297,26989,1,0,0:0:0:0:
272,100,27194,2,0,L|351:109,1,80,8|0,0:0|0:0,0:0:0:0:
456,168,27605,1,0,0:0:0:0:
352,228,27811,1,0,0:0:0:0:
351,109,28016,2,0,P|351:57|339:25,1,80,2|0,0:0|0:0,0:0:0:0:
216,184,28427,2,0,P|268:184|300:172,1,80
143,49,28838,2,0,P|141:89|152:128,1,80,8|4,0:0|0:0,0:0:0:0:
264,260,29249,1,0,0:0:0:0:
244,96,29454,1,8,0:0:0:0:
244,96,29557,1,8,0:0:0:0:
244,96,29660,6,0,L|320:72,1,80,2|0,0:0|0:0,0:0:0:0:
392,196,30071,2,0,L|315:179,1,80
412,32,30482,1,8,0:0:0:0:
392,196,30687,1,0,0:0:0:0:
244,96,30893,2,0,P|200:96|160:112,1,80
288,292,31304,2,0,P|232:316|144:276,1,160,2|0,0:0|0:0,0:0:0:0:
224,216,31920,1,4,0:0:0:0:
296,72,32126,2,0,P|319:104|329:143,1,80,8|0,0:0|0:0,0:0:0:0:
288,292,32537,1,0,0:0:0:0:
288,292,32639,1,0,0:0:0:0:
288,292,32742,1,8,0:0:0:0:
168,136,32948,6,0,P|116:116|88:120,2,80,2|0|0,0:0|0:0|0:0,0:0:0:0:
108,224,33564,1,0,0:0:0:0:
116,32,33769,2,0,B|156:36|156:36|208:56,1,80,8|0,0:0|0:0,0:0:0:0:
320,116,34180,2,0,B|357:130|357:130|397:134,1,80,0|0,0:0|0:0,0:0:0:0:
448,296,34591,2,0,P|368:256|296:280,1,160,2|0,0:0|0:0,0:0:0:0:
236,356,35208,1,0,0:0:0:0:
304,184,35413,2,0,P|264:200|228:232,1,80,8|4,0:0|0:0,0:0:0:0:
408,124,35824,2,0,P|392:84|360:48,1,80,0|4,0:0|0:0,0:0:0:0:
368,55,36132,1,4,0:0:0:0:
368,55,36235,6,0,L|272:44,1,80,2|0,0:0|0:0,0:0:0:0:
136,132,36646,2,0,L|232:121,1,80,0|0,0:0|0:0,0:0:0:0:
313,263,37057,2,0,L|304:184,1,80,8|0,0:0|0:0,0:0:0:0:
420,68,37468,2,0,L|324:79,1,80,0|0,0:0|0:0,0:0:0:0:
136,132,37879,2,0,P|100:184|116:280,1,160,2|0,0:0|0:0,0:0:0:0:
200,216,38495,2,0,P|244:196|280:196,2,80,4|8|0,0:0|0:0|0:0,0:0:0:0:
200,216,39009,1,0,0:0:0:0:
200,216,39112,1,0,0:0:0:0:
216,320,39317,1,8,0:0:0:0:
312,364,39523,5,4,0:0:0:0:
96,80,51030,5,0,0:0:0:0:
96,80,51441,1,0,0:0:0:0:
96,80,51852,1,0,0:0:0:0:
96,80,52263,1,0,0:0:0:0:
96,80,52674,6,0,L|104:168,1,80,2|0,0:0|0:0,0:0:0:0:
140,256,53085,1,0,0:0:0:0:
279,187,53290,2,0,P|243:171|204:176,2,80,4|8|0,0:0|0:0|0:0,0:0:0:0:
392,268,53906,2,0,P|428:283|467:279,1,80,0|4,0:0|0:0,0:0:0:0:
364,160,54317,2,4,P|336:120|344:44,2,120,2|4|4,0:0|0:0|0:0,0:0:0:0:
460,196,55139,1,8,0:0:0:0:
456,48,55345,1,4,0:0:0:0:
364,160,55550,1,0,0:0:0:0:
512,120,55756,1,4,0:0:0:0:
368,72,55961,6,0,P|328:64|288:68,1,80,2|0,0:0|0:0,0:0:0:0:
216,228,56372,2,0,P|242:197|259:160,1,80,0|4,0:0|0:0,0:0:0:0:
164,20,56783,2,0,P|177:58|201:91,1,80,8|0,0:0|0:0,0:0:0:0:
364,160,57194,2,0,P|403:167|443:163,1,80,0|0,0:0|0:0,0:0:0:0:
512,48,57605,2,0,P|448:36|380:56,1,120,2|4,0:0|0:0,0:0:0:0:
272,168,58221,1,4,0:0:0:0:
364,160,58427,2,0,P|348:112|324:92,1,80,8|0,0:0|0:0,0:0:0:0:
204,240,58838,1,0,0:0:0:0:
171,236,58940,1,0,0:0:0:0:
139,233,59043,1,8,0:0:0:0:
44,164,59249,6,0,P|40:120|56:80,1,80,2|0,0:0|0:0,0:0:0:0:
204,240,59660,2,0,P|239:221|264:190,1,80,0|4,0:0|0:0,0:0:0:0:
322,35,60071,2,0,P|287:54|263:85,1,80,8|0,0:0|0:0,0:0:0:0:
204,240,60482,1,0,0:0:0:0:
364,208,60687,1,4,0:0:0:0:
262,85,60893,2,0,L|136:92,2,120,2|4|4,0:0|0:0|0:0,0:0:0:0:
368,84,61715,2,0,P|412:92|448:116,1,80,8|4,0:0|0:0,0:0:0:0:
488,248,62126,2,0,P|470:288|439:319,1,80,0|4,0:0|0:0,0:0:0:0:
364,208,62536,6,0,P|304:196|221:251,1,160,2|0,0:0|0:0,0:0:0:0:
314,301,63153,1,4,0:0:0:0:
228,136,63358,2,0,P|192:160|162:196,1,80,8|0,0:0|0:0,0:0:0:0:
314,301,63769,2,0,P|350:277|378:241,1,80,0|0,0:0|0:0,0:0:0:0:
224,260,64180,2,0,P|184:300|108:304,1,120,2|4,0:0|0:0,0:0:0:0:
28,192,64797,1,4,0:0:0:0:
56,176,64900,1,4,0:0:0:0:
76,152,65002,1,8,0:0:0:0:
108,48,65208,1,4,0:0:0:0:
184,196,65413,2,0,P|240:212|276:196,1,80,0|8,0:0|0:0,0:0:0:0:
320,88,65824,6,0,P|368:96|428:192,1,160,2|0,0:0|0:0,0:0:0:0:
388,280,66441,1,4,0:0:0:0:
312,348,66646,2,0,L|216:336,1,80,8|0,0:0|0:0,0:0:0:0:
96,216,67057,2,0,L|192:228,1,80,0|4,0:0|0:0,0:0:0:0:
268,240,67468,1,2,0:0:0:0:
348,92,67776,2,0,P|300:84|224:112,1,120,4|4,0:0|0:0,0:0:0:0:
95,215,68290,2,0,P|134:221|171:205,1,80,8|4,0:0|0:0,0:0:0:0:
309,257,68701,2,0,P|341:281|356:318,1,80,0|4,0:0|0:0,0:0:0:0:
286,111,69112,6,0,P|289:72|314:41,1,80,2|0,0:0|0:0,0:0:0:0:
424,8,69523,1,0,0:0:0:0:
468,112,69728,1,4,0:0:0:0:
364,156,69934,2,0,P|388:192|440:216,1,80,8|0,0:0|0:0,0:0:0:0:
476,304,70345,2,0,P|428:308|320:256,1,160,0|2,0:0|0:0,0:0:0:0:
246,101,71064,2,0,P|194:71|136:75,1,120,4|4,0:0|0:0,0:0:0:0:
176,247,71578,2,0,P|182:208|172:170,1,80,8|0,0:0|0:0,0:0:0:0:
4,216,71989,2,0,P|43:222|81:212,1,80,0|8,0:0|0:0,0:0:0:0:
36,44,72400,6,0,P|32:100|56:144,2,80,2|0|0,0:0|0:0|0:0,0:0:0:0:
136,76,73016,1,4,0:0:0:0:
152,232,73221,2,0,B|192:240|192:240|244:236,1,80,8|0,0:0|0:0,0:0:0:0:
388,192,73632,2,0,B|427:188|427:188|467:196,1,80,0|4,0:0|0:0,0:0:0:0:
357,273,74043,2,0,P|311:237|300:180,2,120,2|4|4,0:0|0:0|0:0,0:0:0:0:
429,113,74865,2,0,P|390:103|352:112,1,80,8|4,0:0|0:0,0:0:0:0:
300,180,75276,2,0,P|281:215|249:238,1,80,0|4,0:0|0:0,0:0:0:0:
83,190,75687,6,0,P|44:260|72:336,1,160,2|0,0:0|0:0,0:0:0:0:
142,269,76304,1,4,0:0:0:0:
172,144,76509,2,0,L|156:56,1,80,8|0,0:0|0:0,0:0:0:0:
236,236,76920,2,0,L|252:324,1,80
280,136,77331,2,0,L|257:11,2,120,2|4|4,0:0|0:0|0:0,0:0:0:0:
280,136,78050,1,4,0:0:0:0:
280,136,78153,1,8,0:0:0:0:
336,264,78358,1,4,0:0:0:0:
448,168,78564,2,0,P|422:137|384:126,1,80,0|8,0:0|0:0,0:0:0:0:
244,224,78975,6,0,P|196:184|204:80,1,160,2|0,0:0|0:0,0:0:0:0:
280,136,79591,1,0,0:0:0:0:
363,177,79797,2,0,P|369:100|315:46,1,160,8|0,0:0|0:0,0:0:0:0:
244,224,80619,1,2,0:0:0:0:
244,224,81030,2,0,L|152:248,1,80
104,320,81441,2,0,L|196:344,1,80,8|4,0:0|0:0,0:0:0:0:
244,224,81852,1,0,0:0:0:0:
88,168,82058,1,4,0:0:0:0:
104,320,82263,6,0,P|188:328|244:284,1,160,2|0,0:0|0:0,0:0:0:0:
200,200,82879,1,0,0:0:0:0:
160,112,83085,2,0,P|222:65|300:75,1,160,8|0,0:0|0:0,0:0:0:0:
340,264,83906,2,0,P|368:236|384:192,1,80,2|0,0:0|0:0,0:0:0:0:
184,276,84317,2,0,P|212:304|256:320,1,80,0|4,0:0|0:0,0:0:0:0:
172,120,84728,2,0,P|144:148|128:192,1,80,8|0,0:0|0:0,0:0:0:0:
328,108,85139,2,0,P|300:80|256:64,1,80,0|8,0:0|0:0,0:0:0:0:
304,200,85550,6,0,P|364:196|423:118,1,160,2|0,0:0|0:0,0:0:0:0:
328,108,86167,1,0,0:0:0:0:
380,276,86373,2,0,P|338:341|261:354,1,160,8|0,0:0|0:0,0:0:0:0:
229,86,87194,2,0,L|313:58,1,80,2|0,0:0|0:0,0:0:0:0:
165,158,87605,2,0,L|81:186,1,80
253,174,88016,2,0,L|337:146,1,80,8|4,0:0|0:0,0:0:0:0:
189,246,88427,2,0,L|105:274,1,80,0|4,0:0|0:0,0:0:0:0:
285,262,88838,5,2,0:0:0:0:
473,306,89249,1,0,0:0:0:0:
417,122,89660,2,0,L|392:44,1,80,8|0,0:0|0:0,0:0:0:0:
425,214,90071,2,0,P|405:258|377:278,1,80
229,194,90482,2,0,P|196:264|233:332,1,160,2|0,0:0|0:0,0:0:0:0:
328,346,91098,1,4,0:0:0:0:
313,196,91304,2,0,P|309:164|265:120,1,80,8|0,0:0|0:0,0:0:0:0:
185,268,91715,2,0,P|214:280|274:264,1,80,0|8,0:0|0:0,0:0:0:0:
228,64,92126,5,4,0:0:0:0:
