osu file format v12

[General]
AudioFilename: Love Letters (MitiS Chilled Overnight Remix).mp3
AudioLeadIn: 0
PreviewTime: 13179
Countdown: 0
SampleSet: Normal
StackLeniency: 0.6
Mode: 1
LetterboxInBreaks: 0
EpilepsyWarning: 1
WidescreenStoryboard: 1

[Editor]
Bookmarks: 13221,26372,39523,52674,65824,78975,92126
DistanceSpacing: 0.9
BeatDivisor: 4
GridSize: 32

[Metadata]
Title:Love Letters (MitiS Chilled Overnight Remix)
TitleUnicode:Love Letters (MitiS Chilled Overnight Remix)
Artist:Clinton VanSciver & Swedish Egil
ArtistUnicode:Clinton VanSciver & Swedish Egil
Creator:[Luanny]
Version:OniZoda
Source:
Tags:blue dragon kyshiro chillstep _gezo_ collab collaboration
BeatmapID:315099
BeatmapSetID:116068

[Difficulty]
HPDrainRate:6
CircleSize:2
OverallDifficulty:5
ApproachRate:10
SliderMultiplier:1.4
SliderTickRate:1

[Events]
//Background and Video events
0,0,"letter.jpg",0,0
//Break Periods
//Storyboard Layer 0 (Background)
//Storyboard Layer 1 (Fail)
//Storyboard Layer 2 (Pass)
//Storyboard Layer 3 (Foreground)
//Storyboard Sound Samples
//Background Colour Transformations
3,100,163,162,255

[TimingPoints]
13222,410.958904109589,4,1,0,70,1,0
52674,-100,4,1,0,70,0,1
78975,-100,4,1,0,70,0,0

[Colours]
Combo1 : 255,255,170
Combo2 : 244,244,244
SliderBorder : 0,0,0

[HitObjects]
256,64,13221,1,4,0:0:0:0:
256,64,13838,1,0,0:0:0:0:
256,64,14043,1,8,0:0:0:0:
256,64,14454,1,0,0:0:0:0:
256,64,14865,1,0,0:0:0:0:
256,64,15482,1,0,0:0:0:0:
256,64,15687,1,8,0:0:0:0:
256,64,15893,1,0,0:0:0:0:
256,64,16098,1,0,0:0:0:0:
256,64,16509,1,0,0:0:0:0:
256,64,17126,1,0,0:0:0:0:
256,64,17331,1,8,0:0:0:0:
256,64,17742,1,0,0:0:0:0:
256,64,17948,1,0,0:0:0:0:
256,64,18153,1,0,0:0:0:0:
256,64,18564,1,0,0:0:0:0:
256,64,18769,1,0,0:0:0:0:
256,64,18975,1,8,0:0:0:0:
256,64,19180,1,0,0:0:0:0:
256,64,19386,1,0,0:0:0:0:
256,64,19591,1,8,0:0:0:0:
256,64,19797,1,0,0:0:0:0:
256,64,20413,1,0,0:0:0:0:
256,64,20619,1,8,0:0:0:0:
256,64,21030,1,0,0:0:0:0:
256,64,21441,1,8,0:0:0:0:
256,64,21646,1,0,0:0:0:0:
256,64,21852,1,0,0:0:0:0:
256,64,22057,1,0,0:0:0:0:
256,64,22263,1,8,0:0:0:0:
256,64,22674,1,0,0:0:0:0:
256,64,22879,1,8,0:0:0:0:
256,64,23085,1,0,0:0:0:0:
256,64,23495,1,0,0:0:0:0:
256,64,23701,1,0,0:0:0:0:
256,64,23906,1,8,0:0:0:0:
256,64,24317,1,0,0:0:0:0:
256,64,24728,1,0,0:0:0:0:
256,64,25139,1,0,0:0:0:0:
256,64,25345,1,0,0:0:0:0:
256,64,25550,1,8,0:0:0:0:
256,64,25756,1,0,0:0:0:0:
256,64,25961,1,8,0:0:0:0:
256,64,26167,1,8,0:0:0:0:
256,64,26372,1,0,0:0:0:0:
256,64,26989,1,0,0:0:0:0:
256,64,27194,1,8,0:0:0:0:
256,64,27605,1,0,0:0:0:0:
256,64,27811,1,0,0:0:0:0:
256,64,28016,1,0,0:0:0:0:
256,64,28427,1,0,0:0:0:0:
256,64,28632,1,0,0:0:0:0:
256,64,28838,1,8,0:0:0:0:
256,64,29043,1,0,0:0:0:0:
256,64,29454,1,8,0:0:0:0:
256,64,29660,1,0,0:0:0:0:
256,64,30276,1,0,0:0:0:0:
256,64,30482,1,8,0:0:0:0:
256,64,30893,1,0,0:0:0:0:
256,64,31304,1,0,0:0:0:0:
256,64,31715,1,0,0:0:0:0:
288,32,31920,1,0,0:0:0:0:
256,64,32126,1,8,0:0:0:0:
256,64,32331,1,0,0:0:0:0:
256,64,32537,1,0,0:0:0:0:
256,64,32742,1,8,0:0:0:0:
256,64,32948,1,0,0:0:0:0:
256,64,33564,1,0,0:0:0:0:
256,64,33769,1,8,0:0:0:0:
256,64,34180,1,0,0:0:0:0:
256,64,34591,1,0,0:0:0:0:
256,64,35002,1,0,0:0:0:0:
256,64,35208,1,0,0:0:0:0:
256,64,35413,1,8,0:0:0:0:
288,96,35619,1,0,0:0:0:0:
256,64,36030,1,8,0:0:0:0:
256,64,36235,1,0,0:0:0:0:
256,64,36646,1,0,0:0:0:0:
256,64,36852,1,0,0:0:0:0:
256,64,37057,1,8,0:0:0:0:
256,64,37468,1,8,0:0:0:0:
256,64,37674,1,8,0:0:0:0:
256,64,37879,1,0,0:0:0:0:
256,64,38290,1,0,0:0:0:0:
256,64,38495,1,0,0:0:0:0:
256,64,38701,1,8,0:0:0:0:
256,64,39112,1,8,0:0:0:0:
256,64,39317,1,8,0:0:0:0:
256,64,39523,1,0,0:0:0:0:
256,64,41167,1,0,0:0:0:0:
256,64,42811,1,0,0:0:0:0:
256,64,44454,1,0,0:0:0:0:
256,64,45276,1,0,0:0:0:0:
256,64,46098,1,0,0:0:0:0:
256,64,47742,1,0,0:0:0:0:
256,64,49386,1,0,0:0:0:0:
256,64,51030,1,0,0:0:0:0:
288,96,51852,1,0,0:0:0:0:
256,64,52674,1,4,0:0:0:0:
256,64,53290,1,0,0:0:0:0:
256,64,53495,1,8,0:0:0:0:
256,64,53906,1,0,0:0:0:0:
256,64,54112,1,0,0:0:0:0:
256,64,54317,1,0,0:0:0:0:
256,64,54626,1,0,0:0:0:0:
256,64,54934,1,0,0:0:0:0:
256,64,55139,1,8,0:0:0:0:
256,64,55345,1,0,0:0:0:0:
256,64,55756,1,8,0:0:0:0:
256,64,55961,1,0,0:0:0:0:
256,64,56578,1,0,0:0:0:0:
256,64,56783,1,8,0:0:0:0:
256,64,57194,1,0,0:0:0:0:
256,64,57400,1,0,0:0:0:0:
256,64,57605,1,0,0:0:0:0:
256,64,57913,1,0,0:0:0:0:
256,64,58221,1,0,0:0:0:0:
256,64,58427,1,8,0:0:0:0:
256,64,58838,1,0,0:0:0:0:
256,64,59043,1,8,0:0:0:0:
256,64,59249,1,0,0:0:0:0:
256,64,59660,1,0,0:0:0:0:
256,64,59865,1,0,0:0:0:0:
256,64,60071,1,8,0:0:0:0:
256,64,60687,1,0,0:0:0:0:
256,64,60893,1,0,0:0:0:0:
256,64,61201,1,0,0:0:0:0:
256,64,61509,1,0,0:0:0:0:
256,64,61715,1,8,0:0:0:0:
256,64,61920,1,0,0:0:0:0:
256,64,62331,1,8,0:0:0:0:
256,64,62537,1,0,0:0:0:0:
256,64,62948,1,0,0:0:0:0:
256,64,63153,1,0,0:0:0:0:
256,64,63358,1,8,0:0:0:0:
256,64,63975,1,0,0:0:0:0:
256,64,64180,1,0,0:0:0:0:
256,64,64386,1,0,0:0:0:0:
256,64,64489,1,0,0:0:0:0:
256,64,64797,1,0,0:0:0:0:
256,64,65002,1,8,0:0:0:0:
256,64,65208,1,0,0:0:0:0:
256,64,65413,1,8,0:0:0:0:
256,64,65619,1,8,0:0:0:0:
256,64,65824,1,0,0:0:0:0:
256,64,66441,1,0,0:0:0:0:
256,64,66646,1,8,0:0:0:0:
256,64,67057,1,0,0:0:0:0:
256,64,67468,1,0,0:0:0:0:
256,64,67776,1,0,0:0:0:0:
256,64,67879,1,0,0:0:0:0:
256,64,68085,1,0,0:0:0:0:
256,64,68290,1,8,0:0:0:0:
256,64,68495,1,0,0:0:0:0:
256,64,68906,1,8,0:0:0:0:
256,64,69112,1,0,0:0:0:0:
256,64,69523,1,0,0:0:0:0:
256,64,69728,1,0,0:0:0:0:
256,64,69934,1,8,0:0:0:0:
256,64,70345,1,0,0:0:0:0:
256,64,70756,1,0,0:0:0:0:
256,64,71064,1,0,0:0:0:0:
256,64,71167,1,0,0:0:0:0:
256,64,71372,1,0,0:0:0:0:
256,64,71578,1,8,0:0:0:0:
256,64,71989,1,0,0:0:0:0:
256,64,72194,1,8,0:0:0:0:
256,64,72400,1,0,0:0:0:0:
256,64,73016,1,0,0:0:0:0:
256,64,73221,1,8,0:0:0:0:
256,64,73632,1,0,0:0:0:0:
256,64,74043,1,0,0:0:0:0:
256,64,74454,1,0,0:0:0:0:
256,64,74660,1,0,0:0:0:0:
256,64,74865,1,8,0:0:0:0:
256,64,75174,1,0,0:0:0:0:
256,64,75276,1,0,0:0:0:0:
256,64,75482,1,8,0:0:0:0:
256,64,75687,1,0,0:0:0:0:
256,64,76304,1,0,0:0:0:0:
256,64,76509,1,8,0:0:0:0:
256,64,76920,1,0,0:0:0:0:
256,64,77331,1,0,0:0:0:0:
256,64,77639,1,0,0:0:0:0:
256,64,77742,1,0,0:0:0:0:
256,64,77948,1,0,0:0:0:0:
256,64,78153,1,8,0:0:0:0:
256,64,78358,1,0,0:0:0:0:
256,64,78564,1,8,0:0:0:0:
256,64,78769,1,8,0:0:0:0:
256,64,78975,1,0,0:0:0:0:
256,64,79591,1,0,0:0:0:0:
256,64,79797,1,8,0:0:0:0:
256,64,80208,1,0,0:0:0:0:
256,64,80619,1,0,0:0:0:0:
256,64,81030,1,0,0:0:0:0:
256,64,81235,1,0,0:0:0:0:
256,64,81441,1,8,0:0:0:0:
256,64,81646,1,0,0:0:0:0:
256,64,82057,1,8,0:0:0:0:
256,64,82263,1,0,0:0:0:0:
256,64,82674,1,0,0:0:0:0:
256,64,82879,1,0,0:0:0:0:
256,64,83085,1,8,0:0:0:0:
256,64,83495,1,8,0:0:0:0:
256,64,83906,1,0,0:0:0:0:
256,64,84317,1,0,0:0:0:0:
256,64,84523,1,0,0:0:0:0:
256,64,84728,1,8,0:0:0:0:
256,64,85139,1,0,0:0:0:0:
256,64,85345,1,8,0:0:0:0:
256,64,85550,1,0,0:0:0:0:
256,64,86167,1,0,0:0:0:0:
256,64,86372,1,8,0:0:0:0:
256,64,86783,1,0,0:0:0:0:
256,64,87194,1,8,0:0:0:0:
256,64,87605,1,0,0:0:0:0:
256,64,87811,1,0,0:0:0:0:
256,64,88016,1,8,0:0:0:0:
192,128,88221,1,0,0:0:0:0:
256,64,88632,1,8,0:0:0:0:
256,64,88838,1,0,0:0:0:0:
256,64,89249,1,0,0:0:0:0:
256,64,89454,1,0,0:0:0:0:
256,64,89660,1,8,0:0:0:0:
256,64,90071,1,8,0:0:0:0:
256,64,90482,1,0,0:0:0:0:
256,64,91304,1,8,0:0:0:0:
256,64,91715,1,8,0:0:0:0:
256,64,91920,1,8,0:0:0:0:
256,64,92126,1,0,0:0:0:0:
