osu file format v12

[General]
AudioFilename: Love Letters (MitiS Chilled Overnight Remix).mp3
AudioLeadIn: 0
PreviewTime: 13179
Countdown: 0
SampleSet: Soft
StackLeniency: 0.6
Mode: 0
LetterboxInBreaks: 0
EpilepsyWarning: 1
WidescreenStoryboard: 1

[Editor]
Bookmarks: 13221,26372,39523,52674,65824,78975,92126
DistanceSpacing: 1.1
BeatDivisor: 4
GridSize: 4

[Metadata]
Title:Love Letters (MitiS Chilled Overnight Remix)
TitleUnicode:Love Letters (MitiS Chilled Overnight Remix)
Artist:Clinton VanSciver & Swedish Egil
ArtistUnicode:Clinton VanSciver & Swedish Egil
Creator:[Luanny]
Version:Easy
Source:
Tags:blue dragon kyshiro chillstep _gezo_ collab collaboration
BeatmapID:299717
BeatmapSetID:116068

[Difficulty]
HPDrainRate:3
CircleSize:3
OverallDifficulty:2
ApproachRate:3
SliderMultiplier:0.8
SliderTickRate:2

[Events]
//Background and Video events
0,0,"letter.jpg",0,0
//Break Periods
2,39722,49590
//Storyboard Layer 0 (Background)
Sprite,Background,TopLeft,"letter.jpg",0,0
Sprite,Background,Centre,"sb\backg.jpg",320,240 F,0,71,13221,0,1 F,0,92126,95413,1,0
Sprite,Background,Centre,"sb\blur.jpg",320,240 L,13221,16 F,0,-102,0,0,1 F,0,0,720,1,0 F,0,720,1542,0
Sprite,Background,Centre,"sb\contrast.jpg",320,240 L,14043,16 F,0,-102,0,0,0.2 F,0,0,720,0.2,0 F,0,720,1542,0
Sprite,Background,Centre,"sb\blur.jpg",320,240 L,52674,24 F,0,-102,0,0,1 F,0,0,720,1,0 F,0,720,1542,0
Sprite,Background,Centre,"sb\contrast.jpg",320,240 L,53495,16 F,0,-102,0,0,0.2 F,0,0,720,0.2,0 F,0,720,1542,0
//Storyboard Layer 1 (Fail)
//Storyboard Layer 2 (Pass)
//Storyboard Layer 3 (Foreground)
Sprite,Foreground,Centre,"sb\1.png",320,240 F,0,13016,13221,0,1 M,0,13016,14865,250,79,338,79 F,0,14660,14865,1,0
Sprite,Foreground,Centre,"sb\2.png",320,240 F,0,14660,14865,0,1 M,0,14660,16509,386,124,300,124 F,0,16304,16509,1,0
Sprite,Foreground,Centre,"sb\3.png",320,240 F,0,16304,16509,0,1 M,0,16304,18153,250,165,338,165 F,0,17948,18153,1,0
Sprite,Foreground,Centre,"sb\4.png",320,240 F,0,17948,18153,1 M,0,17948,19797,386,206,300,206 F,0,19591,19797,1,0
Sprite,Foreground,Centre,"sb\5.png",320,240 F,0,19591,19797,0,1 M,0,19591,21441,250,247,338,247 F,0,21235,21441,1,0
Sprite,Foreground,Centre,"sb\6.png",320,240 F,0,21235,21441,0,1 M,0,21235,23085,386,288,300,288 F,0,22879,23085,1,0
Sprite,Foreground,Centre,"sb\7.png",320,240 F,0,22879,23085,0,1 M,0,22879,24728,250,329,338,329 F,0,24523,24728,1,0
Sprite,Foreground,Centre,"sb\8.png",320,240 F,0,24523,24728,0,1 M,0,24523,26372,386,370,300,370 F,0,26167,26372,1,0
Sprite,Foreground,Centre,"sb\1.png",320,240 F,0,26167,26372,0,1 M,0,26167,28016,250,79,338,79 F,0,27811,28016,1,0
Sprite,Foreground,Centre,"sb\2.png",320,240 F,0,27811,28016,0,1 M,0,27811,29660,386,124,300,124 F,0,29455,29660,1,0
Sprite,Foreground,Centre,"sb\3.png",320,240 F,0,29454,29659,0,1 M,0,29454,31303,250,165,338,165 F,0,31098,31303,1,0
Sprite,Foreground,Centre,"sb\9.png",320,240 F,0,31098,31303,1 M,0,31098,32947,386,206,300,206 F,0,32741,32947,1,0
Sprite,Foreground,Centre,"sb\X.png",320,240 F,0,32742,32948,0,1 M,0,32742,34592,250,247,338,247 F,0,34386,34592,1,0
Sprite,Foreground,Centre,"sb\11.png",320,240 F,0,34386,34592,0,1 M,0,34386,36236,386,288,300,288 F,0,36030,36236,1,0
Sprite,Foreground,Centre,"sb\12.png",320,240 F,0,36030,36236,0,1 M,0,36030,37879,250,329,338,329 F,0,37674,37879,1,0
Sprite,Foreground,Centre,"sb\1.png",320,240 F,0,52468,52673,0,1 M,0,52468,54317,250,79,338,79 F,0,54112,54317,1,0
Sprite,Foreground,Centre,"sb\2.png",320,240 F,0,54112,54317,0,1 M,0,54112,55961,386,124,300,124 F,0,55756,55961,1,0
Sprite,Foreground,Centre,"sb\3.png",320,240 F,0,55756,55961,0,1 M,0,55756,57605,250,165,338,165 F,0,57400,57605,1,0
Sprite,Foreground,Centre,"sb\4.png",320,240 F,0,57400,57605,1 M,0,57400,59249,386,206,300,206 F,0,59043,59249,1,0
Sprite,Foreground,Centre,"sb\5.png",320,240 F,0,59043,59249,0,1 M,0,59043,60893,250,247,338,247 F,0,60687,60893,1,0
Sprite,Foreground,Centre,"sb\6.png",320,240 F,0,60687,60893,0,1 M,0,60687,62537,386,288,300,288 F,0,62331,62537,1,0
Sprite,Foreground,Centre,"sb\7.png",320,240 F,0,62331,62537,0,1 M,0,62331,64180,250,329,338,329 F,0,63975,64180,1,0
Sprite,Foreground,Centre,"sb\8.png",320,240 F,0,63975,64180,0,1 M,0,63975,65824,386,370,300,370 F,0,65619,65824,1,0
Sprite,Foreground,Centre,"sb\1.png",320,240 F,0,65619,65824,0,1 M,0,65619,67468,250,79,338,79 F,0,67263,67468,1,0
Sprite,Foreground,Centre,"sb\2.png",320,240 F,0,67263,67468,0,1 M,0,67263,69112,386,124,300,124 F,0,68907,69112,1,0
Sprite,Foreground,Centre,"sb\3.png",320,240 F,0,68906,69111,0,1 M,0,68906,70755,250,165,338,165 F,0,70550,70755,1,0
Sprite,Foreground,Centre,"sb\9.png",320,240 F,0,70550,70755,1 M,0,70550,72399,386,206,300,206 F,0,72193,72399,1,0
Sprite,Foreground,Centre,"sb\X.png",320,240 F,0,72194,72400,0,1 M,0,72194,74044,250,247,338,247 F,0,73838,74044,1,0
Sprite,Foreground,Centre,"sb\11.png",320,240 F,0,73838,74044,0,1 M,0,73838,75688,386,288,300,288 F,0,75482,75688,1,0
Sprite,Foreground,Centre,"sb\12.png",320,240 F,0,75482,75688,0,1 M,0,75482,77331,250,329,338,329 F,0,77126,77331,1,0
//Storyboard Sound Samples
//Background Colour Transformations

[TimingPoints]
13222,410.958904109589,4,2,1,100,1,0
15893,-100,4,2,3,80,0,0
15995,-100,4,2,1,100,0,0
16304,-100,4,2,3,80,0,0
16406,-100,4,2,1,100,0,0
18769,-100,4,2,3,80,0,0
18872,-100,4,2,1,100,0,0
22468,-100,4,2,3,80,0,0
22571,-100,4,2,1,100,0,0
26167,-100,4,2,2,80,0,0
26269,-100,4,2,1,100,0,0
29043,-100,4,2,3,80,0,0
29146,-100,4,2,1,100,0,0
29454,-100,4,2,2,80,0,0
29557,-100,4,2,1,100,0,0
31920,-100,4,2,3,80,0,0
32023,-100,4,2,1,100,0,0
35619,-100,4,2,3,80,0,0
35721,-100,4,2,1,100,0,0
36030,-100,4,2,3,80,0,0
36132,-100,4,2,1,100,0,0
39317,-100,4,2,2,80,0,0
39420,-100,4,2,1,100,0,0
39523,-100,4,2,1,50,0,0
52674,-100,4,2,1,100,0,1
54934,-100,4,2,3,80,0,1
55037,-100,4,2,1,100,0,1
56578,-100,4,2,3,80,0,1
56680,-100,4,2,1,100,0,1
58221,-100,4,2,3,80,0,1
58324,-100,4,2,1,100,0,1
59043,-100,4,2,2,80,0,1
59146,-100,4,2,1,100,0,1
61509,-100,4,2,3,80,0,1
61612,-100,4,2,1,100,0,1
63153,-100,4,2,3,80,0,1
63256,-100,4,2,1,100,0,1
65619,-100,4,2,2,80,0,1
65721,-100,4,2,1,100,0,1
68085,-100,4,2,3,80,0,1
68187,-100,4,2,1,100,0,1
69728,-100,4,2,3,80,0,1
69831,-100,4,2,1,100,0,1
71372,-100,4,2,3,80,0,1
71475,-100,4,2,1,100,0,1
74660,-100,4,2,3,80,0,1
74763,-100,4,2,1,100,0,1
75071,-100,4,2,3,80,0,1
75174,-100,4,2,1,100,0,1
75482,-100,4,2,3,80,0,1
75585,-100,4,2,1,100,0,1
77948,-100,4,2,3,80,0,1
78050,-100,4,2,1,100,0,1
78975,-100,4,2,1,100,0,0
84523,-100,4,2,3,80,0,0
84626,-100,4,2,1,100,0,0
85345,-100,4,2,2,80,0,0
85448,-100,4,2,1,100,0,0
91098,-100,4,2,3,80,0,0
91201,-100,4,2,1,100,0,0
91920,-100,4,2,2,80,0,0
92023,-100,4,2,1,100,0,0
92126,-100,4,2,1,50,0,0

[Colours]
Combo1 : 255,255,170
Combo2 : 244,244,244
SliderBorder : 0,0,0

[HitObjects]
112,200,13221,6,0,P|68:240|76:340,1,160,2|8,0:0|0:0,0:0:0:0:
144,284,14454,1,0,0:0:0:0:
200,216,14865,2,0,P|200:176|176:136,1,80,2|0,0:0|0:0,0:0:0:0:
112,200,15687,2,0,L|284:224,1,160,8|2,0:0|0:0,0:0:0:0:
360,232,16920,5,0,0:0:0:0:
308,304,17331,2,0,P|272:328|232:328,1,80,8|0,0:0|0:0,0:0:0:0:
248,239,18153,2,0,P|282:170|248:101,1,160,2|8,0:0|0:0,0:0:0:0:
160,88,19386,1,0,0:0:0:0:
114,165,19797,6,0,P|152:177|191:172,1,80,2|0,0:0|0:0,0:0:0:0:
248,102,20619,2,0,P|287:96|325:108,1,80,8|0,0:0|0:0,0:0:0:0:
392,164,21441,1,2,0:0:0:0:
328,328,22263,2,0,P|288:348|240:348,1,80,8|0,0:0|0:0,0:0:0:0:
168,336,23085,6,0,P|112:292|96:192,1,160,2|8,0:0|0:0,0:0:0:0:
132,128,24317,1,0,0:0:0:0:
180,200,24728,2,0,P|232:216|264:208,1,80,2|0,0:0|0:0,0:0:0:0:
324,156,25550,2,0,L|412:148,2,80,8|0|2,0:0|0:0|0:0,0:0:0:0:
148,172,27194,5,8,0:0:0:0:
64,192,27605,1,0,0:0:0:0:
124,256,28016,2,0,P|179:254|234:166,2,160,2|8|2,0:0|0:0|0:0,0:0:0:0:
148,172,30071,5,0,0:0:0:0:
196,96,30481,2,0,P|240:88|276:100,1,80,8|0,0:0|0:0,0:0:0:0:
332,164,31304,2,0,B|396:220|396:220|436:204|468:220,1,160,2|8,0:0|0:0,0:0:0:0:
436,300,32537,1,0,0:0:0:0:
348,284,32948,6,0,L|228:176,1,160,2|8,0:0|0:0,0:0:0:0:
148,140,34180,1,0,0:0:0:0:
64,164,34591,2,0,P|29:205|26:237,1,80,2|0,0:0|0:0,0:0:0:0:
112,236,35413,2,0,P|178:230|259:290,1,160,8|2,0:0|0:0,0:0:0:0:
284,364,36646,5,0,0:0:0:0:
196,352,37057,2,0,L|100:332,2,80,8|0|2,0:0|0:0|0:0,0:0:0:0:
253,280,38290,1,0,0:0:0:0:
192,211,38701,2,0,P|161:282|196:352,1,160,8|4,0:0|0:0,0:0:0:0:
200,284,51030,5,0,0:0:0:0:
208,112,51852,1,0,0:0:0:0:
368,188,52674,6,0,P|384:264|325:328,1,160,2|8,0:0|0:0,0:0:0:0:
300,244,53906,1,0,0:0:0:0:
280,160,54317,2,0,L|256:76,2,80,2|0|8,0:0|0:0|0:0,0:0:0:0:
300,244,55550,1,0,0:0:0:0:
252,316,55961,6,0,P|192:328|112:272,1,160,2|8,0:0|0:0,0:0:0:0:
104,188,57194,1,0,0:0:0:0:
192,196,57605,2,0,B|268:176|268:176|324:112,2,160,2|8|2,0:0|0:0|0:0,0:0:0:0:
140,264,59660,5,0,0:0:0:0:
228,272,60071,2,0,L|305:252,1,80,8|0,0:0|0:0,0:0:0:0:
380,304,60893,2,0,P|392:228|335:166,1,160,2|8,0:0|0:0,0:0:0:0:
260,136,62126,1,0,0:0:0:0:
268,224,62537,6,0,L|436:164,1,160,2|8,0:0|0:0,0:0:0:0:
468,96,63769,1,0,0:0:0:0:
396,44,64180,2,0,P|340:40|316:48,1,80,2|0,0:0|0:0,0:0:0:0:
248,100,65002,2,0,P|209:109|169:103,2,80,8|0|2,0:0|0:0|0:0,0:0:0:0:
404,20,66646,5,8,0:0:0:0:
484,52,67057,1,0,0:0:0:0:
432,120,67468,2,0,P|400:172|428:268,1,160,2|8,0:0|0:0,0:0:0:0:
492,320,68701,1,0,0:0:0:0:
416,364,69112,6,0,L|252:344,1,160,2|8,0:0|0:0,0:0:0:0:
172,332,70345,1,0,0:0:0:0:
176,244,70756,2,0,L|340:264,1,160,2|8,0:0|0:0,0:0:0:0:
420,276,71989,1,0,0:0:0:0:
388,192,72400,6,0,P|382:143|392:113,1,80,2|0,0:0|0:0,0:0:0:0:
452,48,73221,1,8,0:0:0:0:
476,132,73632,1,0,0:0:0:0:
484,220,74043,2,0,P|432:284|352:284,2,160,2|8|2,0:0|0:0|0:0,0:0:0:0:
408,176,76098,5,0,0:0:0:0:
340,120,76509,2,0,P|316:76|320:40,1,80,8|0,0:0|0:0,0:0:0:0:
404,60,77331,2,0,L|280:188,1,160,2|8,0:0|0:0,0:0:0:0:
224,228,78564,1,0,0:0:0:0:
148,268,78975,6,0,P|72:264|24:184,1,160,2|8,0:0|0:0,0:0:0:0:
28,112,80208,1,0,0:0:0:0:
104,72,80619,2,0,P|180:76|228:156,1,160,2|8,0:0|0:0,0:0:0:0:
224,228,81852,1,0,0:0:0:0:
280,296,82263,6,0,P|332:308|364:300,2,80,2|0|8,0:0|0:0|0:0,0:0:0:0:
224,228,83495,1,0,0:0:0:0:
176,156,83906,2,0,P|144:196|170:296,2,160,2|8|2,0:0|0:0|0:0,0:0:0:0:
260,124,85961,5,0,0:0:0:0:
244,212,86372,1,8,0:0:0:0:
112,328,87194,2,0,P|60:336|32:328,2,80,2|0|8,0:0|0:0|0:0,0:0:0:0:
72,248,88427,1,0,0:0:0:0:
32,168,88838,6,0,P|64:104|152:68,1,160,2|8,0:0|0:0,0:0:0:0:
220,108,90071,1,0,0:0:0:0:
276,176,90482,2,0,B|356:196|356:196|440:192,2,160,2|8|4,0:0|0:0|0:0,0:0:0:0:
