osu file format v14

[General]
AudioFilename: Eternal hopeOriginal-Composition.mp3
AudioLeadIn: 0
PreviewTime: 3461
Countdown: 0
SampleSet: Normal
StackLeniency: 0.7
Mode: 0
LetterboxInBreaks: 1
WidescreenStoryboard: 1

[Editor]
Bookmarks: 17175,61746,113175,130318,192032
DistanceSpacing: 1
BeatDivisor: 4
GridSize: 4
TimelineZoom: 1

[Metadata]
Title:Eternal Hope (Original Composition)
TitleUnicode:Eternal Hope (Original Composition)
Artist:Clinton Ngan
ArtistUnicode:Clinton Ngan
Creator:MiaoFUuU
Version:Normal
Source:Absolute music
Tags:Eternal Hope Piano
BeatmapID:623985
BeatmapSetID:264161

[Difficulty]
HPDrainRate:4
CircleSize:3
OverallDifficulty:4.5
ApproachRate:5
SliderMultiplier:1
SliderTickRate:1

[Events]
//Background and Video events
0,0,"hope.jpg",0,0
//Break Periods
//Storyboard Layer 0 (Background)
//Storyboard Layer 1 (Fail)
//Storyboard Layer 2 (Pass)
//Storyboard Layer 3 (Foreground)
//Storyboard Sound Samples

[TimingPoints]
3461,428.571428571429,4,1,0,100,1,0
3461,-100,4,1,0,45,0,0
5818,-100,4,1,0,5,0,0
6032,-100,4,1,0,45,0,0
9461,-100,4,1,0,5,0,0
9889,-100,4,1,0,45,0,0
16746,-100,4,1,0,50,0,0
17175,-83.3333333333333,4,1,0,55,0,1
17496,-83.3333333333333,4,1,0,45,0,1
30889,-80,4,1,0,45,0,0
34318,-80,4,1,0,30,0,0
42889,-80,4,1,0,41,0,0
44603,-80,4,1,0,42,0,0
45461,-80,4,1,0,43,0,0
46318,-80,4,1,0,44,0,0
48032,-80,4,1,0,45,0,0
61746,-76.9230769230769,4,1,2,45,0,0
75461,-76.9230769230769,4,1,2,50,0,1
85746,-80,4,1,0,45,0,0
89175,-80,4,1,0,40,0,0
99246,-80,4,1,0,41,0,0
102246,-80,4,1,0,42,0,0
102889,-80,4,1,0,43,0,0
113175,-80,4,1,2,44,0,0
116603,-80,4,1,2,45,0,0
130318,-80,4,1,2,50,0,0
144032,-80,4,1,2,50,0,1
157746,-125,4,1,0,40,0,0
158175,-125,4,1,0,30,0,0
158603,-125,4,1,0,40,0,0
159032,-125,4,1,0,45,0,0
161175,-80,4,1,0,45,0,0
192032,-76.9230769230769,4,1,2,50,0,1
221175,-76.9230769230769,4,1,0,50,0,1
222889,-76.9230769230769,4,1,2,50,0,1
225889,-76.9230769230769,4,1,2,45,0,0
228032,-76.9230769230769,4,1,0,45,0,0
229746,-76.9230769230769,4,1,2,45,0,0
235532,-76.9230769230769,4,1,2,10,0,0
235746,-76.9230769230769,4,1,2,45,0,0
246889,-125,4,1,0,40,0,0
247318,-125,4,1,0,30,0,0
247746,-125,4,1,0,40,0,0
248175,-125,4,1,0,45,0,0

[HitObjects]
192,160,3461,6,0,B|191:195|204:228|204:260,1,100,2|0,0:0|0:0,0:0:0:0:
260,176,4318,2,0,B|233:205|218:243|196:268,1,100
176,352,5175,1,2,0:0:0:0:
376,356,6032,6,0,L|432:324,1,50
452,292,6461,2,0,L|476:236,1,50
476,196,6889,2,0,B|472:128|472:128|452:92,1,100,2|0,0:0|0:0,0:0:0:0:
360,72,7746,6,0,P|336:68|304:68,1,50
260,68,8175,2,0,P|235:67|204:72,1,50
164,56,8603,2,0,P|72:40|60:136,1,200,2|0,0:0|0:0,0:0:0:0:
124,196,9889,6,0,P|136:220|144:244,1,50
136,292,10318,2,0,P|184:276|236:276,1,100,2|0,0:0|0:0,0:0:0:0:
308,340,11175,2,0,P|324:288|324:236,1,100
320,144,12032,1,2,0:0:0:0:
468,148,12675,5,0,0:0:0:0:
468,148,12889,2,0,P|440:164|404:172,1,50
376,184,13318,2,0,P|352:192|324:196,1,50
280,204,13746,2,0,P|228:208|180:200,1,100,2|0,0:0|0:0,0:0:0:0:
112,128,14603,2,0,L|68:228,1,100
20,132,15461,1,2,0:0:0:0:
256,192,15675,12,2,17175,0:0:0:0:
184,264,17603,5,0,0:0:0:0:
304,272,18032,2,0,P|340:236|408:240,2,119.999996337891,0|0|2,0:0|0:0|0:0,0:0:0:0:
388,360,19318,1,0,0:0:0:0:
406,238,19746,6,0,P|408:204|408:172,1,59.9999981689454
372,128,20175,2,0,P|368:92|364:64,1,59.9999981689454
336,16,20603,2,0,P|280:40|216:48,1,119.999996337891,2|0,0:0|0:0,0:0:0:0:
140,136,21461,2,0,L|124:200,1,59.9999981689454
172,232,21889,2,0,L|244:248,2,59.9999981689454,0|0|2,0:0|0:0|0:0,0:0:0:0:
56,208,22746,6,0,P|32:180|24:152,2,59.9999981689454,0|0|0,0:0|0:0|0:0,0:0:0:0:
172,232,23603,6,0,L|244:228,1,59.9999981689454
292,232,24032,2,0,P|348:244|396:284,1,119.999996337891,2|0,0:0|0:0,0:0:0:0:
476,196,24889,2,0,P|424:156|404:100,1,119.999996337891
460,0,25746,1,2,0:0:0:0:
288,48,26389,5,0,0:0:0:0:
288,48,26603,2,0,L|224:48,1,59.9999981689454
168,60,27032,2,0,L|104:88,1,59.9999981689454
68,124,27461,2,0,L|48:252,1,119.999996337891,2|0,0:0|0:0,0:0:0:0:
152,180,28318,2,0,L|260:256,1,119.999996337891
352,312,29175,1,2,0:0:0:0:
444,152,29818,5,0,0:0:0:0:
444,152,30032,2,0,P|420:128|392:112,1,59.9999981689454
348,148,30461,2,0,P|320:132|288:124,1,59.9999981689454
244,164,30889,6,0,P|212:160|184:144,1,62.5,2|0,0:0|0:0,0:0:0:0:
132,176,31318,2,0,P|108:156|96:124,1,62.5,2|0,0:0|0:0,0:0:0:0:
36,136,31746,2,0,P|20:116|12:80,1,62.5,2|0,0:0|0:0,0:0:0:0:
8,16,32175,1,2,0:0:0:0:
120,72,32603,6,0,P|180:88|244:88,1,125,2|0,0:0|0:0,0:0:0:0:
368,88,33461,2,0,P|336:144|328:204,1,125,2|2,0:0|0:0,0:0:0:0:
324,264,34103,2,0,L|320:344,1,62.5,2|0,0:0|0:0,0:0:0:0:
224,384,34746,5,0,0:0:0:0:
156,284,35175,2,0,P|92:272|32:267,1,125
120,180,36032,2,0,P|124:116|116:48,2,125,0|0|0,0:0|0:0|0:0,0:0:0:0:
44,80,37318,6,0,L|72:8,1,62.5
116,56,37746,2,0,P|172:68|240:68,1,125
360,20,38603,5,0,0:0:0:0:
432,120,39032,1,0,0:0:0:0:
332,192,39461,6,0,P|384:228|452:208,2,125,0|0|0,0:0|0:0|0:0,0:0:0:0:
216,169,40746,6,0,L|216:232,1,62.5
160,200,41175,2,0,P|100:200|84:144,1,125
192,80,42032,2,0,P|256:72|320:80,1,125
432,120,42889,5,0,0:0:0:0:
384,236,43318,2,0,L|404:288,2,31.25,0|0|0,0:0|0:0|0:0,0:0:0:0:
384,236,43746,2,0,P|340:224|344:284,1,125
432,372,44603,6,0,L|368:360|308:376,1,125
204,308,45461,2,0,B|140:320|140:320|76:304,1,125
20,196,46318,5,0,0:0:0:0:
132,140,46746,2,0,L|197:110,1,62.5
252,116,47175,2,0,P|264:176|256:240,1,125
368,180,48032,6,0,B|388:160|428:172|464:152|488:168,1,125
440,280,48889,5,0,0:0:0:0:
368,180,49318,1,0,0:0:0:0:
424,68,49746,1,0,0:0:0:0:
308,24,50175,2,0,B|256:32|256:32|244:24|244:24|232:32|232:32|180:28,1,125
120,132,51032,6,0,P|156:128|188:128,1,62.5
244,132,51461,2,0,B|296:152|296:152|268:164|248:176|264:176|220:200,1,125
348,252,52318,6,0,B|360:220|372:252|404:252|412:268|420:252|464:252,1,125
400,360,53175,5,0,0:0:0:0:
280,332,53603,1,0,0:0:0:0:
164,376,54032,1,0,0:0:0:0:
68,296,54461,6,0,P|72:264|88:232,1,62.5
140,268,54889,2,0,B|156:280|212:244|196:276|172:248|228:268|260:236,1,125
296,120,55746,6,0,B|256:124|224:108|192:108|192:76|224:108|192:136,1,125
259,238,56603,5,0,0:0:0:0:
140,276,57032,2,0,L|95:258,2,31.25,0|0|0,0:0|0:0|0:0,0:0:0:0:
140,276,57461,2,0,B|73:259|126:232|157:218|166:183|166:183,1,125
152,64,58318,6,0,B|96:64|96:64|92:72|92:72|88:64|88:64|28:64,1,125
164,64,59175,6,0,B|215:64|215:64|219:56|219:56|223:64|223:64|279:64,1,125
404,64,60032,5,0,0:0:0:0:
308,148,60461,2,0,P|324:176|348:196,1,62.5
288,216,60889,2,0,B|240:232|240:232|200:224|200:224|160:236,1,125
56,164,61746,6,0,P|12:280|104:360,1,259.999988098145,2|8,0:0|0:0,0:0:0:0:
196,272,63032,2,0,P|252:244|320:256,1,129.999994049073,0|2,0:0|0:0,0:0:0:0:
372,292,63675,1,0,0:0:0:0:
420,248,63889,2,0,P|432:212|428:176,2,64.9999970245363,2|0|8,0:0|0:0|0:0,0:0:0:0:
424,116,64746,6,0,P|420:76|408:44,1,64.9999970245363
356,88,65175,2,0,B|220:104|144:80|132:32|176:-4|228:16|228:64|176:64|188:40|188:40,1,259.999988098145,2|8,0:0|0:0,0:0:0:0:
168,172,66461,2,0,P|168:240|172:308,1,129.999994049073,0|2,0:0|0:0,0:0:0:0:
116,336,67103,1,0,0:0:0:0:
164,376,67318,2,0,P|196:376|236:372,2,64.9999970245363,2|0|8,0:0|0:0|0:0,0:0:0:0:
264,292,68175,6,0,P|300:288|332:288,1,64.9999970245363
392,280,68603,2,0,B|444:264|464:228|464:180|464:180|432:160|432:160|424:132|392:112|360:120,1,259.999988098145,2|8,0:0|0:0,0:0:0:0:
240,172,69889,2,0,P|176:160|164:100,2,129.999994049073,0|2|2,0:0|0:0|0:0,0:0:0:0:
364,212,71175,2,0,B|316:212|276:232|248:268,1,129.999994049073,8|0,0:0|0:0,0:0:0:0:
152,352,72032,6,0,B|108:280|108:192|180:192|180:280|36:280|8:224,1,259.999988098145,2|8,0:0|0:0,0:0:0:0:
100,136,73318,2,0,P|104:68|68:16,2,129.999994049073,0|2|2,0:0|0:0|0:0,0:0:0:0:
212,68,74603,2,0,L|304:56,1,64.9999970245363,8|0,0:0|0:0,0:0:0:0:
340,52,75032,1,0,0:0:0:0:
404,164,75461,6,0,P|340:184|280:152,1,129.999994049073,4|2,0:0|0:0,0:0:0:0:
396,88,76318,2,0,P|456:108|480:172,1,129.999994049073,2|8,0:0|0:0,0:0:0:0:
384,256,77175,2,0,P|364:320|396:372,2,129.999994049073,0|8|2,0:0|0:0|0:0,0:0:0:0:
264,308,78461,6,0,L|192:328,1,64.9999970245363,8|2,0:0|0:0,0:0:0:0:
152,284,78889,2,0,L|12:268,1,129.999994049073,2|8,0:0|0:0,0:0:0:0:
124,188,79746,2,0,L|284:172,1,129.999994049073,2|8,0:0|0:0,0:0:0:0:
140,112,80603,2,0,P|76:128|48:184,2,129.999994049073,0|8|2,0:0|0:0|0:0,0:0:0:0:
268,104,81889,6,0,P|300:100|332:88,1,64.9999970245363,8|2,0:0|0:0,0:0:0:0:
396,76,82318,2,0,P|392:140|420:200,1,129.999994049073,2|8,0:0|0:0,0:0:0:0:
300,148,83175,2,0,P|240:128|172:132,1,129.999994049073,2|8,0:0|0:0,0:0:0:0:
180,260,84032,2,0,P|248:256|316:224,2,129.999994049073,0|8|2,0:0|0:0|0:0,0:0:0:0:
72,188,85318,1,8,0:0:0:0:
72,312,85746,5,0,0:0:0:0:
144,212,86175,1,0,0:0:0:0:
24,252,86603,1,0,0:0:0:0:
144,292,87032,1,0,0:0:0:0:
72,188,87461,1,0,0:0:0:0:
72,312,87889,6,0,L|56:384,1,62.5
58,373,88318,1,0,0:0:0:0:
268,376,88746,6,0,P|296:356|320:336,1,62.5
364,296,89175,2,0,L|312:240,1,62.5
312,188,89603,2,0,L|248:148,1,62.5
220,104,90032,2,0,L|148:92,1,62.5
100,76,90461,2,0,L|32:84,1,62.5
8,136,90889,2,0,L|8:188,2,31.25,2|2|2,0:0|0:0|0:0,0:0:0:0:
296,44,92175,6,0,P|328:40|360:44,1,62.5
388,100,92603,2,0,P|389:131|377:159,1,62.5
324,128,93032,2,0,P|308:156|308:188,1,62.5
360,220,93461,2,0,P|360:260|344:288,1,62.5
292,256,93889,2,0,P|280:288|280:320,1,62.5
336,340,94318,2,0,L|392:364,2,31.25,2|2|2,0:0|0:0|0:0,0:0:0:0:
176,268,95389,6,0,L|176:352,2,62.5,0|0|0,0:0|0:0|0:0,0:0:0:0:
176,204,96032,2,0,L|176:136,1,62.5
220,96,96461,2,0,L|296:96,1,62.5
324,140,96889,2,0,L|324:212,1,62.5
288,252,97318,2,0,L|225:252,1,62.5
164,252,97746,2,0,L|164:283,2,31.25,2|2|2,0:0|0:0|0:0,0:0:0:0:
164,128,99246,5,0,0:0:0:0:
164,128,99461,2,0,P|196:124|228:116,1,62.5
284,92,99889,2,0,P|312:80|344:56,1,62.5,0|0,0:0|0:0,0:0:0:0:
392,28,100318,2,0,P|456:28|476:80,1,125
444,132,100961,1,0,0:0:0:0:
456,192,101175,2,0,L|480:244,2,31.25,2|2|2,0:0|0:0|0:0,0:0:0:0:
184,304,102246,6,0,P|148:312|116:328,2,62.5,0|0|0,0:0|0:0|0:0,0:0:0:0:
216,248,102889,2,0,P|184:228|152:220,1,62.5
136,164,103318,2,0,P|104:176|76:200,1,62.5
20,180,103746,2,0,P|12:216|20:252,1,62.5
0,304,104175,2,0,P|20:328|52:336,1,62.5
108,352,104603,2,0,L|104:396,2,31.25,2|2|2,0:0|0:0|0:0,0:0:0:0:
84,40,105889,6,0,L|148:68,1,62.5
200,88,106318,2,0,L|208:160,1,62.5
212,212,106746,2,0,L|280:244,1,62.5
324,268,107175,2,0,L|332:352,1,62.5
392,332,107603,2,0,L|396:260,1,62.5
400,208,108032,2,0,L|402:176,2,31.25,2|2|2,0:0|0:0|0:0,0:0:0:0:
254,98,109103,6,0,P|252:68|256:36,2,62.5,0|0|0,0:0|0:0|0:0,0:0:0:0:
196,124,109746,2,0,P|168:136|144:164,1,62.5
120,216,110175,2,0,P|144:236|180:244,1,62.5
236,240,110603,2,0,P|236:208|224:176,1,62.5
196,124,111032,2,0,L|144:64|144:64,1,62.5
104,40,111461,2,0,L|68:32,2,31.25,2|2|2,0:0|0:0|0:0,0:0:0:0:
372,92,112961,5,0,0:0:0:0:
372,92,113175,2,0,B|308:80|368:116|304:104|260:132|264:60|240:128|244:60|220:56|196:88|152:88|136:108|184:148|184:148,1,250,2|8,0:0|0:0,0:0:0:0:
252,224,114461,1,0,0:0:0:0:
132,260,114889,2,0,B|92:260|92:260|48:272|48:272|8:272,2,125,2|2|8,0:0|0:0|0:0,0:0:0:0:
140,324,115961,6,0,L|120:388,2,62.5,0|0|0,0:0|0:0|0:0,0:0:0:0:
196,356,116603,6,0,B|252:384|252:384|316:384|316:384|372:364|372:364|412:312|412:312,1,250,2|8,0:0|0:0,0:0:0:0:
376,200,117889,1,0,0:0:0:0:
420,84,118318,2,0,B|452:60|484:72|500:104|484:128|512:136,2,125,2|2|8,0:0|0:0|0:0,0:0:0:0:
308,140,119603,6,0,P|276:148|244:152,1,62.5
196,116,120032,2,0,B|148:112|108:132|84:168|88:212|112:248|152:260|196:256,1,250,2|8,0:0|0:0,0:0:0:0:
304,232,121318,1,0,0:0:0:0:
392,144,121746,2,0,B|416:92|416:92|416:24,2,125,2|2|8,0:0|0:0|0:0,0:0:0:0:
432,192,122818,6,0,L|512:192,2,62.5,0|0|0,0:0|0:0|0:0,0:0:0:0:
400,248,123461,6,0,P|284:284|200:200,1,250,2|8,0:0|0:0,0:0:0:0:
152,88,124746,1,0,0:0:0:0:
120,208,125175,2,0,B|108:236|120:264|132:288|144:312|132:340,2,125,2|2|8,0:0|0:0|0:0,0:0:0:0:
216,48,126675,5,0,0:0:0:0:
216,48,126889,2,0,P|288:112|260:16,1,250,2|8,0:0|0:0,0:0:0:0:
148,4,128175,1,0,0:0:0:0:
56,88,128603,2,0,P|40:152|48:212,2,125,2|2|8,0:0|0:0|0:0,0:0:0:0:
116,68,129675,6,0,P|152:68|188:76,2,62.5,0|0|0,0:0|0:0|0:0,0:0:0:0:
112,132,130318,6,0,B|144:160|196:152|220:200,1,125,4|8,0:0|0:0,0:0:0:0:
228,256,130961,1,2,0:0:0:0:
260,308,131175,2,0,P|296:356|356:344,1,125,2|8,0:0|0:0,0:0:0:0:
404,308,131818,1,2,0:0:0:0:
416,256,132032,2,0,L|416:180,1,62.5,0|2,0:0|0:0,0:0:0:0:
408,132,132461,2,0,P|392:60|416:4,1,125,8|2,0:0|0:0,0:0:0:0:
296,68,133318,6,0,L|224:72,1,62.5,8|2,0:0|0:0,0:0:0:0:
184,112,133746,2,0,L|56:120,1,125,2|8,0:0|0:0,0:0:0:0:
24,172,134389,1,2,0:0:0:0:
76,208,134603,2,0,P|112:252|116:320,1,125,2|8,0:0|0:0,0:0:0:0:
92,376,135246,1,2,0:0:0:0:
156,372,135461,2,0,L|244:372,1,62.5,0|2,0:0|0:0,0:0:0:0:
280,376,135889,2,0,P|340:376|368:320,1,125,8|2,0:0|0:0,0:0:0:0:
332,272,136532,6,0,L|248:280,2,62.5,0|8|2,0:0|0:0|0:0,0:0:0:0:
372,224,137175,6,0,B|416:216|416:216|449:188|449:188|496:180,1,125,2|8,0:0|0:0,0:0:0:0:
488,120,137818,1,2,0:0:0:0:
488,56,138032,2,0,B|455:39|455:39|411:39|411:39|372:18,1,125,2|8,0:0|0:0,0:0:0:0:
308,16,138675,1,2,0:0:0:0:
244,20,138889,2,0,P|204:28|172:48,1,62.5,0|2,0:0|0:0,0:0:0:0:
144,84,139318,2,0,P|124:144|144:200,1,125,8|2,0:0|0:0,0:0:0:0:
40,268,140175,6,0,P|20:236|12:208,1,62.5,8|2,0:0|0:0,0:0:0:0:
4,152,140603,2,0,P|8:88|40:32,1,125,2|8,0:0|0:0,0:0:0:0:
96,16,141246,1,2,0:0:0:0:
144,60,141461,2,0,B|208:60|208:60|216:72|216:72|224:60|224:60|272:60,1,125,2|8,0:0|0:0,0:0:0:0:
320,64,142103,1,2,0:0:0:0:
384,64,142318,2,0,P|396:100|400:136,1,62.5,0|2,0:0|0:0,0:0:0:0:
404,188,142746,2,0,B|388:240|408:288|396:340,1,125,8|2,0:0|0:0,0:0:0:0:
424,368,143389,6,0,L|504:376,2,62.5,0|8|2,0:0|0:0|0:0,0:0:0:0:
368,344,144032,6,0,L|300:336,1,62.5,2|0,0:0|0:0,0:0:0:0:
248,316,144461,2,0,L|156:320,1,62.5,8|2,0:0|0:0,0:0:0:0:
128,340,144889,2,0,L|52:340,1,62.5,2|0,0:0|0:0,0:0:0:0:
4,324,145318,2,0,L|12:240,1,62.5,8|2,0:0|0:0,0:0:0:0:
36,204,145746,2,0,L|120:212,1,62.5,0|2,0:0|0:0,0:0:0:0:
160,224,146175,2,0,L|308:200,1,125,8|0,0:0|0:0,0:0:0:0:
404,176,147032,6,0,P|404:140|396:104,1,62.5,8|2,0:0|0:0,0:0:0:0:
376,56,147461,2,0,P|348:36|312:24,1,62.5,2|0,0:0|0:0,0:0:0:0:
260,24,147889,2,0,P|224:24|188:32,1,62.5,8|2,0:0|0:0,0:0:0:0:
136,36,148318,2,0,P|104:40|68:36,1,62.5,2|0,0:0|0:0,0:0:0:0:
28,80,148746,2,0,P|28:112|40:144,1,62.5,8|2,0:0|0:0,0:0:0:0:
84,184,149175,2,0,P|92:224|88:264,1,62.5,0|2,0:0|0:0,0:0:0:0:
152,224,149603,2,0,P|216:212|276:232,1,125,8|2,0:0|0:0,0:0:0:0:
300,288,150246,6,0,L|288:364,2,62.5,0|8|2,0:0|0:0|0:0,0:0:0:0:
352,256,150889,6,0,P|388:248|424:256,1,62.5,2|0,0:0|0:0,0:0:0:0:
472,232,151318,2,0,L|492:160,1,62.5,8|2,0:0|0:0,0:0:0:0:
480,108,151746,2,0,L|440:36,1,62.5,2|0,0:0|0:0,0:0:0:0:
396,20,152175,2,0,L|304:12,1,62.5,8|2,0:0|0:0,0:0:0:0:
288,56,152603,2,0,L|208:52,1,62.5,0|2,0:0|0:0,0:0:0:0:
176,92,153032,2,0,L|32:88,1,125,8|2,0:0|0:0,0:0:0:0:
144,176,153889,6,0,L|172:248,1,62.5,8|2,0:0|0:0,0:0:0:0:
104,240,154318,2,0,L|132:316,1,62.5,2|0,0:0|0:0,0:0:0:0:
64,304,154746,2,0,L|92:376,1,62.5,8|2,0:0|0:0,0:0:0:0:
148,384,155175,2,0,P|180:384|212:380,1,62.5,2|0,0:0|0:0,0:0:0:0:
272,368,155603,2,0,P|304:364|340:368,1,62.5,8|2,0:0|0:0,0:0:0:0:
396,368,156032,2,0,P|424:344|440:312,1,62.5,0|2,0:0|0:0,0:0:0:0:
496,304,156461,2,0,P|500:240|480:180,1,125,8|2,0:0|0:0,0:0:0:0:
436,140,157103,2,0,P|440:104|460:76,2,62.5,0|8|2,0:0|0:0|0:0,0:0:0:0:
256,192,157746,12,2,161175,0:0:0:0:
256,152,161603,5,0,0:0:0:0:
132,136,162032,2,0,B|88:136|88:136|44:120|44:120|0:120,2,125,0|0|2,0:0|0:0|0:0,0:0:0:0:
376,180,163746,6,0,L|352:260,1,62.5
300,260,164175,2,0,L|304:336,1,62.5
248,348,164603,2,0,P|184:340|116:352,1,125,2|0,0:0|0:0,0:0:0:0:
112,224,165461,6,0,P|112:184|120:148,1,62.5
168,128,165889,2,0,P|184:96|208:72,1,62.5
264,60,166318,2,0,P|376:76|352:184,1,250,2|0,0:0|0:0,0:0:0:0:
236,228,167603,6,0,P|200:228|168:232,1,62.5
136,280,168032,2,0,P|144:312|160:340,1,62.5,2|0,0:0|0:0,0:0:0:0:
216,360,168461,2,0,L|308:360,1,62.5
336,336,168889,2,0,L|420:336,1,62.5
460,352,169318,2,0,L|468:264,1,62.5
488,232,169746,1,2,0:0:0:0:
304,208,170389,5,0,0:0:0:0:
304,208,170603,2,0,P|272:224|236:228,1,62.5
188,204,171032,2,0,P|152:208|120:224,1,62.5
68,236,171461,2,0,P|56:200|52:168,1,62.5,2|0,0:0|0:0,0:0:0:0:
0,144,171889,2,0,P|0:108|8:76,1,62.5
48,36,172318,2,0,L|136:48,1,62.5
172,44,172746,2,0,L|256:28,1,62.5
296,20,173175,1,2,0:0:0:0:
452,152,173818,5,0,0:0:0:0:
452,152,174032,2,0,P|420:140|384:128,1,62.5
332,132,174461,2,0,P|296:132|264:140,1,62.5
216,172,174889,6,0,B|172:172|172:172|128:200|128:200|84:200,1,125,2|0,0:0|0:0,0:0:0:0:
20,104,175746,2,0,B|80:84|116:84|124:116|112:136|80:136|76:104|96:100|108:112|108:124,1,125
212,64,176603,1,2,0:0:0:0:
320,144,177461,6,0,P|324:184|316:220,1,62.5
292,264,177889,2,0,P|288:296|292:332,1,62.5
340,364,178318,2,0,P|280:364|212:360,1,125,2|0,0:0|0:0,0:0:0:0:
100,308,179175,6,0,P|92:272|88:236,1,62.5
120,192,179603,2,0,P|116:160|104:132,1,62.5
56,92,180032,2,0,P|160:36|256:112,1,250,2|0,0:0|0:0,0:0:0:0:
304,224,181318,6,0,P|320:260|340:280,1,62.5
396,284,181746,2,0,L|464:284,1,62.5,2|0,0:0|0:0,0:0:0:0:
488,228,182175,2,0,L|488:164,1,62.5
488,104,182603,2,0,L|488:32,1,62.5
428,60,183032,2,0,L|352:60,1,62.5
304,60,183461,1,2,0:0:0:0:
152,168,184103,5,0,0:0:0:0:
152,168,184318,2,0,P|144:200|140:240,1,62.5
108,284,184746,2,0,L|108:352,1,62.5
172,348,185175,2,0,P|204:332|236:328,1,62.5,2|0,0:0|0:0,0:0:0:0:
272,280,185603,2,0,P|308:288|336:308,1,62.5
380,340,186032,2,0,P|412:328|436:296,1,62.5
484,272,186461,2,0,P|476:240|456:212,1,62.5
408,180,186889,6,0,P|376:128|416:88,2,125,2|0|0,0:0|0:0|0:0,0:0:0:0:
164,124,188603,1,2,0:0:0:0:
276,64,189032,1,0,0:0:0:0:
164,12,189461,1,0,0:0:0:0:
232,116,189889,1,0,0:0:0:0:
348,72,190318,1,2,0:0:0:0:
212,228,192032,6,0,P|148:204|88:172,1,129.999994049073,2|8,0:0|0:0,0:0:0:0:
4,84,192889,2,0,P|0:152|4:220,1,129.999994049073,2|8,0:0|0:0,0:0:0:0:
104,300,193746,2,0,P|136:308|168:324,2,64.9999970245363,0|2|8,0:0|0:0|0:0,0:0:0:0:
212,228,194603,6,0,P|244:216|276:212,1,64.9999970245363,2|0,0:0|0:0,0:0:0:0:
336,228,195032,2,0,P|368:228|400:220,1,64.9999970245363,8|2,0:0|0:0,0:0:0:0:
460,192,195461,2,0,P|484:128|456:60,1,129.999994049073,2|8,0:0|0:0,0:0:0:0:
340,40,196318,6,0,L|264:36,1,64.9999970245363,2|0,0:0|0:0,0:0:0:0:
220,72,196746,2,0,L|136:68,1,64.9999970245363,8|2,0:0|0:0,0:0:0:0:
132,8,197175,2,0,P|105:68|113:132,2,129.999994049073,0|8|2,0:0|0:0|0:0,0:0:0:0:
196,120,198461,6,0,P|204:156|192:192,1,64.9999970245363,8|2,0:0|0:0,0:0:0:0:
136,204,198889,2,0,P|192:232|260:212,1,129.999994049073,2|8,0:0|0:0,0:0:0:0:
360,136,199746,2,0,P|388:192|380:264,1,129.999994049073,2|8,0:0|0:0,0:0:0:0:
264,316,200603,2,0,P|256:352|260:388,2,64.9999970245363,0|2|8,0:0|0:0|0:0,0:0:0:0:
184,212,201461,6,0,L|108:200,1,64.9999970245363,2|0,0:0|0:0,0:0:0:0:
104,264,201889,2,0,L|184:276,1,64.9999970245363,8|2,0:0|0:0,0:0:0:0:
160,340,202318,2,0,L|16:320,1,129.999994049073,2|8,0:0|0:0,0:0:0:0:
48,192,203175,2,0,L|68:40,1,129.999994049073,2|8,0:0|0:0,0:0:0:0:
64,63,204032,1,0,0:0:0:0:
244,132,204675,5,2,0:0:0:0:
244,132,204889,2,0,L|332:100,1,64.9999970245363,2|0,0:0|0:0,0:0:0:0:
372,116,205318,2,0,L|440:120,1,64.9999970245363,8|2,0:0|0:0,0:0:0:0:
484,168,205746,6,0,P|480:96|472:28,1,129.999994049073,4|8,0:0|0:0,0:0:0:0:
348,8,206603,2,0,P|280:8|212:12,1,129.999994049073,2|8,0:0|0:0,0:0:0:0:
108,84,207461,2,0,P|72:88|36:88,2,64.9999970245363,0|2|8,0:0|0:0|0:0,0:0:0:0:
220,148,208318,6,0,P|228:184|228:216,1,64.9999970245363,2|0,0:0|0:0,0:0:0:0:
272,260,208746,2,0,P|308:264|340:260,1,64.9999970245363,8|2,0:0|0:0,0:0:0:0:
392,236,209175,2,0,P|456:244|492:296,1,129.999994049073,2|8,0:0|0:0,0:0:0:0:
376,352,210032,6,0,L|304:348,1,64.9999970245363,2|0,0:0|0:0,0:0:0:0:
248,364,210461,2,0,L|176:368,1,64.9999970245363,8|2,0:0|0:0,0:0:0:0:
120,372,210889,2,0,L|192:252,1,129.999994049073,0|8,0:0|0:0,0:0:0:0:
92,172,211746,6,0,P|92:204|100:236,1,64.9999970245363,2|0,0:0|0:0,0:0:0:0:
152,196,212175,2,0,P|168:164|176:124,1,64.9999970245363,8|2,0:0|0:0,0:0:0:0:
132,88,212603,2,0,B|156:88|156:88|252:76|252:76|276:76,1,129.999994049073,2|8,0:0|0:0,0:0:0:0:
392,68,213461,1,2,0:0:0:0:
288,152,213889,1,8,0:0:0:0:
332,276,214318,2,0,L|332:364,2,64.9999970245363,0|2|8,0:0|0:0|0:0,0:0:0:0:
460,260,215175,6,0,L|460:192,1,64.9999970245363,2|0,0:0|0:0,0:0:0:0:
396,196,215603,2,0,L|380:120,1,64.9999970245363,8|2,0:0|0:0,0:0:0:0:
316,136,216032,2,0,L|248:24,1,129.999994049073,2|8,0:0|0:0,0:0:0:0:
136,88,216889,2,0,P|120:148|176:164,1,129.999994049073,2|8,0:0|0:0,0:0:0:0:
44,172,217746,1,0,0:0:0:0:
52,368,218389,5,2,0:0:0:0:
52,368,218603,2,0,P|88:376|136:380,1,64.9999970245363,2|0,0:0|0:0,0:0:0:0:
180,384,219032,2,0,P|216:384|260:376,1,64.9999970245363,8|2,0:0|0:0,0:0:0:0:
308,376,219461,6,0,P|368:364|416:316,1,129.999994049073,2|8,0:0|0:0,0:0:0:0:
452,192,220318,2,0,P|452:124|424:64,1,129.999994049073,2|8,0:0|0:0,0:0:0:0:
312,8,221175,6,0,P|276:0|236:0,1,64.9999970245363,2|0,0:0|0:0,0:0:0:0:
184,4,221603,2,0,P|144:8|112:20,1,64.9999970245363,2|0,0:0|0:0,0:0:0:0:
64,48,222032,2,0,P|40:72|28:100,1,64.9999970245363,2|0,0:0|0:0,0:0:0:0:
8,160,222461,2,0,P|4:200|8:232,1,64.9999970245363,2|0,0:0|0:0,0:0:0:0:
64,196,222889,6,0,L|212:196,1,129.999994049073,2|8,0:0|0:0,0:0:0:0:
324,200,223746,6,0,L|268:252,1,64.9999970245363,2|0,0:0|0:0,0:0:0:0:
332,280,224175,2,0,L|284:324,1,64.9999970245363,8|2,0:0|0:0,0:0:0:0:
228,356,224603,2,0,P|164:356|100:368,2,129.999994049073,0|8|2,0:0|0:0|0:0,0:0:0:0:
356,368,225889,6,0,P|392:372|424:380,1,64.9999970245363,8|2,0:0|0:0,0:0:0:0:
484,384,226318,2,0,L|480:244,1,129.999994049073,2|0,0:0|0:0,0:0:0:0:
472,124,227175,2,0,L|368:212,1,129.999994049073,8|0,0:0|0:0,0:0:0:0:
244,212,228032,6,0,P|208:204|180:188,1,64.9999970245363,2|0,0:0|0:0,0:0:0:0:
124,216,228461,2,0,P|96:196|80:168,1,64.9999970245363,2|0,0:0|0:0,0:0:0:0:
16,156,228889,2,0,P|20:120|32:88,1,64.9999970245363,2|0,0:0|0:0,0:0:0:0:
8,32,229318,2,0,P|40:12|80:4,1,64.9999970245363,2|0,0:0|0:0,0:0:0:0:
120,44,229746,6,0,P|184:48|252:20,1,129.999994049073,2|0,0:0|0:0,0:0:0:0:
360,84,230603,2,0,P|304:120|240:128,1,129.999994049073,8|0,0:0|0:0,0:0:0:0:
242,128,231461,1,2,0:0:0:0:
48,140,232103,5,0,0:0:0:0:
48,140,232318,2,0,L|36:224,1,64.9999970245363,8|0,0:0|0:0,0:0:0:0:
100,228,232746,2,0,L|104:296,1,64.9999970245363
48,328,233175,6,0,L|184:320,1,129.999994049073
304,348,234032,2,0,L|464:336,1,129.999994049073
433,338,234889,1,0,0:0:0:0:
468,192,235746,6,0,P|472:156|468:120,1,64.9999970245363
416,92,236175,2,0,P|412:60|416:28,1,64.9999970245363
476,4,236603,2,0,P|408:16|344:8,1,129.999994049073
264,108,237461,6,0,L|192:116,1,64.9999970245363
156,64,237889,2,0,L|72:72,1,64.9999970245363
48,24,238318,2,0,L|56:172,1,129.999994049073
164,224,239175,6,0,P|200:228|240:224,1,64.9999970245363
280,188,239603,2,0,P|312:176|348:172,1,64.9999970245363
396,136,240032,2,0,P|460:144|516:188,1,129.999994049073
400,252,240889,2,0,P|400:324|372:376,1,129.999994049073
373,374,241746,1,0,0:0:0:0:
264,280,242603,6,0,L|200:272,1,64.9999970245363
156,320,243032,2,0,L|108:264,1,64.9999970245363
48,272,243461,2,0,L|64:128,1,129.999994049073
172,72,244318,2,0,P|240:68|312:72,1,129.999994049073
432,88,245175,1,0,0:0:0:0:
312,244,245818,5,0,0:0:0:0:
312,244,246032,2,0,P|280:264|252:272,1,64.9999970245363
192,288,246461,2,0,P|156:296|128:312,1,64.9999970245363
256,192,246889,12,0,250318,0:0:0:0:
