osu file format v14

[General]
AudioFilename: Eternal hopeOriginal-Composition.mp3
AudioLeadIn: 0
PreviewTime: 3461
Countdown: 0
SampleSet: Normal
StackLeniency: 0.7
Mode: 0
LetterboxInBreaks: 1
WidescreenStoryboard: 0

[Editor]
Bookmarks: 17175,61746,130318,192032
DistanceSpacing: 1.2
BeatDivisor: 4
GridSize: 4
TimelineZoom: 1

[Metadata]
Title:Eternal Hope (Original Composition)
TitleUnicode:Eternal Hope (Original Composition)
Artist:Clinton Ngan
ArtistUnicode:Clinton Ngan
Creator:MiaoFUuU
Version:Insane
Source:Absolute music
Tags:Eternal Hope Piano
BeatmapID:602277
BeatmapSetID:264161

[Difficulty]
HPDrainRate:6
CircleSize:4
OverallDifficulty:6
ApproachRate:8
SliderMultiplier:1.4
SliderTickRate:1

[Events]
//Background and Video events
0,0,"hope.jpg",0,0
//Break Periods
//Storyboard Layer 0 (Background)
//Storyboard Layer 1 (Fail)
//Storyboard Layer 2 (Pass)
//Storyboard Layer 3 (Foreground)
//Storyboard Sound Samples

[TimingPoints]
3461,428.571428571429,4,1,0,100,1,0
3461,-100,4,1,0,45,0,0
5818,-100,4,1,0,5,0,0
6032,-100,4,1,0,45,0,0
9461,-100,4,1,0,5,0,0
9889,-100,4,1,0,45,0,0
16746,-100,4,1,0,50,0,0
17175,-83.3333333333333,4,1,0,55,0,1
17496,-83.3333333333333,4,1,0,45,0,1
30889,-80,4,1,0,45,0,0
34318,-80,4,1,0,30,0,0
42889,-80,4,1,0,41,0,0
44603,-80,4,1,0,42,0,0
45461,-80,4,1,0,43,0,0
46318,-80,4,1,0,44,0,0
48032,-80,4,1,0,45,0,0
61746,-76.9230769230769,4,1,2,45,0,0
75461,-76.9230769230769,4,1,2,50,0,1
85746,-80,4,1,0,45,0,0
89175,-80,4,1,0,40,0,0
99246,-80,4,1,0,41,0,0
102246,-80,4,1,0,42,0,0
102889,-80,4,1,0,43,0,0
113175,-80,4,1,2,44,0,0
116603,-80,4,1,2,45,0,0
130318,-80,4,1,2,50,0,1
144032,-80,4,1,2,50,0,1
157746,-125,4,1,0,40,0,0
158175,-125,4,1,0,30,0,0
158603,-125,4,1,0,40,0,0
159032,-125,4,1,0,45,0,0
161175,-80,4,1,0,45,0,0
192032,-76.9230769230769,4,1,2,50,0,1
221175,-76.9230769230769,4,1,0,50,0,1
222889,-76.9230769230769,4,1,2,50,0,1
225889,-76.9230769230769,4,1,2,45,0,0
228032,-76.9230769230769,4,1,0,45,0,0
229746,-76.9230769230769,4,1,2,45,0,0
246889,-125,4,1,0,40,0,0
247318,-125,4,1,0,30,0,0
247746,-125,4,1,0,40,0,0
248175,-125,4,1,0,45,0,0

[HitObjects]
180,96,3461,5,2,0:0:0:0:
188,116,3889,1,0,0:0:0:0:
196,136,4318,1,0,0:0:0:0:
204,156,4746,1,0,0:0:0:0:
364,172,5175,6,0,P|464:164|508:256,1,210,2|0,0:0|0:0,0:0:0:0:
384,328,6032,5,0,0:0:0:0:
300,304,6246,1,0,0:0:0:0:
224,260,6461,1,0,0:0:0:0:
176,192,6675,1,0,0:0:0:0:
144,116,6889,5,2,0:0:0:0:
144,104,7318,5,0,0:0:0:0:
144,88,7746,5,0,0:0:0:0:
120,168,7961,1,0,0:0:0:0:
88,248,8175,1,0,0:0:0:0:
40,316,8389,1,0,0:0:0:0:
192,216,8603,6,0,P|332:208|472:224,1,280,2|0,0:0|0:0,0:0:0:0:
436,92,9889,5,0,0:0:0:0:
440,136,10103,1,0,0:0:0:0:
288,80,10318,6,0,P|312:56|344:40,1,70,2|0,0:0|0:0,0:0:0:0:
339,251,10746,2,0,P|309:233|290:205,1,70
488,144,11175,5,0,0:0:0:0:
492,192,11389,1,0,0:0:0:0:
312,312,11603,2,0,L|243:311,1,70
52,272,12032,1,2,0:0:0:0:
52,272,12675,5,0,0:0:0:0:
172,192,12889,2,0,L|260:192,1,70
212,360,13318,2,0,L|304:360,1,70
320,132,13746,5,2,0:0:0:0:
312,88,13961,1,0,0:0:0:0:
144,88,14175,1,0,0:0:0:0:
136,132,14389,1,0,0:0:0:0:
256,288,14603,6,0,P|288:292|332:288,1,70
440,168,15032,2,0,P|480:164|516:168,1,70
324,240,15461,1,2,0:0:0:0:
324,240,16103,6,0,P|317:205|300:171,2,70,0|0|0,0:0|0:0|0:0,0:0:0:0:
168,100,16746,6,0,P|133:102|100:120,1,70,0|0,0:0|0:0,0:0:0:0:
224,200,17175,2,0,P|136:220|80:272,1,167.999994873047
144,384,17818,1,0,0:0:0:0:
292,356,18032,2,0,P|296:316|292:272,1,83.9999974365235
204,104,18461,2,0,P|200:60|208:20,1,83.9999974365235
312,156,18889,1,2,0:0:0:0:
308,36,19318,1,0,0:0:0:0:
408,164,19746,5,0,0:0:0:0:
392,248,19961,2,0,P|396:292|384:344,2,83.9999974365235
228,260,20603,2,0,P|308:268|392:248,1,167.999994873047,2|0,0:0|0:0,0:0:0:0:
488,156,21246,1,0,0:0:0:0:
384,64,21461,6,0,P|339:65|304:88,1,83.9999974365235
256,216,21889,2,0,L|259:299,1,83.9999974365235
360,304,22318,1,2,0:0:0:0:
172,304,22532,6,0,P|168:348|184:384,1,83.9999974365235
396,196,22961,2,0,P|358:173|318:171,1,83.9999974365235
180,148,23603,5,0,0:0:0:0:
300,220,23818,1,0,0:0:0:0:
160,232,24032,1,2,0:0:0:0:
264,140,24246,1,0,0:0:0:0:
236,284,24461,1,0,0:0:0:0:
152,124,24675,5,0,0:0:0:0:
344,236,24889,1,0,0:0:0:0:
116,240,25103,1,0,0:0:0:0:
300,116,25318,2,0,P|305:74|303:32,1,83.9999974365235
232,136,25746,2,0,P|296:188|368:140,1,167.999994873047,2|0,0:0|0:0,0:0:0:0:
304,264,26389,1,0,0:0:0:0:
196,228,26603,5,0,0:0:0:0:
40,228,26818,1,0,0:0:0:0:
164,144,27032,1,0,0:0:0:0:
120,280,27246,1,0,0:0:0:0:
76,136,27461,6,0,L|76:40,1,83.9999974365235,2|0,0:0|0:0,0:0:0:0:
196,228,27889,2,0,L|300:228,1,83.9999974365235
40,228,28318,2,0,L|40:320,1,83.9999974365235
164,144,28746,2,0,L|280:144,1,83.9999974365235
424,172,29175,2,0,P|444:96|376:48,1,167.999994873047,2|0,0:0|0:0,0:0:0:0:
380,48,29818,5,0,0:0:0:0:
328,144,30032,2,0,P|288:160|244:160,1,83.9999974365235
172,72,30461,1,0,0:0:0:0:
144,200,30675,1,0,0:0:0:0:
284,244,30889,6,0,L|340:332,1,87.5,2|0,0:0|0:0,0:0:0:0:
392,236,31318,1,0,0:0:0:0:
224,320,31532,1,0,0:0:0:0:
96,232,31746,6,0,L|-8:236,1,87.5,2|0,0:0|0:0,0:0:0:0:
12,328,32175,1,0,0:0:0:0:
96,132,32389,1,0,0:0:0:0:
220,152,32603,6,0,P|264:144|304:124,1,87.5,2|2,0:0|0:0,0:0:0:0:
336,92,32925,1,2,0:0:0:0:
380,72,33032,2,0,P|420:56|472:48,1,87.5,2|0,0:0|0:0,0:0:0:0:
412,200,33461,6,0,P|372:160|348:120,1,87.5,2|2,0:0|0:0,0:0:0:0:
336,92,33782,1,2,0:0:0:0:
308,52,33889,2,0,P|276:20|240:0,1,87.5,2|0,0:0|0:0,0:0:0:0:
256,192,34318,5,0,0:0:0:0:
184,232,34746,1,0,0:0:0:0:
112,196,35175,5,0,0:0:0:0:
256,264,35603,1,0,0:0:0:0:
408,184,36032,5,0,0:0:0:0:
356,276,36461,1,0,0:0:0:0:
404,364,36889,1,0,0:0:0:0:
332,112,37318,6,0,L|432:136,2,87.5
192,84,38175,5,0,0:0:0:0:
152,200,38603,1,0,0:0:0:0:
280,240,39032,1,0,0:0:0:0:
148,280,39461,5,0,0:0:0:0:
24,300,39889,1,0,0:0:0:0:
232,372,40318,1,0,0:0:0:0:
412,280,40746,6,0,L|424:188,1,87.5
444,44,41175,1,0,0:0:0:0:
328,92,41603,1,0,0:0:0:0:
76,56,42032,5,0,0:0:0:0:
200,100,42461,1,0,0:0:0:0:
112,292,42889,5,0,0:0:0:0:
232,208,43318,1,0,0:0:0:0:
232,208,43425,1,0,0:0:0:0:
232,208,43532,2,0,L|320:208,1,87.5
428,304,44175,1,0,0:0:0:0:
388,204,44603,6,0,L|444:32,1,175
292,88,45461,2,0,L|96:92,1,175
68,268,46318,2,0,P|148:236|228:264,1,175
308,328,46961,1,0,0:0:0:0:
392,168,47175,1,0,0:0:0:0:
488,224,47603,5,0,0:0:0:0:
384,132,47818,1,0,0:0:0:0:
296,240,48032,2,0,B|276:208|276:208|280:172|280:172|260:144|260:144|268:108|268:108|248:72,1,175
253,81,48889,2,0,P|188:40|148:108,1,175
148,108,49746,5,0,0:0:0:0:
112,208,50175,1,0,0:0:0:0:
164,304,50603,1,0,0:0:0:0:
356,268,51032,6,0,L|448:268,1,87.5
328,208,51461,2,0,P|292:280|360:332,1,175
472,124,52318,2,0,P|384:116|296:120,1,175
112,160,53175,5,0,0:0:0:0:
40,88,53603,1,0,0:0:0:0:
144,68,54032,1,0,0:0:0:0:
112,160,54461,5,0,0:0:0:0:
156,248,54675,1,0,0:0:0:0:
320,236,54889,2,0,P|232:216|152:252,1,175
336,328,55746,2,0,P|400:260|384:176,1,175
272,136,56603,5,0,0:0:0:0:
360,64,57032,1,0,0:0:0:0:
360,64,57139,1,0,0:0:0:0:
360,64,57246,2,0,L|460:52,1,87.5
364,152,57889,1,0,0:0:0:0:
264,52,58318,6,0,L|72:64,1,175
288,132,59175,2,0,P|312:216|304:304,1,175
184,236,60032,1,0,0:0:0:0:
392,236,60461,5,0,0:0:0:0:
440,156,60675,1,0,0:0:0:0:
444,68,60889,1,0,0:0:0:0:
504,228,61318,5,0,0:0:0:0:
252,328,61746,6,0,L|160:336,1,90.9999958343508,2|0,0:0|0:0,0:0:0:0:
124,184,62175,1,0,0:0:0:0:
124,184,62282,2,0,L|172:204,1,45.4999979171754
320,68,62603,6,0,L|432:44,1,90.9999958343508,8|0,0:0|0:0,0:0:0:0:
248,116,63032,1,0,0:0:0:0:
248,116,63139,2,0,L|248:172,1,45.4999979171754
320,204,63461,5,2,0:0:0:0:
180,160,63675,1,0,0:0:0:0:
188,32,63889,1,2,0:0:0:0:
180,160,64103,1,0,0:0:0:0:
56,228,64318,1,8,0:0:0:0:
212,312,64746,6,0,L|312:320,1,90.9999958343508
448,272,65175,5,2,0:0:0:0:
304,320,65389,1,0,0:0:0:0:
132,320,65603,1,0,0:0:0:0:
132,320,65711,2,0,L|84:336,1,45.4999979171754
236,228,66032,6,0,P|252:184|256:128,1,90.9999958343508,8|0,0:0|0:0,0:0:0:0:
416,40,66461,1,0,0:0:0:0:
416,40,66568,2,0,L|472:24,1,45.4999979171754
320,104,66889,5,2,0:0:0:0:
200,84,67103,1,0,0:0:0:0:
128,168,67318,1,2,0:0:0:0:
196,260,67532,1,0,0:0:0:0:
128,168,67746,6,0,P|80:164|32:176,1,90.9999958343508,8|0,0:0|0:0,0:0:0:0:
396,328,68175,2,0,P|444:332|492:320,1,90.9999958343508
380,244,68603,5,2,0:0:0:0:
312,336,68818,1,0,0:0:0:0:
168,344,69032,1,0,0:0:0:0:
168,344,69139,2,0,L|100:348,1,45.4999979171754
276,184,69461,6,0,L|328:272,1,90.9999958343508,8|0,0:0|0:0,0:0:0:0:
100,160,69889,1,0,0:0:0:0:
100,160,69996,2,0,L|136:104,1,45.4999979171754
176,240,70318,5,2,0:0:0:0:
8,200,70532,1,0,0:0:0:0:
48,40,70746,1,2,0:0:0:0:
52,36,70853,1,0,0:0:0:0:
56,32,70961,2,0,L|152:52,1,90.9999958343508,0|8,0:0|0:0,0:0:0:0:
164,120,71603,5,0,0:0:0:0:
164,120,71818,1,0,0:0:0:0:
356,116,72032,6,0,P|360:72|352:20,1,90.9999958343508,2|0,0:0|0:0,0:0:0:0:
280,200,72461,1,0,0:0:0:0:
280,200,72568,1,0,0:0:0:0:
280,200,72675,1,0,0:0:0:0:
156,316,72889,6,0,P|108:324|68:340,1,90.9999958343508,8|0,0:0|0:0,0:0:0:0:
324,352,73318,1,0,0:0:0:0:
324,352,73425,1,0,0:0:0:0:
324,352,73532,1,0,0:0:0:0:
460,208,73746,6,0,L|420:104,1,90.9999958343508,2|0,0:0|0:0,0:0:0:0:
352,248,74175,1,2,0:0:0:0:
348,56,74389,2,0,L|252:56,1,90.9999958343508,0|8,0:0|0:0,0:0:0:0:
236,192,74818,1,0,0:0:0:0:
236,192,75032,1,0,0:0:0:0:
108,156,75461,5,4,0:0:0:0:
40,64,75675,1,0,0:0:0:0:
104,276,75889,1,8,0:0:0:0:
104,276,75996,2,0,L|124:216,1,45.4999979171754,0|2,0:0|0:0,0:0:0:0:
320,280,76318,6,0,P|320:236|312:184,1,90.9999958343508,2|0,0:0|0:0,0:0:0:0:
212,40,76746,1,8,0:0:0:0:
212,40,76853,2,0,L|208:92,1,45.4999979171754,0|2,0:0|0:0,0:0:0:0:
404,116,77175,5,0,0:0:0:0:
440,20,77389,1,2,0:0:0:0:
416,192,77603,1,8,0:0:0:0:
460,288,77818,1,2,0:0:0:0:
288,168,78032,1,2,0:0:0:0:
200,96,78461,6,0,P|152:96|108:108,1,90.9999958343508,8|2,0:0|0:0,0:0:0:0:
348,80,78889,6,0,P|391:68|437:69,1,90.9999958343508,2|0,0:0|0:0,0:0:0:0:
372,224,79318,1,8,0:0:0:0:
372,224,79425,2,0,L|320:232,1,45.4999979171754,0|2,0:0|0:0,0:0:0:0:
124,264,79746,6,0,P|112:216|116:168,1,90.9999958343508,2|0,0:0|0:0,0:0:0:0:
336,316,80175,1,8,0:0:0:0:
336,316,80282,2,0,L|396:308,1,45.4999979171754,0|2,0:0|0:0,0:0:0:0:
280,224,80603,5,0,0:0:0:0:
168,332,80818,1,2,0:0:0:0:
216,172,81032,1,8,0:0:0:0:
260,328,81246,1,2,0:0:0:0:
76,152,81461,1,2,0:0:0:0:
320,248,81889,6,0,P|368:248|412:240,1,90.9999958343508,2|2,0:0|0:0,0:0:0:0:
312,112,82318,5,2,0:0:0:0:
212,232,82532,1,0,0:0:0:0:
188,24,82746,2,0,L|148:0,2,45.4999979171754,8|0|2,0:0|0:0|0:0,0:0:0:0:
388,44,83175,5,2,0:0:0:0:
244,176,83389,1,0,0:0:0:0:
448,224,83603,2,0,L|448:272,2,45.4999979171754,8|0|2,0:0|0:0|0:0,0:0:0:0:
352,264,84032,5,0,0:0:0:0:
236,208,84246,1,2,0:0:0:0:
128,292,84461,1,8,0:0:0:0:
128,292,84568,1,0,0:0:0:0:
128,292,84675,2,0,L|24:292,1,90.9999958343508,2|2,0:0|0:0,0:0:0:0:
108,384,85103,1,0,0:0:0:0:
224,352,85318,2,0,L|328:352,1,90.9999958343508,8|2,0:0|0:0,0:0:0:0:
424,328,85746,5,0,0:0:0:0:
304,256,86175,1,0,0:0:0:0:
164,224,86603,1,0,0:0:0:0:
304,196,87032,1,0,0:0:0:0:
424,120,87461,1,0,0:0:0:0:
168,32,87889,5,0,0:0:0:0:
56,108,88103,1,0,0:0:0:0:
292,76,88318,1,0,0:0:0:0:
288,232,88746,6,0,P|244:228|201:236,1,87.5
112,292,89175,1,0,0:0:0:0:
184,360,89389,1,0,0:0:0:0:
276,320,89603,2,0,P|316:316|364:320,1,87.5
460,248,90032,1,0,0:0:0:0:
376,164,90246,1,0,0:0:0:0:
444,68,90461,1,0,0:0:0:0:
376,164,90675,1,0,0:0:0:0:
212,164,90889,6,0,L|156:164,2,43.75,2|2|2,0:0|0:0|0:0,0:0:0:0:
312,160,92175,6,0,P|280:128|244:104,1,87.5
148,64,92603,1,0,0:0:0:0:
228,32,92818,1,0,0:0:0:0:
100,136,93032,2,0,P|84:184|84:224,1,87.5
96,308,93461,1,0,0:0:0:0:
180,240,93675,1,0,0:0:0:0:
84,220,93889,1,0,0:0:0:0:
276,212,94103,1,0,0:0:0:0:
192,328,94318,6,0,L|196:376,2,43.75,2|2|2,0:0|0:0|0:0,0:0:0:0:
256,148,95389,5,0,0:0:0:0:
364,152,95603,2,0,L|468:192,1,87.5
236,244,96032,2,0,P|184:236|152:216,1,87.5
364,152,96461,2,0,L|356:256,1,87.5
296,332,96889,1,0,0:0:0:0:
176,304,97103,1,0,0:0:0:0:
72,352,97318,1,0,0:0:0:0:
48,172,97532,1,0,0:0:0:0:
204,84,97746,6,0,L|224:16,2,43.75,2|2|2,0:0|0:0|0:0,0:0:0:0:
400,120,99246,5,0,0:0:0:0:
300,128,99461,2,0,L|296:28,1,87.5
492,152,99889,2,0,L|512:60,1,87.5
468,256,100318,1,0,0:0:0:0:
312,232,100532,1,0,0:0:0:0:
312,232,100639,1,0,0:0:0:0:
312,232,100746,2,0,P|264:232|224:240,1,87.5
104,320,101175,5,2,0:0:0:0:
104,320,101282,1,2,0:0:0:0:
104,320,101389,1,2,0:0:0:0:
292,280,102246,5,0,0:0:0:0:
228,344,102461,1,0,0:0:0:0:
340,352,102675,1,0,0:0:0:0:
208,268,102889,2,0,L|196:176,1,87.5
404,196,103318,2,0,L|372:288,1,87.5
300,172,103746,2,0,L|300:72,1,87.5
208,28,104175,2,0,L|88:32,1,87.5
32,96,104603,5,2,0:0:0:0:
32,96,104711,1,2,0:0:0:0:
32,96,104818,1,2,0:0:0:0:
40,200,105889,6,0,P|80:212|128:216,1,87.5
304,168,106318,2,0,P|348:172|392:184,1,87.5
160,40,106746,2,0,P|120:28|72:24,1,87.5
298,200,107175,2,0,P|340:212|384:216,1,87.5
488,180,107603,1,0,0:0:0:0:
364,88,107818,1,0,0:0:0:0:
228,152,108032,6,0,L|224:216,2,43.75,2|2|2,0:0|0:0|0:0,0:0:0:0:
220,280,109103,5,0,0:0:0:0:
304,344,109318,2,0,L|404:340,1,87.5
176,368,109746,2,0,L|80:376,1,87.5
52,272,110175,1,0,0:0:0:0:
112,168,110389,1,0,0:0:0:0:
232,176,110603,1,0,0:0:0:0:
288,280,110818,1,0,0:0:0:0:
160,312,111032,1,0,0:0:0:0:
344,376,111246,1,0,0:0:0:0:
500,296,111461,6,0,L|508:224,2,43.75,2|2|2,0:0|0:0|0:0,0:0:0:0:
404,24,112961,5,0,0:0:0:0:
308,80,113175,2,0,L|208:88,1,87.5,2|0,0:0|0:0,0:0:0:0:
156,180,113603,1,0,0:0:0:0:
84,80,113818,1,0,0:0:0:0:
244,168,114032,2,0,L|352:160,1,87.5,8|0,0:0|0:0,0:0:0:0:
331,161,114353,1,0,0:0:0:0:
331,161,114461,1,0,0:0:0:0:
208,56,114675,1,0,0:0:0:0:
80,208,114889,6,0,P|56:296|68:380,2,175,2|2|8,0:0|0:0|0:0,0:0:0:0:
188,268,115961,5,0,0:0:0:0:
260,224,116175,1,0,0:0:0:0:
116,312,116389,1,0,0:0:0:0:
284,316,116603,2,0,P|332:312|392:304,1,87.5,2|0,0:0|0:0,0:0:0:0:
196,164,117032,2,0,P|148:168|88:176,1,87.5
448,224,117461,2,0,P|448:180|444:136,1,87.5,8|0,0:0|0:0,0:0:0:0:
296,0,117889,2,0,P|296:44|300:88,1,87.5
440,52,118318,2,0,P|272:44|160:172,1,350,2|8,0:0|0:0,0:0:0:0:
136,252,119603,5,0,0:0:0:0:
100,128,119818,1,0,0:0:0:0:
152,308,120032,2,0,L|280:300,1,87.5,2|0,0:0|0:0,0:0:0:0:
512,304,120461,2,0,L|408:312,1,87.5
232,376,120889,2,0,L|319:369,1,87.5,8|0,0:0|0:0,0:0:0:0:
88,308,121318,2,0,L|172:364,1,87.5
320,368,121746,2,0,B|376:256|264:144|328:24,1,350,2|8,0:0|0:0,0:0:0:0:
326,26,122818,5,0,0:0:0:0:
204,96,123032,1,0,0:0:0:0:
76,40,123246,1,0,0:0:0:0:
104,204,123461,2,0,P|144:184|196:180,1,87.5,2|0,0:0|0:0,0:0:0:0:
248,260,123889,2,0,P|292:248|348:256,1,87.5
432,316,124318,2,0,P|440:268|432:224,1,87.5,8|0,0:0|0:0,0:0:0:0:
512,144,124746,2,0,P|504:92|480:56,1,87.5
388,144,125175,2,0,P|232:212|76:144,1,350,2|8,0:0|0:0,0:0:0:0:
56,216,126675,5,0,0:0:0:0:
132,332,126889,2,0,L|228:336,1,87.5,2|0,0:0|0:0,0:0:0:0:
400,336,127318,2,0,P|412:288|404:232,1,87.5
288,88,127746,2,0,P|276:136|284:192,1,87.5,8|0,0:0|0:0,0:0:0:0:
278,173,128068,1,0,0:0:0:0:
278,173,128175,2,0,P|284:216|276:260,1,87.5
184,128,128603,2,0,P|292:16|392:136,1,350,2|8,0:0|0:0,0:0:0:0:
392,288,129675,5,0,0:0:0:0:
264,280,129889,1,0,0:0:0:0:
184,360,130103,1,0,0:0:0:0:
88,280,130318,2,0,P|92:232|100:184,1,87.5,4|0,0:0|0:0,0:0:0:0:
232,224,130746,5,8,0:0:0:0:
136,76,130961,1,2,0:0:0:0:
368,100,131175,2,0,P|376:52|352:16,1,87.5,2|0,0:0|0:0,0:0:0:0:
284,64,131603,5,8,0:0:0:0:
500,64,131818,1,2,0:0:0:0:
340,180,132032,2,0,P|332:224|344:268,1,87.5,0|2,0:0|0:0,0:0:0:0:
508,188,132461,6,0,P|464:184|424:200,1,87.5,8|2,0:0|0:0,0:0:0:0:
248,336,132889,2,0,P|168:364|88:328,1,175,2|8,0:0|0:0,0:0:0:0:
132,184,133532,5,2,0:0:0:0:
8,268,133746,1,2,0:0:0:0:
176,272,133961,1,0,0:0:0:0:
32,176,134175,2,0,P|28:128|32:84,1,87.5,8|2,0:0|0:0,0:0:0:0:
212,168,134603,6,0,P|176:188|124:180,1,87.5,2|0,0:0|0:0,0:0:0:0:
200,24,135032,1,8,0:0:0:0:
288,168,135246,1,2,0:0:0:0:
432,108,135461,6,0,L|444:16,1,87.5,0|2,0:0|0:0,0:0:0:0:
368,108,135889,2,0,P|420:172|496:120,1,175,8|2,0:0|0:0,0:0:0:0:
344,216,136532,6,0,L|328:328,1,87.5,0|8,0:0|0:0,0:0:0:0:
468,272,136961,1,2,0:0:0:0:
260,248,137175,2,0,L|160:248,1,87.5,2|0,0:0|0:0,0:0:0:0:
28,248,137603,2,0,P|24:291|28:335,1,87.5,8|2,0:0|0:0,0:0:0:0:
172,168,138032,5,2,0:0:0:0:
28,248,138246,1,0,0:0:0:0:
232,132,138461,2,0,P|236:84|232:40,1,87.5,8|2,0:0|0:0,0:0:0:0:
240,200,138889,6,0,P|280:216|328:208,1,87.5,0|2,0:0|0:0,0:0:0:0:
444,136,139318,2,0,P|364:108|288:148,1,175,8|2,0:0|0:0,0:0:0:0:
216,296,140175,1,8,0:0:0:0:
104,248,140389,5,2,0:0:0:0:
216,296,140603,1,2,0:0:0:0:
316,216,140818,1,0,0:0:0:0:
120,112,141032,2,0,L|20:116,1,87.5,8|2,0:0|0:0,0:0:0:0:
212,200,141461,5,2,0:0:0:0:
172,44,141675,1,0,0:0:0:0:
172,44,141782,1,0,0:0:0:0:
172,44,141889,2,0,P|132:24|88:16,1,87.5,8|2,0:0|0:0,0:0:0:0:
248,128,142318,6,0,P|280:100|296:56,1,87.5,0|2,0:0|0:0,0:0:0:0:
136,152,142746,2,0,P|120:240|156:320,1,175,8|0,0:0|0:0,0:0:0:0:
260,380,143389,5,0,0:0:0:0:
144,384,143603,1,8,0:0:0:0:
264,300,143818,1,2,0:0:0:0:
444,320,144032,6,0,P|456:276|456:220,1,87.5,2|0,0:0|0:0,0:0:0:0:
420,40,144461,2,0,P|408:84|408:140,1,87.5,8|2,0:0|0:0,0:0:0:0:
512,0,144889,2,0,L|400:4,1,87.5,2|0,0:0|0:0,0:0:0:0:
292,80,145318,2,0,L|204:84,1,87.5,8|2,0:0|0:0,0:0:0:0:
304,148,145746,5,0,0:0:0:0:
204,84,145961,1,2,0:0:0:0:
304,148,146175,1,8,0:0:0:0:
304,148,146603,1,2,0:0:0:0:
204,84,147032,6,0,L|108:100,1,87.5,8|2,0:0|0:0,0:0:0:0:
84,196,147461,1,2,0:0:0:0:
180,188,147675,1,0,0:0:0:0:
104,268,147889,1,8,0:0:0:0:
200,220,148103,1,2,0:0:0:0:
152,320,148318,1,2,0:0:0:0:
224,248,148532,1,0,0:0:0:0:
360,300,148746,2,0,L|452:300,1,87.5,8|2,0:0|0:0,0:0:0:0:
296,256,149175,6,0,P|292:296|292:344,1,87.5,0|2,0:0|0:0,0:0:0:0:
368,164,149603,1,8,0:0:0:0:
464,232,150032,1,0,0:0:0:0:
464,80,150246,6,0,L|500:-4,2,87.5,0|8|2,0:0|0:0|0:0,0:0:0:0:
364,28,150889,6,0,P|320:44|288:68,1,87.5,2|0,0:0|0:0,0:0:0:0:
144,76,151318,2,0,P|144:124|160:168,1,87.5,8|2,0:0|0:0,0:0:0:0:
0,176,151746,2,0,P|32:208|76:220,1,87.5,2|0,0:0|0:0,0:0:0:0:
224,200,152175,5,8,0:0:0:0:
100,348,152389,1,2,0:0:0:0:
224,272,152603,5,0,0:0:0:0:
392,356,152818,1,2,0:0:0:0:
288,304,153032,2,0,P|304:224|368:160,1,175,8|2,0:0|0:0,0:0:0:0:
432,144,153889,5,8,0:0:0:0:
432,144,154103,1,2,0:0:0:0:
440,248,154318,2,0,L|448:352,1,87.5,2|0,0:0|0:0,0:0:0:0:
336,184,154746,2,0,L|344:296,1,87.5,8|2,0:0|0:0,0:0:0:0:
232,144,155175,2,0,L|240:256,1,87.5,2|0,0:0|0:0,0:0:0:0:
238,231,155496,1,0,0:0:0:0:
238,231,155603,2,0,L|248:352,1,87.5,8|2,0:0|0:0,0:0:0:0:
144,236,156032,5,0,0:0:0:0:
40,240,156246,1,2,0:0:0:0:
308,224,156461,2,0,P|324:144|248:120,1,175,8|2,0:0|0:0,0:0:0:0:
80,144,157103,2,0,P|64:104|60:56,2,87.5,0|8|2,0:0|0:0|0:0,0:0:0:0:
184,72,157746,6,0,L|196:32,1,28
280,112,158175,6,0,L|288:80,1,28
504,92,158603,6,0,L|500:60,1,28
396,120,159032,6,0,L|392:72,1,28
256,192,159461,12,0,160746,0:0:0:0:
256,136,161175,5,2,0:0:0:0:
256,176,161603,5,0,0:0:0:0:
256,216,162032,1,0,0:0:0:0:
256,252,162461,6,0,P|312:308|368:252,1,175,0|2,0:0|0:0,0:0:0:0:
96,172,163746,5,0,0:0:0:0:
264,104,163961,1,0,0:0:0:0:
68,108,164175,1,0,0:0:0:0:
244,172,164389,1,0,0:0:0:0:
444,112,164603,6,0,P|428:36|344:8,2,175,2|0|0,0:0|0:0|0:0,0:0:0:0:
436,224,165675,5,0,0:0:0:0:
314,226,165889,1,0,0:0:0:0:
314,346,166103,1,0,0:0:0:0:
436,344,166318,1,2,0:0:0:0:
376,288,166532,1,0,0:0:0:0:
436,224,166746,2,0,L|432:120,2,87.5,0|0|0,0:0|0:0|0:0,0:0:0:0:
400,344,167603,6,0,P|352:340|308:348,1,87.5
204,272,168032,5,2,0:0:0:0:
196,360,168246,1,0,0:0:0:0:
120,244,168461,1,0,0:0:0:0:
108,332,168675,1,0,0:0:0:0:
36,216,168889,1,0,0:0:0:0:
24,304,169103,1,0,0:0:0:0:
296,292,169318,1,0,0:0:0:0:
288,384,169532,1,0,0:0:0:0:
464,228,169746,6,0,P|388:184|320:224,1,175,2|0,0:0|0:0,0:0:0:0:
392,272,170389,5,0,0:0:0:0:
216,172,170603,2,0,P|172:168|128:184,1,87.5
300,148,171032,2,0,P|300:104|284:60,1,87.5
392,144,171461,6,0,P|432:136|464:104,1,87.5,2|0,0:0|0:0,0:0:0:0:
308,224,171889,2,0,P|304:268|316:312,1,87.5
184,256,172318,2,0,L|76:256,1,87.5
80,128,172746,5,0,0:0:0:0:
184,256,172961,1,0,0:0:0:0:
312,124,173175,1,2,0:0:0:0:
276,212,173818,1,0,0:0:0:0:
196,144,174032,6,0,P|192:104|200:56,1,87.5
288,32,174461,1,0,0:0:0:0:
64,60,174675,1,0,0:0:0:0:
308,100,174889,6,0,B|352:96|352:96|392:116|392:116|504:112,1,175,2|0,0:0|0:0,0:0:0:0:
416,32,175532,1,0,0:0:0:0:
280,160,175746,6,0,L|184:164,1,87.5
452,184,176175,2,0,L|464:84,1,87.5
356,208,176603,6,0,L|336:392,2,175,2|0|0,0:0|0:0|0:0,0:0:0:0:
260,256,177675,1,0,0:0:0:0:
164,264,177889,1,0,0:0:0:0:
220,336,178103,1,0,0:0:0:0:
72,272,178318,1,2,0:0:0:0:
348,248,178746,1,0,0:0:0:0:
252,104,179175,6,0,P|208:120|188:160,1,87.5
368,84,179603,1,0,0:0:0:0:
492,136,179818,2,0,P|516:100|504:44,1,87.5,0|2,0:0|0:0,0:0:0:0:
392,176,180246,1,0,0:0:0:0:
260,200,180461,2,0,P|216:208|180:236,2,87.5
40,204,181318,6,0,P|24:164|24:120,1,87.5
16,0,181746,1,2,0:0:0:0:
24,120,181961,1,0,0:0:0:0:
96,0,182175,1,0,0:0:0:0:
24,120,182389,1,0,0:0:0:0:
164,36,182603,1,0,0:0:0:0:
24,120,182818,1,0,0:0:0:0:
172,116,183032,1,0,0:0:0:0:
24,120,183246,1,0,0:0:0:0:
224,220,183461,6,0,P|296:196|300:108,1,175,2|0,0:0|0:0,0:0:0:0:
224,220,184103,5,0,0:0:0:0:
404,208,184318,2,0,P|448:216|492:232,1,87.5
320,300,184746,2,0,P|339:339|351:381,1,87.5
208,312,185175,6,0,P|168:308|120:316,1,87.5,2|0,0:0|0:0,0:0:0:0:
68,176,185603,2,0,P|52:216|44:264,1,87.5
24,376,186032,1,0,0:0:0:0:
148,224,186246,1,0,0:0:0:0:
248,380,186461,1,0,0:0:0:0:
148,224,186675,1,0,0:0:0:0:
312,136,186889,6,0,B|376:132|376:132|408:100|408:100|480:96,2,175,2|0|0,0:0|0:0|0:0,0:0:0:0:
192,152,188603,5,0,0:0:0:0:
184,152,189032,1,0,0:0:0:0:
176,152,189461,1,0,0:0:0:0:
168,152,189889,2,0,B|124:152|124:152|44:188|44:188|0:188|0:188,1,175,0|2,0:0|0:0,0:0:0:0:
256,192,190532,12,0,192032,0:0:0:0:
256,140,192461,5,2,0:0:0:0:
208,232,192675,1,2,0:0:0:0:
328,220,192889,2,0,L|516:204,1,181.999991668702,2|8,0:0|0:0,0:0:0:0:
396,128,193532,1,2,0:0:0:0:
360,288,193746,5,0,0:0:0:0:
360,288,193961,1,2,0:0:0:0:
360,288,194175,2,0,L|248:296,1,90.9999958343508,8|0,0:0|0:0,0:0:0:0:
132,296,194603,5,2,0:0:0:0:
140,192,194818,1,0,0:0:0:0:
236,144,195032,1,8,0:0:0:0:
132,296,195246,1,2,0:0:0:0:
84,108,195461,6,0,B|64:84|64:84|-8:92,1,90.9999958343508,2|0,0:0|0:0,0:0:0:0:
236,144,195889,2,0,B|264:140|264:140|304:88,1,90.9999958343508,8|0,0:0|0:0,0:0:0:0:
368,16,196318,5,2,0:0:0:0:
392,88,196532,1,0,0:0:0:0:
288,28,196746,1,8,0:0:0:0:
460,56,196961,1,2,0:0:0:0:
220,68,197175,6,0,L|104:72,1,90.9999958343508,0|2,0:0|0:0,0:0:0:0:
360,176,197603,2,0,L|484:172,1,90.9999958343508,8|2,0:0|0:0,0:0:0:0:
176,224,198032,2,0,L|176:340,1,90.9999958343508,2|0,0:0|0:0,0:0:0:0:
268,360,198461,5,8,0:0:0:0:
416,344,198675,1,2,0:0:0:0:
328,228,198889,1,2,0:0:0:0:
340,332,199103,1,0,0:0:0:0:
448,256,199318,1,8,0:0:0:0:
264,192,199532,1,2,0:0:0:0:
380,276,199746,1,2,0:0:0:0:
400,144,199961,1,0,0:0:0:0:
140,228,200175,2,0,L|8:240,1,90.9999958343508,8|0,0:0|0:0,0:0:0:0:
316,112,200603,6,0,P|320:64|308:20,2,90.9999958343508,0|2|8,0:0|0:0|0:0,0:0:0:0:
264,192,201246,1,2,0:0:0:0:
180,120,201461,6,0,P|172:72|176:20,1,90.9999958343508,2|0,0:0|0:0,0:0:0:0:
112,180,201889,2,0,L|8:196,1,90.9999958343508,8|0,0:0|0:0,0:0:0:0:
256,48,202318,2,0,L|448:32,1,181.999991668702,2|8,0:0|0:0,0:0:0:0:
437,32,202961,1,2,0:0:0:0:
288,156,203175,6,0,P|244:172|200:172,1,90.9999958343508,2|0,0:0|0:0,0:0:0:0:
0,112,203603,2,0,P|44:96|88:96,1,90.9999958343508,8|2,0:0|0:0,0:0:0:0:
256,240,204032,5,0,0:0:0:0:
92,368,204246,2,0,L|-16:376,2,90.9999958343508,2|8|2,0:0|0:0|0:0,0:0:0:0:
232,296,204889,6,0,L|336:288,1,90.9999958343508,2|0,0:0|0:0,0:0:0:0:
400,92,205318,2,0,L|516:88,1,90.9999958343508,8|2,0:0|0:0,0:0:0:0:
244,184,205746,6,0,P|232:88|264:8,1,181.999991668702,4|2,0:0|0:0,0:0:0:0:
136,56,206389,1,2,0:0:0:0:
172,208,206603,2,0,P|132:236|84:248,1,90.9999958343508,2|0,0:0|0:0,0:0:0:0:
312,128,207032,2,0,P|352:100|400:88,1,90.9999958343508,8|0,0:0|0:0,0:0:0:0:
48,136,207461,6,0,P|48:92|56:44,2,90.9999958343508,0|2|8,0:0|0:0|0:0,0:0:0:0:
128,208,208103,1,2,0:0:0:0:
32,288,208318,6,0,P|60:324|104:332,1,90.9999958343508,2|0,0:0|0:0,0:0:0:0:
280,264,208746,2,0,P|323:272|350:308,1,90.9999958343508,8|2,0:0|0:0,0:0:0:0:
240,368,209175,5,2,0:0:0:0:
192,268,209389,1,0,0:0:0:0:
252,168,209603,1,8,0:0:0:0:
368,176,209818,1,2,0:0:0:0:
376,64,210032,6,0,L|460:0,1,90.9999958343508,2|0,0:0|0:0,0:0:0:0:
252,56,210461,2,0,L|176:0,1,90.9999958343508,8|2,0:0|0:0,0:0:0:0:
368,176,210889,6,0,L|440:236,2,90.9999958343508,0|2|8,0:0|0:0|0:0,0:0:0:0:
368,176,211532,1,0,0:0:0:0:
480,360,211746,6,0,P|488:312|476:260,1,90.9999958343508,2|0,0:0|0:0,0:0:0:0:
336,352,212175,2,0,P|328:307|337:263,1,90.9999958343508,8|2,0:0|0:0,0:0:0:0:
408,308,212603,5,2,0:0:0:0:
252,304,212818,1,0,0:0:0:0:
264,160,213032,1,8,0:0:0:0:
420,168,213246,1,2,0:0:0:0:
336,240,213461,1,0,0:0:0:0:
180,232,213675,1,0,0:0:0:0:
188,76,213889,1,8,0:0:0:0:
344,84,214103,1,2,0:0:0:0:
264,160,214318,6,0,L|144:152,1,90.9999958343508,0|2,0:0|0:0,0:0:0:0:
72,60,214746,1,8,0:0:0:0:
173,154,214961,1,2,0:0:0:0:
88,268,215175,6,0,L|84:358,1,90.9999958343508,2|0,0:0|0:0,0:0:0:0:
320,124,215603,2,0,L|323:33,1,90.9999958343508,8|0,0:0|0:0,0:0:0:0:
280,312,216032,6,0,L|396:312,1,90.9999958343508,2|0,0:0|0:0,0:0:0:0:
144,68,216461,2,0,L|40:68,1,90.9999958343508,8|2,0:0|0:0,0:0:0:0:
160,224,216889,2,0,L|212:124,1,90.9999958343508,2|0,0:0|0:0,0:0:0:0:
0,140,217318,2,0,L|40:248,1,90.9999958343508,8|2,0:0|0:0,0:0:0:0:
104,364,217746,6,0,P|192:344|280:368,1,181.999991668702,0|8,0:0|0:0,0:0:0:0:
278,367,218389,5,2,0:0:0:0:
360,248,218603,1,2,0:0:0:0:
216,240,218818,1,0,0:0:0:0:
352,328,219032,1,8,0:0:0:0:
292,200,219246,1,2,0:0:0:0:
204,324,219461,6,0,P|156:324|108:336,1,90.9999958343508,2|0,0:0|0:0,0:0:0:0:
188,160,219889,2,0,P|188:112|180:64,1,90.9999958343508,8|2,0:0|0:0,0:0:0:0:
360,148,220318,2,0,P|400:152|456:144,1,90.9999958343508,2|0,0:0|0:0,0:0:0:0:
376,304,220746,2,0,P|372:344|380:404,1,90.9999958343508,8|2,0:0|0:0,0:0:0:0:
280,336,221175,5,2,0:0:0:0:
152,336,221389,1,0,0:0:0:0:
148,204,221603,1,2,0:0:0:0:
280,208,221818,1,0,0:0:0:0:
212,268,222032,1,2,0:0:0:0:
212,140,222246,1,0,0:0:0:0:
348,144,222461,1,2,0:0:0:0:
348,272,222675,1,0,0:0:0:0:
439,355,222889,6,0,P|477:330|500:292,1,90.9999958343508,2|0,0:0|0:0,0:0:0:0:
501,105,223318,2,0,P|462:129|440:168,1,90.9999958343508,8|2,0:0|0:0,0:0:0:0:
348,144,223746,5,2,0:0:0:0:
228,104,223961,1,0,0:0:0:0:
108,112,224175,1,8,0:0:0:0:
60,224,224389,1,2,0:0:0:0:
180,216,224603,1,0,0:0:0:0:
228,104,224818,1,2,0:0:0:0:
112,21,225032,6,0,L|108:117,1,90.9999958343508,8|2,0:0|0:0,0:0:0:0:
96,202,225461,2,0,L|108:110,1,90.9999958343508,2|0,0:0|0:0,0:0:0:0:
80,288,225889,5,8,0:0:0:0:
168,268,226103,1,2,0:0:0:0:
236,328,226318,1,2,0:0:0:0:
236,208,226532,1,0,0:0:0:0:
300,368,226746,1,0,0:0:0:0:
292,156,226961,1,0,0:0:0:0:
464,272,227175,1,8,0:0:0:0:
120,268,227603,1,0,0:0:0:0:
292,0,228032,5,2,0:0:0:0:
368,60,228246,1,0,0:0:0:0:
228,128,228461,2,0,L|128:140,1,90.9999958343508,2|0,0:0|0:0,0:0:0:0:
368,60,228889,2,0,L|468:52,1,90.9999958343508,2|0,0:0|0:0,0:0:0:0:
324,140,229318,1,2,0:0:0:0:
204,44,229532,1,0,0:0:0:0:
100,216,229746,6,0,L|208:212,1,90.9999958343508,2|0,0:0|0:0,0:0:0:0:
84,104,230175,1,0,0:0:0:0:
84,104,230389,1,0,0:0:0:0:
260,208,230603,6,0,L|388:208,1,90.9999958343508,8|0,0:0|0:0,0:0:0:0:
188,132,231032,1,0,0:0:0:0:
188,132,231246,1,0,0:0:0:0:
416,240,231461,6,0,L|528:244,2,90.9999958343508,2|0|2,0:0|0:0|0:0,0:0:0:0:
476,136,232103,5,0,0:0:0:0:
336,288,232318,2,0,L|232:296,1,90.9999958343508,8|0,0:0|0:0,0:0:0:0:
340,184,232746,1,0,0:0:0:0:
340,184,232961,1,0,0:0:0:0:
160,352,233175,6,0,P|156:304|156:256,1,90.9999958343508,0|0,0:0|0:0,0:0:0:0:
168,108,233603,2,0,L|268:112,1,90.9999958343508
100,184,234032,2,0,L|-16:180,1,90.9999958343508
64,92,234461,1,0,0:0:0:0:
160,352,234889,2,0,P|168:264|164:160,1,181.999991668702
136,56,235746,5,0,0:0:0:0:
180,128,235961,1,0,0:0:0:0:
244,64,236175,1,0,0:0:0:0:
292,140,236389,1,0,0:0:0:0:
360,76,236603,1,0,0:0:0:0:
228,200,237032,1,0,0:0:0:0:
116,184,237461,5,0,0:0:0:0:
352,216,237675,1,0,0:0:0:0:
160,260,237889,1,0,0:0:0:0:
280,272,238103,1,0,0:0:0:0:
212,332,238318,1,0,0:0:0:0:
128,380,238746,1,0,0:0:0:0:
60,320,239175,6,0,L|56:216,1,90.9999958343508
48,72,239603,2,0,L|52:168,1,90.9999958343508
172,104,240032,6,0,L|280:96,1,90.9999958343508
416,40,240461,2,0,L|332:80,1,90.9999958343508
340,240,240889,2,0,L|312:144,1,90.9999958343508
340,240,241318,1,0,0:0:0:0:
276,20,241746,1,0,0:0:0:0:
132,188,242603,5,0,0:0:0:0:
308,168,242818,1,0,0:0:0:0:
104,40,243032,1,0,0:0:0:0:
204,104,243246,1,0,0:0:0:0:
32,132,243461,5,0,0:0:0:0:
376,76,243889,1,0,0:0:0:0:
240,336,244318,1,0,0:0:0:0:
240,336,244746,1,0,0:0:0:0:
240,336,245175,1,0,0:0:0:0:
72,328,245818,5,0,0:0:0:0:
148,376,246032,2,0,P|156:328|148:280,1,90.9999958343508
84,132,246461,2,0,P|80:88|88:40,1,90.9999958343508
228,100,246889,6,0,L|264:92,1,28
252,168,247318,6,0,L|278:159,1,28
280,236,247746,6,0,L|312:224,1,28
312,300,248175,6,0,L|340:288,1,28
256,192,248603,12,0,250318,0:0:0:0:
