osu file format v7

[General]
AudioFilename: 04 - Classic Style.mp3
AudioLeadIn: 0
PreviewTime: 15000
Countdown: 1
SampleSet: Soft
StackLeniency: 0.7
Mode: 0
LetterboxInBreaks: 1
EpilepsyWarning: 1

[Editor]
DistanceSpacing: 0.800000011920929
BeatDivisor: 4
GridSize: 8

[Metadata]
Title:Classic Style
Artist:Clemaister
Creator:Clemaister
Version:Mad Pianist
Source:
Tags:piano LRJulien

[Difficulty]
HPDrainRate:6
CircleSize:4
OverallDifficulty:7
SliderMultiplier:1.4
SliderTickRate:1

[Events]
//Background and Video events
0,0,"AccustomedPianist-background.png"
//Break Periods
2,64710,75610
//Storyboard Layer 0 (Background)
//Storyboard Layer 1 (Fail)
//Storyboard Layer 2 (Pass)
//Storyboard Layer 3 (Foreground)
Sprite,Foreground,Centre,"bmbc.png",320,240 M,0,6000,,320,240 F,0,6000,11906,0,1 F,0,11906,12000,1,0 F,0,12000,12093,0,1 F,0,12093,13500,1,0
//Storyboard Sound Samples
//Background Colour Transformations
3,100,0,0,0

[TimingPoints]
10,375,4,2,1,55,1,0

[Colours]
Combo1 : 229,69,22
Combo2 : 79,255,255
Combo3 : 0,128,255
Combo4 : 157,0,0
Combo5 : 46,83,135

[HitObjects]
256,192,12010,1,0
248,32,13510,5,8
224,40,13603,1,0
200,56,13697,1,0
176,72,13791,1,0
152,88,13885,1,8
128,104,13978,1,0
112,128,14072,1,0
104,152,14166,1,0
96,176,14260,5,8
96,200,14353,1,0
96,224,14447,1,0
104,248,14541,1,0
112,272,14635,1,8
120,296,14728,1,0
144,312,14822,1,0
168,320,14916,1,0
192,328,15010,5,4
248,336,15197,1,0
304,328,15385,2,0,C|360:264,1,70,8|0
376,256,15666,1,0
416,184,15947,1,0
416,152,16041,1,0
416,128,16135,2,0,C|336:128,1,70,8|0
288,128,16510,5,0
256,80,16697,1,0
240,24,16885,2,0,C|144:24,1,70,8|0
152,48,17166,1,0
144,128,17447,1,0
144,160,17541,1,0
144,192,17635,1,8
144,248,17822,1,0
144,304,18010,5,0
192,272,18197,1,0
240,240,18385,2,0,C|312:184,1,70,8|0
320,176,18666,1,0
360,104,18947,1,0
384,96,19041,1,0
416,96,19135,2,0,C|496:96,1,70,8|0
480,152,19510,5,0
480,208,19697,1,0
472,264,19885,2,0,C|408:328,1,70,8|0
392,320,20166,1,0
312,320,20447,1,0
280,320,20541,1,0
248,320,20635,1,8
192,320,20822,1,8
136,320,21010,5,0
136,264,21197,1,0
136,208,21385,1,8
104,160,21572,1,0
88,136,21666,1,0
88,56,21947,2,0,C|88:-8,2,35,0|0|8
144,56,22322,1,0
200,56,22510,5,0
248,88,22697,1,0
288,128,22885,2,0,C|344:176,1,70,8|0
360,192,23166,1,0
376,272,23447,1,0
368,296,23541,1,0
344,312,23635,1,8
288,312,23822,1,0
232,312,24010,5,0
232,256,24197,1,0
232,200,24385,1,8
232,144,24572,1,0
232,112,24666,1,0
232,32,24947,1,0
200,32,25041,1,0
168,32,25135,1,8
120,64,25322,1,0
88,112,25510,5,0
88,168,25697,1,0
88,224,25885,2,0,C|160:296,1,70,8|0
192,272,26260,2,0,C|240:216,1,70,8|0
296,224,26635,2,0,C|360:296,1,70,8|0
400,280,27010,5,0
400,224,27197,1,0
400,168,27385,1,8
400,56,27760,1,0
344,56,27947,1,0
344,56,28041,1,0
344,56,28135,1,8
232,56,28510,5,0
232,112,28697,1,0
232,168,28885,1,8
232,280,29260,1,0
288,280,29447,1,0
320,280,29541,1,0
344,280,29634,1,8
400,280,29822,1,0
456,280,30010,5,0
456,224,30197,1,0
456,168,30385,2,0,C|456:120|432:96,1,70,8|0
384,104,30760,1,0
328,104,30947,1,0
296,104,31041,1,0
264,104,31135,1,8
208,104,31322,1,0
152,104,31510,5,0
128,160,31697,1,0
120,216,31885,1,8
168,248,32072,1,0
224,248,32260,1,8
280,248,32447,1,0
296,272,32541,1,0
296,304,32635,1,8
312,328,32728,1,0
344,328,32822,1,8
376,328,32916,1,8
400,320,33010,5,0
416,264,33197,2,0,C|440:224|488:224,2,70,0|8|0
360,248,33760,1,0
328,200,33947,2,0,C|312:160|280:144,2,70,0|8|0
384,192,34510,5,0
408,144,34697,2,0,C|432:104|472:104,2,70,0|8|0
360,104,35260,1,0
320,64,35447,1,0
280,104,35635,1,8
240,64,35822,1,0
216,112,36010,6,0,C|192:88|192:128|160:104|160:144,1,140,0|8
96,224,36760,2,0,C|80:254|118:241|105:279|143:267,1,140,0|8
224,328,37510,5,0
240,272,37697,1,0
296,280,37885,1,8
296,224,38072,1,0
352,216,38260,1,0
344,160,38447,1,0
400,152,38635,1,8
384,96,38822,1,8
344,56,39010,5,0
232,56,39385,2,0,C|120:56,1,105,8|4
408,56,40510,5,0
408,80,40603,1,0
408,104,40697,1,0
408,128,40791,1,0
408,152,40885,2,0,C|368:224|368:232,1,70,8|0
352,232,41166,1,0
272,232,41447,1,0
248,232,41541,1,0
224,232,41635,1,8
168,232,41822,1,0
112,232,42010,5,0
96,208,42103,1,0
96,176,42197,1,0
96,144,42291,1,0
112,120,42385,2,0,C|168:56,1,70,8|0
184,48,42666,1,0
264,48,42947,1,0
296,48,43041,1,0
328,48,43135,1,8
376,80,43322,1,8
416,120,43510,5,0
432,144,43603,1,0
440,168,43697,1,0
440,200,43791,1,0
432,224,43885,2,0,C|376:272,1,70,8|0
352,288,44166,1,0
328,304,44260,1,0
304,320,44353,1,0
272,320,44447,1,0
240,320,44541,1,0
208,320,44635,2,0,C|120:288,1,70,8|0
120,280,44916,1,0
112,256,45010,5,4
104,200,45197,1,0
112,144,45385,1,4
152,104,45572,1,0
200,80,45760,1,4
256,72,45947,1,0
312,88,46135,1,4
344,136,46322,1,0
352,192,46510,5,0
352,216,46603,1,0
352,240,46697,1,0
360,264,46791,1,0
384,280,46885,2,0,C|480:256,1,70,8|0
464,240,47166,1,0
480,160,47447,1,0
480,136,47541,1,0
472,112,47635,1,8
432,72,47822,1,0
384,48,48010,5,0
360,32,48103,1,0
328,32,48197,1,0
296,32,48291,1,0
264,32,48385,2,0,C|168:32,1,70,8|0
168,32,48666,1,0
104,72,48947,1,0
80,88,49041,1,0
64,112,49135,1,8
56,168,49322,1,8
72,224,49510,6,0,C|136:272,1,70
184,264,49885,2,0,C|256:216,1,70,8|0
288,192,50260,2,0,C|216:144,1,70
184,120,50635,2,0,C|240:64,1,70,8|0
288,80,51010,5,0
312,88,51103,1,0
336,104,51197,1,0
360,120,51291,1,0
384,136,51385,2,0,C|448:208,1,70,8|0
448,208,51666,1,0
392,272,51947,1,0
344,296,52135,1,8
288,312,52322,1,0
224,320,52510,5,0
200,320,52603,1,0
176,312,52697,1,0
152,304,52791,1,0
128,296,52885,2,0,C|64:264,1,70,8|0
48,248,53166,1,0
48,168,53447,2,0,C|80:96,1,70,0|8
120,72,53822,2,0,C|200:72,1,70
216,72,54103,5,0
304,72,54385,2,0,C|368:120,1,70,8|0
384,136,54666,1,0
416,216,54947,1,0
392,264,55135,1,8
336,272,55322,1,0
280,272,55510,5,0
224,272,55697,1,0
200,264,55791,1,0
176,256,55885,1,8
136,216,56072,1,0
120,192,56166,1,0
112,168,56260,1,0
120,112,56447,1,0
160,72,56635,1,8
208,40,56822,1,0
264,40,57010,5,4
264,152,57385,1,4
264,232,57666,1,4
264,312,57947,2,0,C|168:312,1,70,0|4
136,312,58322,1,0
80,312,58510,5,2
88,200,58885,1,8
152,112,59260,1,2
248,56,59635,1,8
360,56,60010,5,2
360,168,60385,1,8
360,280,60760,1,2
264,328,61135,1,8
152,320,61510,5,2
112,280,61697,1,0
104,224,61885,1,8
104,168,62072,1,0
104,112,62260,1,2
152,88,62447,1,0
208,88,62635,1,8
264,88,62822,1,0
320,88,63010,5,8
352,136,63197,1,0
384,184,63385,1,8
416,232,63572,1,0
432,288,63760,5,8
408,304,63853,1,0
384,320,63947,1,8
360,328,64041,1,0
336,336,64135,1,8
312,344,64228,1,0
280,344,64322,1,8
248,344,64416,1,0
216,344,64510,5,4
120,48,76510,5,0
120,48,76791,1,2
120,48,77072,1,2
400,48,78010,5,0
400,48,78291,1,2
400,48,78572,1,2
400,328,79510,5,0
400,328,79791,1,2
400,328,80072,1,2
120,328,81010,5,0
120,328,81291,1,2
120,328,81572,1,2
40,56,82510,5,0
64,56,82603,1,0
88,56,82697,1,0
112,56,82791,1,0
136,56,82885,1,2
192,56,83072,1,2
464,144,84010,5,0
440,144,84103,1,0
416,144,84197,1,0
392,144,84291,1,0
368,144,84385,1,2
312,144,84572,1,2
48,240,85510,5,0
72,240,85603,1,0
96,240,85697,1,0
120,240,85791,1,0
144,240,85885,1,2
200,240,86072,1,2
472,320,87010,5,0
392,320,87291,1,0
368,320,87385,1,2
312,320,87572,1,4
64,192,88510,6,0,C|64:120,2,70,0|0|8
176,192,89260,2,0,C|176:280,2,70,0|0|8
288,192,90010,6,0,C|288:120,2,70,0|0|8
400,192,90760,2,0,C|400:264,2,70,0|0|8
400,80,91510,6,0,C|480:80,2,70,0|0|8
288,80,92260,2,0,C|288:0,2,70,0|0|8
288,192,93010,6,0,C|200:192,2,70,0|0|8
400,192,93760,2,0,C|400:288,2,70,0|0|8
400,304,94510,6,0,C|440:296|456:248,2,70,0|0|8
344,304,95072,1,0
288,304,95260,2,0,C|288:224,2,70,0|0|8
232,304,95822,1,0
176,304,96010,6,0,C|136:304|96:256,2,70,0|0|8
232,304,96572,1,0
288,304,96760,2,0,C|288:384,2,70,0|0|8
288,248,97322,1,0
288,192,97510,6,0,C|208:192,1,70
160,192,97885,2,0,C|96:144,1,70,8|0
80,96,98260,2,0,C|136:48,1,70
192,40,98635,2,0,C|280:40,1,70,8|0
320,40,99010,5,8
344,40,99103,1,0
368,48,99197,1,0
392,64,99291,1,0
416,80,99385,1,8
424,104,99478,1,0
432,128,99572,1,0
448,152,99666,1,0
456,176,99760,5,8
456,200,99853,1,0
456,224,99947,1,0
448,248,100041,1,0
432,272,100135,1,8
424,296,100228,1,0
400,312,100322,1,0
344,328,100510,5,0
232,328,100885,1,0
152,328,101166,1,4
152,272,101353,1,0
136,248,101447,1,0
120,192,101635,1,2
120,136,101822,1,0
120,112,101916,1,0
120,80,102010,5,0
176,72,102197,2,0,C|216:48|216:0,2,70,0|8|0
216,112,102760,1,0
256,152,102947,2,0,C|245:197|199:212,2,70,0|8|0
304,184,103510,5,0
352,216,103697,2,0,C|398:212|420:170,2,70,0|8|0
384,264,104260,1,0
400,320,104447,2,0,C|480:320,2,70,0|8|0
344,320,105010,5,0
288,320,105197,2,0,C|216:320,1,70,0|8
160,320,105572,1,0
104,320,105760,1,0
80,272,105947,2,0,C|48:176,1,70,0|8
48,152,106322,1,0
48,96,106510,5,0
96,64,106697,2,0,C|168:32,1,70,0|8
216,32,107072,1,0
272,32,107260,1,0
328,32,107447,2,0,C|328:136,1,70,0|8
296,144,107822,1,0
256,184,108010,5,0
216,224,108197,2,0,C|224:269|268:287,2,70,0|8|0
168,200,108760,1,0
128,160,108947,2,0,C|81:163|59:205,2,70,0|8|0
168,120,109510,5,0
216,88,109697,2,0,C|233:44|204:6,2,70,0|8|0
256,120,110260,1,0
288,168,110447,2,0,C|334:164|356:122,2,70,0|8|0
264,216,111010,5,0
224,256,111197,2,0,C|176:312,1,70,0|8
136,272,111572,1,0
96,232,111760,1,0
72,184,111947,2,0,C|24:96,1,70,0|8
40,64,112322,1,0
96,64,112510,5,8
120,80,112603,1,0
144,96,112697,1,0
168,112,112791,1,0
192,120,112885,1,8
216,128,112978,1,0
240,136,113072,1,0
272,136,113166,1,0
304,136,113260,5,8
328,128,113353,1,0
352,120,113447,1,0
376,112,113541,1,0
400,96,113635,1,8
424,88,113728,1,0
448,72,113822,1,0
472,56,113916,1,0
496,40,114010,5,0
448,144,114385,2,0,C|384:216,1,70,8|0
384,216,114666,1,0
320,264,114947,1,0
296,280,115041,1,0
272,296,115135,2,0,C|223:232,1,70,8|0
200,192,115510,5,0
184,136,115697,1,0
240,136,115885,2,0,C|335:136,1,70,8|0
336,136,116166,1,0
384,64,116447,1,0
400,88,116541,1,0
408,112,116635,1,8
400,168,116822,1,0
376,216,117010,5,0
336,256,117197,1,0
280,248,117385,2,0,C|208:192,1,70,8|0
208,184,117666,1,0
152,128,117947,1,0
136,104,118041,1,0
112,88,118135,2,0,C|32:87,1,70,8|0
40,144,118510,5,0
40,200,118697,1,0
48,256,118885,2,0,C|112:320,1,70,8|0
120,320,119166,1,0
200,320,119447,1,0
232,320,119541,1,0
264,320,119635,1,8
320,320,119822,1,8
376,320,120010,5,0
376,264,120197,1,0
376,208,120385,1,8
408,159,120572,1,0
424,136,120666,1,0
424,56,120947,2,0,C|424:-8,2,35,0|0|8
368,56,121322,1,0
312,55,121510,5,0
264,88,121697,1,0
223,127,121885,2,0,C|168:176,1,70,8|0
152,192,122166,1,0
135,271,122447,1,0
143,296,122541,1,0
167,311,122635,1,8
223,312,122822,1,0
280,311,123010,5,0
280,255,123197,1,0
280,199,123385,1,8
279,144,123572,1,0
280,120,123666,1,0
280,31,123947,1,0
312,32,124041,1,0
343,31,124135,1,8
391,64,124322,1,0
424,112,124510,5,0
423,168,124697,1,0
424,223,124885,2,0,C|352:296,1,70,8|0
320,272,125260,2,0,C|271:215,1,70,8|0
215,223,125635,2,0,C|151:296,1,70,8|0
112,279,126010,5,0
111,223,126197,1,0
111,167,126385,1,8
112,55,126760,1,0
168,55,126947,1,0
168,55,127041,1,0
168,55,127135,1,8
280,56,127510,5,0
280,111,127697,1,0
280,167,127885,1,8
280,280,128260,1,0
223,280,128447,1,0
191,280,128541,1,0
160,280,128634,1,8
104,280,128822,1,0
48,280,129010,5,0
48,224,129197,1,0
48,168,129385,2,0,C|48:120|73:96,1,70,8|0
120,104,129760,1,0
176,104,129947,1,0
208,104,130041,1,0
240,104,130135,1,8
296,104,130322,1,0
352,104,130510,5,0
376,152,130697,1,0
392,208,130885,1,8
360,248,131072,1,0
304,256,131260,1,8
248,256,131447,1,0
224,272,131541,1,0
208,296,131635,1,8
191,320,131728,1,0
168,328,131822,1,8
143,328,131916,1,8
120,328,132010,5,0
95,280,132197,2,0,C|71:240|24:240,2,70,0|8|0
144,248,132760,1,0
184,207,132947,2,0,C|200:168|232:151,2,70,0|8|0
128,192,133510,5,0
103,144,133697,2,0,C|80:103|39:103,2,70,0|8|0
151,104,134260,1,0
191,63,134447,1,0
232,104,134635,1,8
272,64,134822,1,0
295,111,135010,6,0,C|319:87|320:127|352:103|351:143,1,140,0|8
416,223,135760,2,0,C|432:253|394:241|407:279|369:266,1,140,0|8
287,328,136510,5,0
272,271,136697,1,0
216,280,136885,1,8
215,223,137072,1,0
160,216,137260,1,0
168,160,137447,1,0
111,152,137635,1,8
127,95,137822,1,8
168,55,138010,5,4
280,56,138385,1,8
368,128,138760,5,0
368,240,139135,1,8
280,312,139510,5,0
168,312,139885,1,8
80,240,140260,5,0
80,128,140635,1,8
192,128,141010,6,0,C|192:48,2,70,0|0|8
304,128,141760,2,0,C|304:208,2,70,0|0|8
416,128,142510,2,0,C|416:40,2,70,0|0|8
416,240,143260,2,0,C|416:320,2,70,0|0|4
416,128,144010,5,0
368,96,144197,2,0,C|264:96,1,70,0|8
200,56,144760,1,0
152,88,144947,2,0,C|64:88,1,70,0|8
80,200,145510,5,0
128,224,145697,2,0,C|128:304,1,70,0|8
240,304,146260,1,0
280,336,146447,2,0,C|368:336,1,70,0|8
464,336,147010,5,0
424,296,147197,2,0,C|424:192,1,70,0|8
424,168,147572,1,0
424,112,147760,5,0
384,72,147947,2,0,C|280:72,1,70,0|8
256,72,148322,1,0
200,72,148510,1,0
144,72,148697,6,0,C|56:72,1,70,0|8
32,112,149072,1,0
32,168,149260,2,0,C|32:248|40:248,1,70,8|0
32,296,149635,2,0,C|112:336,1,70,8|0
152,328,150010,1,0
