osu file format v12

[General]
AudioFilename: clear.mp3
AudioLeadIn: 0
PreviewTime: 54915
Countdown: 0
SampleSet: Soft
StackLeniency: 0.8
Mode: 0
LetterboxInBreaks: 0

[Editor]
DistanceSpacing: 1
BeatDivisor: 4
GridSize: 4

[Metadata]
Title:Sarishinohara
TitleUnicode:Sarishinohara
Artist:Clear
ArtistUnicode:Clear
Creator:kuronotsubasa
Version:Normal
Source:
Tags:
BeatmapID:216923
BeatmapSetID:76589

[Difficulty]
HPDrainRate:2
CircleSize:3
OverallDifficulty:2
ApproachRate:3
SliderMultiplier:1
SliderTickRate:2

[Events]
//Background and Video events
0,0,"1156959700680de807o(2).jpg",0,0
//Break Periods
2,82019,85268
2,147797,160379
2,242019,245713
//Storyboard Layer 0 (Background)
//Storyboard Layer 1 (Fail)
//Storyboard Layer 2 (Pass)
//Storyboard Layer 3 (Foreground)
//Storyboard Sound Samples
//Background Colour Transformations
3,100,163,162,255

[TimingPoints]
1820,444.444444444444,4,2,1,40,1,0
23153,-100,4,2,1,40,0,0
55153,-100,4,1,1,70,0,1
81819,-100,4,1,1,40,0,0
87153,-100,4,2,1,40,0,0
87253,-100,4,2,1,40,0,0
119153,-100,4,1,1,70,0,1
147597,-100,4,1,1,40,0,0
161772,-100,4,2,1,40,0,0
195540,-100,4,2,1,40,0,0
202649,-100,4,1,1,70,0,0
209819,-100,4,1,1,70,0,1
241819,-100,4,2,1,40,0,0

[Colours]
Combo1 : 255,0,0
Combo2 : 192,192,192
Combo3 : 255,128,0
Combo4 : 128,0,255

[HitObjects]
84,56,22708,1,0,0:0:0:0:
180,80,23153,2,0,P|248:76|304:84,1,100,4|0,0:0|0:0,0:0:0:0:
244,172,24042,1,0,0:0:0:0:
392,304,24931,2,0,P|304:304|272:296,1,100,2|0,0:0|0:0,0:0:0:0:
192,292,25819,1,8,0:0:0:0:
88,120,26708,6,0,P|108:80|168:56,1,100,4|0,0:0|0:0,0:0:0:0:
256,60,27597,2,0,P|328:64|360:88,1,100
280,148,28486,1,2,0:0:0:0:
468,216,29375,1,8,0:0:0:0:
272,256,30264,6,0,P|344:264|468:212,1,200,4|0,0:0|0:0,0:0:0:0:
268,172,32042,2,0,P|192:208|104:288,1,200,2|8,0:0|0:0,0:0:0:0:
208,112,33819,6,0,P|176:64|148:32,1,100,4|0,0:0|0:0,0:0:0:0:
112,128,34708,1,10,0:0:0:0:
308,96,35597,2,0,P|372:72|408:72,1,100
392,172,36486,1,8,0:0:0:0:
204,104,37375,6,0,P|148:120|92:148,1,100,4|0,0:0|0:0,0:0:0:0:
68,228,38264,1,0,0:0:0:0:
156,272,38708,1,0,0:0:0:0:
240,328,39153,2,0,P|288:292|320:252,1,100,2|0,0:0|0:0,0:0:0:0:
384,332,40042,1,8,0:0:0:0:
416,136,40931,6,0,P|392:160|336:220,1,100,4|0,0:0|0:0,0:0:0:0:
260,156,41819,2,0,P|320:188|352:212,1,100
252,240,42708,1,2,0:0:0:0:
404,112,43597,1,8,0:0:0:0:
212,52,44486,6,0,P|156:72|56:172,1,200,4|0,0:0|0:0,0:0:0:0:
216,288,46264,2,0,P|284:320|404:284,1,200,2|8,0:0|0:0,0:0:0:0:
464,212,47597,1,0,0:0:0:0:
376,160,48042,6,0,P|312:128|176:136,1,200,4|0,0:0|0:0,0:0:0:0:
112,196,49375,1,0,0:0:0:0:
152,288,49819,2,0,L|108:324,2,50,2|0|0,0:0|0:0|0:0,0:0:0:0:
196,264,50486,2,0,P|252:316|332:348,1,150
360,256,51597,6,0,B|416:180|320:24|268:172|276:228|320:264,1,300
256,192,53375,12,14,54708,0:0:0:0:
128,64,55153,5,4,0:0:0:0:
228,76,55597,2,0,P|296:88|332:104,2,100
176,164,56931,2,0,L|108:180,2,50
268,204,57819,1,0,0:0:0:0:
268,204,58264,1,8,0:0:0:0:
196,272,58708,6,0,P|260:304|296:308,2,100,4|0|0,0:0|0:0|0:0,0:0:0:0:
156,244,59819,1,0,0:0:0:0:
120,208,60042,2,0,L|100:148,1,50
84,116,60486,2,0,P|136:64|172:48,1,100
228,124,61375,2,0,P|316:128|340:144,1,100
268,216,62264,6,0,P|248:268|260:316,1,100,4|0,0:0|0:0,0:0:0:0:
344,256,63153,2,0,P|340:312|316:356,1,100
268,264,64042,2,0,P|228:192|212:172,1,100,2|2,0:0|0:0,0:0:0:0:
180,144,64708,1,0,0:0:0:0:
96,88,65153,1,8,0:0:0:0:
208,36,65597,1,8,0:0:0:0:
256,52,65819,6,0,B|332:60|384:96|404:116,1,150
460,184,66931,1,0,0:0:0:0:
388,256,67375,1,0,0:0:0:0:
308,316,67819,1,8,0:0:0:0:
208,316,68264,1,8,0:0:0:0:
116,276,68708,1,2,0:0:0:0:
116,276,69153,1,2,0:0:0:0:
144,232,69375,6,0,L|176:188,1,50,4|0,0:0|0:0,0:0:0:0:
188,144,69819,1,0,0:0:0:0:
220,76,70264,2,0,B|284:40|344:48|320:48,1,100
412,68,71153,2,0,B|436:100|456:160|456:216,1,150
428,252,72042,1,0,0:0:0:0:
428,252,72486,1,8,0:0:0:0:
380,340,72931,6,0,P|364:300|328:252,1,100,4|0,0:0|0:0,0:0:0:0:
296,220,73597,1,0,0:0:0:0:
268,180,73819,1,0,0:0:0:0:
204,104,74264,1,0,0:0:0:0:
108,84,74708,2,0,P|124:148|192:204,1,150
212,244,75597,1,0,0:0:0:0:
188,148,76042,1,0,0:0:0:0:
236,116,76486,6,0,P|284:160|320:188,2,100,4|0|2,0:0|0:0|0:0,0:0:0:0:
324,80,77819,1,2,0:0:0:0:
424,96,78264,2,0,L|464:188,1,100
436,228,78931,1,8,0:0:0:0:
376,308,79375,2,0,P|312:320|256:328,1,100
232,308,80042,5,4,0:0:0:0:
148,256,80486,2,0,P|100:292|60:300,2,100,2|2|2,0:0|0:0|0:0,0:0:0:0:
152,204,81597,2,0,P|176:188|196:184,1,50,0|14,0:0|0:0,0:0:0:0:
52,48,86708,6,0,P|56:84|64:112,1,50
88,140,87153,1,4,0:0:0:0:
124,232,87597,1,0,0:0:0:0:
204,288,88042,2,0,P|236:240|288:208,1,100
348,276,88931,2,0,P|416:264|448:236,2,100,2|0|8,0:0|0:0|0:0,0:0:0:0:
312,184,90264,1,0,0:0:0:0:
216,212,90708,6,0,P|200:172|212:112,3,100,4|0|0|0,0:0|0:0|0:0|0:0,0:0:0:0:
272,40,92486,2,0,P|324:36|380:52,1,100
428,128,93375,1,8,0:0:0:0:
428,128,93819,1,8,0:0:0:0:
448,224,94264,6,0,P|456:288|444:336,1,100
352,304,95153,2,0,P|300:336|244:344,1,100
276,244,96042,1,2,0:0:0:0:
276,244,96486,1,0,0:0:0:0:
188,288,96931,1,8,0:0:0:0:
188,288,97375,1,8,0:0:0:0:
232,200,97819,6,0,L|204:156,1,50
180,112,98264,1,0,0:0:0:0:
88,68,98708,2,0,P|104:132|128:164,1,100
116,260,99597,2,0,P|88:252|40:268,2,75,10|8|8,0:0|0:0|0:0,0:0:0:0:
252,328,100931,2,0,P|216:300|204:296,1,50
260,284,101375,5,4,0:0:0:0:
356,264,101819,1,0,0:0:0:0:
452,240,102264,1,0,0:0:0:0:
464,140,102708,2,0,P|432:120|416:104,1,50
376,96,103153,1,2,0:0:0:0:
292,40,103597,1,0,0:0:0:0:
192,48,104042,1,8,0:0:0:0:
100,84,104486,2,0,P|136:56|156:56,1,50,8|0,0:0|0:0,0:0:0:0:
168,96,104931,5,4,0:0:0:0:
172,196,105375,2,0,L|172:252,1,50
176,296,105819,1,0,0:0:0:0:
260,244,106264,1,0,0:0:0:0:
304,156,106708,1,2,0:0:0:0:
400,152,107153,1,0,0:0:0:0:
472,224,107597,2,0,P|420:264|368:272,1,100
308,332,108486,5,4,0:0:0:0:
112,288,109375,1,0,0:0:0:0:
264,160,110264,1,8,0:0:0:0:
72,100,111153,2,0,P|128:108|164:136,1,100
232,60,112042,6,0,P|284:80|320:124,1,100,4|0,0:0|0:0,0:0:0:0:
356,140,112708,1,0,0:0:0:0:
404,160,112931,2,0,P|408:228|396:256,1,100
380,304,113597,1,0,0:0:0:0:
336,328,113819,2,0,P|260:340|188:332,1,150,2|0,0:0|0:0,0:0:0:0:
36,324,115153,1,0,0:0:0:0:
124,276,115597,6,0,L|112:228,1,50,12|0,0:0|0:0,0:0:0:0:
64,84,116486,2,0,L|104:52,1,50,0|8,0:0|0:0,0:0:0:0:
288,60,117153,1,0,0:0:0:0:
336,64,117375,2,0,B|388:96|404:128|416:152,1,100
256,192,118264,12,4,119153,0:0:0:0:
228,116,119597,6,0,P|284:116|308:124,1,75,0|0,0:0|0:0,0:0:0:0:
312,100,120042,2,0,L|364:80,1,50,2|0,0:0|0:0,0:0:0:0:
408,96,120486,2,0,L|456:128,1,50,2|0,0:0|0:0,0:0:0:0:
452,172,120931,2,0,B|464:204|472:256|460:280,2,100
400,184,122042,2,0,L|352:212,1,50,0|8,0:0|0:0,0:0:0:0:
264,356,122708,6,0,P|224:332|172:332,2,100,4|0|2,0:0|0:0|0:0,0:0:0:0:
352,308,124042,1,0,0:0:0:0:
324,212,124486,2,0,P|304:142|260:78,1,150
216,56,125375,1,0,0:0:0:0:
120,76,125819,1,8,0:0:0:0:
56,156,126264,6,0,P|84:220|116:244,2,100,4|0|2,0:0|0:0|0:0,0:0:0:0:
148,192,127597,2,0,L|196:168,1,50,2|0,0:0|0:0,0:0:0:0:
244,176,128042,2,0,P|296:184|344:204,1,100
376,236,128708,2,0,P|428:252|468:280,1,100,0|8,0:0|0:0,0:0:0:0:
464,128,129819,5,0,0:0:0:0:
464,128,130486,1,0,0:0:0:0:
400,52,130931,2,0,P|352:84|324:124,2,100,0|2|2,0:0|0:0|0:0,0:0:0:0:
300,44,132264,2,0,P|264:100|236:124,1,100,2|0,0:0|0:0,0:0:0:0:
196,148,132931,1,8,0:0:0:0:
136,228,133375,6,0,P|192:216|240:224,2,100,4|0|2,0:0|0:0|0:0,0:0:0:0:
88,316,134708,2,0,P|124:288|144:280,1,50,2|0,0:0|0:0,0:0:0:0:
176,288,135153,2,0,P|228:260|260:172,1,150
248,128,136042,2,0,L|228:104,2,25
224,172,136486,1,8,0:0:0:0:
140,116,136931,6,0,P|104:88|44:72,1,100,4|0,0:0|0:0,0:0:0:0:
96,164,137819,2,0,P|108:224|100:276,1,100,2|2,0:0|0:0,0:0:0:0:
164,344,138708,2,0,P|200:296|292:268,1,150
332,252,139597,1,0,0:0:0:0:
324,152,140042,2,0,L|316:120,3,25,8|0|0|0,0:0|0:0|0:0|0:0,0:0:0:0:
324,152,140486,6,0,P|292:200|248:208,2,100,4|0|2,0:0|0:0|0:0,0:0:0:0:
288,116,141597,2,0,P|240:76|184:60,1,100
156,60,142264,1,2,0:0:0:0:
32,144,142931,1,8,0:0:0:0:
124,104,143375,2,0,P|160:120|220:156,1,100,8|0,0:0|0:0,0:0:0:0:
256,176,144042,6,0,P|316:208|360:212,3,100,0|0|2|2,0:0|0:0|0:0|0:0,0:0:0:0:
256,192,145819,12,4,147597,0:0:0:0:
96,76,161819,5,4,0:0:0:0:
196,80,162264,2,0,P|228:104|264:160,1,100
164,168,163153,2,0,P|168:228|192:276,2,100,0|2|0,0:0|0:0|0:0,0:0:0:0:
256,208,164486,1,8,0:0:0:0:
316,288,164931,1,8,0:0:0:0:
224,324,165375,6,4,P|156:284|108:212,1,150
92,184,166264,2,0,P|128:148|220:104,1,150
256,76,167153,2,0,P|320:100|388:148,1,150,2|0,0:0|0:0,0:0:0:0:
424,184,168042,2,0,B|432:232|436:252|428:288,1,100,0|8,0:0|0:0,0:0:0:0:
336,320,168931,5,4,0:0:0:0:
256,260,169375,1,0,0:0:0:0:
184,324,169819,1,0,0:0:0:0:
112,256,170264,1,0,0:0:0:0:
32,196,170708,2,0,P|56:136|120:80,1,150,2|0,0:0|0:0,0:0:0:0:
264,48,172042,1,8,0:0:0:0:
364,48,172486,6,0,P|404:144|412:200,1,150,4|0,0:0|0:0,0:0:0:0:
396,236,173375,2,0,P|344:280|248:296,1,150
216,304,174264,2,0,P|156:284|140:276,2,75,2|0|0,0:0|0:0|0:0,0:0:0:0:
268,220,175375,1,8,0:0:0:0:
212,80,176042,6,0,P|180:120|156:184,1,100,4|0,0:0|0:0,0:0:0:0:
112,172,176708,2,0,P|112:112|88:72,1,100
48,60,177375,1,0,0:0:0:0:
148,56,177819,2,0,P|200:36|344:52,1,200,2|8,0:0|0:0,0:0:0:0:
436,80,179153,1,8,0:0:0:0:
348,128,179597,5,4,0:0:0:0:
428,184,180042,1,0,0:0:0:0:
456,280,180486,1,0,0:0:0:0:
376,340,180931,1,0,0:0:0:0:
276,332,181375,2,0,P|256:280|252:256,2,75,2|0|0,0:0|0:0|0:0,0:0:0:0:
216,252,182486,2,0,P|208:224|192:188,1,50,8|8,0:0|0:0,0:0:0:0:
104,176,183153,5,4,0:0:0:0:
144,84,183597,2,0,P|196:48|240:40,2,100
240,112,184931,1,2,0:0:0:0:
328,68,185375,2,0,P|360:92|400:140,2,100
400,136,186708,6,0,P|356:180|272:220,1,150,4|0,0:0|0:0,0:0:0:0:
260,264,187597,5,0,0:0:0:0:
168,304,188042,1,0,0:0:0:0:
72,272,188486,2,0,P|64:216|76:164,1,100
72,72,189375,2,0,P|132:80|172:112,1,100
256,64,190264,6,0,P|308:104|348:180,1,150,4|0,0:0|0:0,0:0:0:0:
384,212,191153,1,0,0:0:0:0:
196,276,192042,6,0,L|232:256,4,25,4|0|0|0|0,0:0|0:0|0:0|0:0|0:0,0:0:0:0:
160,312,192708,1,10,0:0:0:0:
60,140,193597,2,0,P|16:96|0:12,2,150,8|8|8,0:0|0:0|0:0,0:0:0:0:
132,212,195375,1,2,0:0:0:0:
152,168,195597,6,0,P|176:144|252:128,1,100,4|0,0:0|0:0,0:0:0:0:
336,116,196486,2,0,P|304:148|288:160,2,50
384,204,197375,2,0,P|424:240|452:288,1,100
360,324,198264,2,0,P|304:332|256:332,1,100
276,232,199153,6,0,P|188:204|116:116,1,200,4|0,0:0|0:0,0:0:0:0:
304,44,200931,2,0,P|364:56|436:108,1,150,2|0,0:0|0:0,0:0:0:0:
448,156,201819,1,0,0:0:0:0:
356,196,202264,2,0,L|340:224,3,25,8|0|0|0,0:0|0:0|0:0|0:0,0:0:0:0:
328,236,202708,6,0,P|300:280|248:304,3,100,4|0|2|2,0:0|0:0|0:0|0:0,0:0:0:0:
168,260,204486,2,0,P|96:248|64:236,1,100,0|0,0:0|0:0,0:0:0:0:
44,92,205597,1,2,0:0:0:0:
140,68,206042,1,0,0:0:0:0:
188,72,206264,6,0,P|236:48|292:40,1,100,4|0,0:0|0:0,0:0:0:0:
332,40,206931,2,0,P|380:48|432:64,1,100,4|0,0:0|0:0,0:0:0:0:
448,160,207819,1,4,0:0:0:0:
352,188,208264,2,0,L|296:196,2,50,2|2|2,0:0|0:0|0:0,0:0:0:0:
380,232,208931,2,0,L|356:252,1,25,8|0,0:0|0:0,0:0:0:0:
400,280,209264,2,0,L|384:300,1,25,8|0,0:0|0:0,0:0:0:0:
352,336,209597,1,12,0:0:0:0:
304,336,209819,6,0,P|244:340|200:332,1,100,4|0,0:0|0:0,0:0:0:0:
108,304,210708,1,0,0:0:0:0:
56,216,211153,1,0,0:0:0:0:
128,144,211597,2,0,P|140:104|228:36,1,150
300,52,212486,1,8,0:0:0:0:
496,88,213375,5,4,0:0:0:0:
508,188,213819,1,0,0:0:0:0:
448,268,214264,2,0,P|400:228|396:224,2,50
356,308,215153,2,0,P|304:308|212:276,1,150
164,280,216042,1,8,0:0:0:0:
96,208,216486,1,0,0:0:0:0:
128,112,216931,6,0,P|168:64|220:48,2,100,4|0|2,0:0|0:0|0:0,0:0:0:0:
216,160,218264,1,0,0:0:0:0:
124,200,218708,2,0,P|172:244|212:264,1,100,8|0,0:0|0:0,0:0:0:0:
244,288,219375,1,8,0:0:0:0:
332,332,219819,1,8,0:0:0:0:
420,284,220264,1,0,0:0:0:0:
440,236,220486,5,8,0:0:0:0:
396,144,220931,1,8,0:0:0:0:
324,76,221375,5,8,0:0:0:0:
224,80,221819,1,8,0:0:0:0:
124,68,222264,2,0,P|164:128|184:148,1,100
84,152,223153,6,0,P|68:212|68:256,1,100
120,336,224042,6,0,P|164:296|200:272,1,100
288,316,224931,6,0,P|352:320|360:320,2,50
368,256,225819,6,0,P|332:248|260:256,3,100,8|8|8|8,0:0|0:0|0:0|0:0,0:0:0:0:
200,180,227597,6,0,P|156:224|140:260,2,100,4|0|2,0:0|0:0|0:0,0:0:0:0:
288,136,228931,1,0,0:0:0:0:
360,204,229375,2,0,P|388:156|460:88,1,150
360,60,230486,1,8,0:0:0:0:
260,48,230931,1,8,0:0:0:0:
216,68,231153,6,0,P|268:116|296:124,3,100,0|2|0|10,0:0|0:0|0:0|0:0,0:0:0:0:
384,168,232931,6,0,P|424:220|436:256,1,100
352,304,233819,2,0,P|296:248|272:240,1,100
176,240,234708,6,0,P|152:276|144:336,1,100,4|0,0:0|0:0,0:0:0:0:
100,240,235597,2,0,P|116:200|128:192,2,50,0|0|2,0:0|0:0|0:0,0:0:0:0:
184,292,236486,1,8,0:0:0:0:
324,348,237153,1,8,0:0:0:0:
416,308,237597,2,0,P|416:216|412:196,1,100
400,160,238264,6,0,P|344:140|280:136,3,100,0|2|2|10,0:0|0:0|0:0|0:0,0:0:0:0:
220,80,240042,6,0,L|240:132,1,50,8|0,0:0|0:0,0:0:0:0:
188,132,240486,2,0,L|184:200,1,50,8|0,0:0|0:0,0:0:0:0:
236,176,240931,2,0,L|276:232,1,50,8|0,0:0|0:0,0:0:0:0:
216,224,241375,2,0,L|180:268,1,50
220,296,241819,1,4,0:0:0:0:
288,108,247153,5,8,0:0:0:0:
188,220,247597,2,0,L|140:256,1,50,2|8,0:0|0:0,0:0:0:0:
296,280,248264,2,0,L|328:320,1,50,8|0,0:0|0:0,0:0:0:0:
256,192,248708,12,4,254264,0:0:0:0:
