osu file format v12

[General]
AudioFilename: clear.mp3
AudioLeadIn: 0
PreviewTime: 54915
Countdown: 0
SampleSet: Soft
StackLeniency: 1
Mode: 0
LetterboxInBreaks: 0

[Editor]
Bookmarks: 216112
DistanceSpacing: 2
BeatDivisor: 4
GridSize: 4

[Metadata]
Title:Sarishinohara
TitleUnicode:Sarishinohara
Artist:Clear
ArtistUnicode:Clear
Creator:kuronotsubasa
Version:Insane
Source:
Tags:
BeatmapID:215639
BeatmapSetID:76589

[Difficulty]
HPDrainRate:6
CircleSize:4
OverallDifficulty:7
ApproachRate:9
SliderMultiplier:2
SliderTickRate:2

[Events]
//Background and Video events
0,0,"1156959700680de807o(2).jpg",0,0
//Break Periods
2,82019,86108
2,147797,161220
2,242019,245886
//Storyboard Layer 0 (Background)
//Storyboard Layer 1 (Fail)
//Storyboard Layer 2 (Pass)
//Storyboard Layer 3 (Foreground)
//Storyboard Sound Samples
//Background Colour Transformations
3,100,163,162,255

[TimingPoints]
1820,444.444444444444,4,2,1,50,1,0
23147,-133.333333333333,4,2,1,50,0,0
37253,-200,4,2,1,50,0,0
38364,-133.333333333333,4,2,1,50,0,0
46140,-200,4,2,1,50,0,0
46806,-133.333333333333,4,2,1,50,0,0
50361,-200,4,2,1,50,0,0
51249,-100,4,2,1,50,0,0
54137,-200,4,2,1,50,0,0
54804,-100,4,2,1,50,0,0
55153,-100,4,1,1,70,0,1
60358,-200,4,1,1,70,0,1
61246,-100,4,1,1,70,0,1
63190,-100,4,1,1,70,0,1
63301,-100,4,1,1,70,0,1
63412,-100,4,1,1,70,0,1
63523,-100,4,1,1,70,0,1
63635,-100,4,1,1,70,0,1
63746,-100,4,1,1,70,0,1
63857,-100,4,1,1,70,0,1
63968,-100,4,1,1,70,0,1
74576,-200,4,1,1,70,0,1
75464,-100,4,1,1,70,0,1
79907,-200,4,1,1,70,0,1
81819,-100,4,1,1,50,0,0
87153,-133.333333333333,4,2,1,50,0,0
108343,-200,4,2,1,5,0,0
110343,-133.333333333333,4,2,1,50,0,0
114342,-200,4,2,1,50,0,0
115230,-133.333333333333,4,2,1,50,0,0
119153,-100,4,1,1,70,0,1
126116,-200,4,1,1,70,0,1
127227,-100,4,1,1,70,0,1
136280,-100,4,1,1,70,0,1
136391,-100,4,1,1,70,0,1
140445,-200,4,1,1,70,0,1
141486,-100,4,1,1,70,0,1
147597,-100,4,2,1,50,0,0
161772,-200,4,2,1,50,0,0
175990,-133.333333333333,4,2,1,70,0,0
187431,-133.333333333333,4,2,1,5,0,0
187653,-133.333333333333,4,2,1,13,0,0
187875,-133.333333333333,4,2,1,21,0,0
188098,-133.333333333333,4,2,1,29,0,0
188320,-133.333333333333,4,2,1,37,0,0
188542,-133.333333333333,4,2,1,45,0,0
188764,-133.333333333333,4,2,1,53,0,0
188986,-133.333333333333,4,2,1,61,0,0
189208,-133.333333333333,4,2,1,69,0,0
189431,-133.333333333333,4,2,1,77,0,0
189653,-133.333333333333,4,2,1,85,0,0
189875,-133.333333333333,4,2,1,93,0,0
190097,-133.333333333333,4,2,1,100,0,0
193429,-200,4,2,1,50,0,0
195540,-133.333333333333,4,2,1,50,0,0
199983,-133.333333333333,4,2,1,5,0,0
200705,-133.333333333333,4,2,1,50,0,0
202708,-100,4,1,1,70,0,0
209819,-100,4,1,1,70,0,1
214319,-100,4,1,1,70,0,1
214431,-100,4,1,1,70,0,1
214542,-100,4,1,1,70,0,1
214653,-100,4,1,1,70,0,1
214764,-100,4,1,1,70,0,1
214875,-100,4,1,1,70,0,1
214986,-100,4,1,1,70,0,1
215134,-100,4,1,1,70,0,1
241819,-100,4,1,1,50,0,0
246486,-100,4,2,1,50,0,0

[Colours]
Combo1 : 255,0,0
Combo2 : 192,192,192
Combo3 : 255,128,0
Combo4 : 128,0,255

[HitObjects]
108,80,22708,1,0,0:0:0:0:
296,152,22931,1,0,0:0:0:0:
148,188,23153,2,0,P|188:276|248:328,1,150.000005722046,4|0,0:0|0:0,0:0:0:0:
148,188,23819,1,0,0:0:0:0:
388,212,24042,2,0,P|468:132|484:96,1,150.000005722046,2|0,0:0|0:0,0:0:0:0:
388,212,24708,1,0,0:0:0:0:
248,156,24931,1,0,0:0:0:0:
116,88,25153,1,0,0:0:0:0:
248,156,25375,2,0,L|304:196,1,37.5000014305115,8|8,0:0|0:0,0:0:0:0:
116,88,25708,2,0,L|76:60,1,37.5000014305115,8|8,0:0|0:0,0:0:0:0:
92,292,26042,6,0,P|120:340|148:360,2,75.0000028610231
216,192,26708,2,0,P|240:240|248:336,1,150.000005722046,4|0,0:0|0:0,0:0:0:0:
272,188,27375,1,0,0:0:0:0:
316,332,27597,2,0,P|312:244|352:172,1,150.000005722046,2|0,0:0|0:0,0:0:0:0:
256,316,28264,1,0,0:0:0:0:
108,284,28486,2,0,P|100:216|88:192,1,75.0000028610231
232,200,28931,2,8,L|196:232,1,37.5000014305115
336,152,29264,2,8,L|368:120,1,37.5000014305115
216,100,29597,2,0,P|168:72|132:64,1,75.0000028610231
356,276,30042,1,0,0:0:0:0:
244,336,30264,6,0,L|296:272,1,75.0000028610231
291,277,30597,1,0,0:0:0:0:
220,260,30708,2,0,L|160:208,1,75.0000028610231
163,210,31042,1,0,0:0:0:0:
236,192,31153,2,0,L|296:120,1,75.0000028610231
284,134,31486,1,0,0:0:0:0:
216,108,31597,2,0,L|172:44,1,75.0000028610231
324,56,32042,2,0,L|292:32,2,37.5000014305115
424,168,32486,2,0,L|472:220,1,37.5000014305115
360,316,32819,1,0,0:0:0:0:
428,348,32931,1,0,0:0:0:0:
328,236,33153,5,0,0:0:0:0:
228,124,33375,1,8,0:0:0:0:
328,236,33597,1,8,0:0:0:0:
96,300,33819,1,4,0:0:0:0:
328,236,34042,1,0,0:0:0:0:
284,160,34264,2,0,L|232:80,1,75.0000028610231
72,312,34708,2,0,L|104:236,1,75.0000028610231
392,184,35153,2,0,L|420:268,1,75.0000028610231
272,296,35597,1,8,0:0:0:0:
136,148,35819,1,8,0:0:0:0:
272,296,36042,2,0,L|232:264,1,37.5000014305115
136,148,36375,2,0,L|172:180,1,37.5000014305115
292,116,36708,1,0,0:0:0:0:
256,56,36931,6,0,P|212:76|184:108,1,75.0000028610231
224,188,37375,2,0,B|264:172|296:188|328:184,2,100,4|0|2,0:0|0:0|0:0,0:0:0:0:
60,340,38708,2,0,P|48:284|56:260,1,75.0000028610231
140,148,39153,1,0,0:0:0:0:
284,104,39375,1,0,0:0:0:0:
268,252,39597,1,0,0:0:0:0:
268,252,39708,1,0,0:0:0:0:
268,252,39819,2,0,L|248:192,1,37.5000014305115
224,148,40042,1,0,0:0:0:0:
204,296,40264,5,0,0:0:0:0:
340,236,40486,1,0,0:0:0:0:
340,236,40597,1,0,0:0:0:0:
340,236,40708,2,0,L|404:248,1,37.5000014305115
316,148,40931,2,0,P|280:92|248:60,1,112.500004291535
172,64,41375,2,0,L|244:60,1,37.5000014305115
136,196,41819,2,0,P|68:144|48:120,1,112.500004291535
48,48,42264,2,0,L|48:88,1,37.5000014305115
268,128,42708,1,0,0:0:0:0:
264,280,42931,2,0,L|352:256,1,75.0000028610231
268,128,43375,2,0,L|184:164,1,75.0000028610231
412,192,43819,1,0,0:0:0:0:
104,192,44042,1,0,0:0:0:0:
256,192,44264,1,0,0:0:0:0:
256,192,44486,6,0,P|256:148|276:116,2,75.0000028610231,4|0|0,0:0|0:0|0:0,0:0:0:0:
104,192,45153,2,0,L|156:192,1,37.5000014305115
200,144,45375,2,0,L|264:200,1,75.0000028610231
52,324,45819,2,0,L|136:280,1,75.0000028610231
388,264,46264,2,0,B|372:224|340:216|344:172,1,100
300,32,46931,1,0,0:0:0:0:
312,68,47042,2,0,L|328:116,1,37.5000014305115
180,148,47375,6,0,P|224:88|252:72,2,75.0000028610231,8|8|8,0:0|0:0|0:0,0:0:0:0:
324,184,48042,2,0,B|372:252|372:252|328:304,1,150.000005722046
180,288,48708,1,0,0:0:0:0:
152,264,48819,1,0,0:0:0:0:
136,228,48931,1,0,0:0:0:0:
132,192,49042,1,0,0:0:0:0:
140,156,49153,1,0,0:0:0:0:
264,48,49375,2,0,L|312:96,1,37.5000014305115
316,100,49597,1,0,0:0:0:0:
420,144,49819,1,8,0:0:0:0:
264,48,50042,1,8,0:0:0:0:
144,92,50264,1,8,0:0:0:0:
176,188,50486,2,0,B|140:236|160:300|136:332,1,150
256,192,51597,12,12,52931,0:0:0:0:
152,160,53375,5,8,0:0:0:0:
352,160,53597,5,8,0:0:0:0:
188,280,53819,5,8,0:0:0:0:
256,88,54042,5,8,0:0:0:0:
324,280,54264,6,0,P|348:340|380:368,1,100
372,364,54931,1,12,0:0:0:0:
344,72,55153,6,0,P|336:136|320:176,1,100
168,312,55597,2,0,P|176:248|192:208,1,100
384,244,56042,2,0,P|348:188|312:164,1,100,0|2,0:0|0:0,0:0:0:0:
256,192,56375,1,0,0:0:0:0:
192,216,56486,2,0,P|228:272|264:296,1,100,0|2,0:0|0:0,0:0:0:0:
80,196,56931,6,0,P|124:156|176:136,1,100,4|0,0:0|0:0,0:0:0:0:
348,68,57375,2,0,P|368:128|368:184,1,100
424,248,57708,1,0,0:0:0:0:
352,316,57819,1,0,0:0:0:0:
252,324,57931,1,0,0:0:0:0:
164,368,58042,2,0,P|236:328|276:316,2,100,2|10|2,0:0|0:0|0:0,0:0:0:0:
224,160,58708,2,0,L|164:100,1,50
288,224,58931,2,0,L|348:284,1,50
292,160,59153,2,0,L|348:116,1,50
220,224,59375,2,0,L|164:268,1,50
120,176,59597,2,0,B|112:120|92:64|88:60,1,100
196,64,59931,1,0,0:0:0:0:
296,80,60042,1,0,0:0:0:0:
392,112,60153,1,0,0:0:0:0:
452,164,60264,2,0,P|432:128|404:104,1,50
452,164,60486,6,0,P|368:100|312:84,1,150,4|0,0:0|0:0,0:0:0:0:
104,44,61375,2,0,P|152:92|196:104,1,100,0|2,0:0|0:0,0:0:0:0:
360,188,61819,2,0,L|412:248,1,50
296,248,62042,2,0,L|256:208,1,50
420,136,62264,2,0,L|328:44,1,100
80,296,62708,2,0,P|132:240|172:216,1,100
151,227,63042,1,0,0:0:0:0:
180,132,63153,2,0,L|244:72,1,50
300,156,63375,2,0,L|272:88,1,50
80,112,63597,2,0,L|128:88,1,50
384,196,63819,2,0,L|348:140,1,50
292,80,64042,6,0,P|176:44|128:48,1,150,4|0,0:0|0:0,0:0:0:0:
168,144,64486,1,0,0:0:0:0:
48,104,64708,1,0,0:0:0:0:
48,104,65153,1,2,0:0:0:0:
228,341,65597,1,2,0:0:0:0:
428,312,65819,6,0,P|448:208|436:112,1,200,8|0,0:0|0:0,0:0:0:0:
400,60,66486,2,0,P|284:76|200:120,1,200,8|0,0:0|0:0,0:0:0:0:
112,244,67375,2,0,P|72:280|68:300,2,50,0|0|4,0:0|0:0|0:0,0:0:0:0:
300,316,67819,1,2,0:0:0:0:
464,200,68042,1,2,0:0:0:0:
320,60,68264,1,2,0:0:0:0:
40,348,68708,1,2,0:0:0:0:
52,148,68931,1,2,0:0:0:0:
184,240,69153,1,2,0:0:0:0:
224,252,69264,1,0,0:0:0:0:
260,264,69375,6,0,P|352:236|364:220,1,100,4|0,0:0|0:0,0:0:0:0:
404,76,69819,1,0,0:0:0:0:
368,60,69931,1,0,0:0:0:0:
328,60,70042,1,0,0:0:0:0:
288,60,70153,1,0,0:0:0:0:
248,64,70264,2,0,P|180:68|148:92,1,100,0|2,0:0|0:0,0:0:0:0:
120,104,70597,1,0,0:0:0:0:
92,132,70708,2,0,P|108:188|156:208,1,100,10|2,0:0|0:0,0:0:0:0:
184,204,71042,1,0,0:0:0:0:
224,212,71153,6,0,P|258:260|254:304,1,100,4|0,0:0|0:0,0:0:0:0:
400,336,71597,1,0,0:0:0:0:
360,328,71708,1,0,0:0:0:0:
324,312,71819,1,0,0:0:0:0:
300,280,71931,1,0,0:0:0:0:
300,240,72042,2,0,P|356:224|388:164,1,100,0|2,0:0|0:0,0:0:0:0:
412,168,72375,1,0,0:0:0:0:
432,132,72486,2,0,P|404:80|412:24,1,100,10|2,0:0|0:0,0:0:0:0:
176,120,72931,6,0,L|108:44,2,100,4|0|0,0:0|0:0|0:0,0:0:0:0:
200,164,73597,2,0,P|160:108|136:100,1,50
272,96,73819,1,0,0:0:0:0:
124,228,74042,1,2,0:0:0:0:
320,184,74264,1,10,0:0:0:0:
164,312,74486,1,2,0:0:0:0:
260,284,74708,6,0,B|300:272|340:308|408:252,1,150,4|0,0:0|0:0,0:0:0:0:
216,180,75597,2,0,L|112:172,1,100,0|2,0:0|0:0,0:0:0:0:
340,100,76042,1,10,0:0:0:0:
340,100,76153,1,0,0:0:0:0:
340,100,76264,1,2,0:0:0:0:
340,100,76375,1,0,0:0:0:0:
340,100,76486,6,0,P|408:140|424:168,1,100,4|0,0:0|0:0,0:0:0:0:
276,296,76931,2,0,P|200:264|176:232,1,100
156,224,77264,1,0,0:0:0:0:
120,188,77375,2,0,P|84:120|60:100,1,100,0|2,0:0|0:0,0:0:0:0:
256,44,77819,2,0,P|268:128|296:160,1,100,10|2,0:0|0:0,0:0:0:0:
428,268,78264,6,0,P|344:272|268:356,1,200,4|0,0:0|0:0,0:0:0:0:
268,353,78931,1,14,0:0:0:0:
48,20,79375,2,2,P|148:64|216:136,1,200,10|2,0:0|0:0,0:0:0:0:
272,208,80042,2,0,P|396:212|284:244,1,350,0|0,0:0|0:0,0:0:0:0:
272,208,81819,1,14,0:0:0:0:
172,72,86708,6,0,P|116:104|96:140,1,100
228,60,87153,1,4,0:0:0:0:
84,268,87597,1,0,0:0:0:0:
384,268,88042,1,0,0:0:0:0:
340,124,88264,2,0,P|332:200|336:208,1,75.0000028610231
236,312,88708,1,0,0:0:0:0:
188,176,88931,2,0,P|176:104|184:80,2,75.0000028610231,2|0|0,0:0|0:0|0:0,0:0:0:0:
319,103,89597,1,8,0:0:0:0:
352,252,89819,1,8,0:0:0:0:
404,128,90042,1,8,0:0:0:0:
436,224,90264,1,8,0:0:0:0:
480,160,90486,1,8,0:0:0:0:
424,300,90708,6,0,P|360:340|328:336,1,75.0000028610231,4|0,0:0|0:0,0:0:0:0:
252,240,91153,2,0,P|224:324|228:332,1,75.0000028610231
192,316,91486,1,0,0:0:0:0:
152,328,91597,2,0,P|132:272|104:252,1,75.0000028610231
152,328,92042,2,0,P|104:312|64:328,1,75.0000028610231
64,168,92486,2,0,P|56:132|56:120,4,37.5000014305115,2|0|0|0|0,0:0|0:0|0:0|0:0|0:0,0:0:0:0:
208,124,93153,1,8,0:0:0:0:
332,136,93375,1,8,0:0:0:0:
172,76,93597,1,8,0:0:0:0:
360,188,93819,1,8,0:0:0:0:
132,28,94042,1,8,0:0:0:0:
392,236,94264,5,4,0:0:0:0:
28,340,94708,1,0,0:0:0:0:
28,340,94819,1,0,0:0:0:0:
28,340,94931,1,0,0:0:0:0:
28,340,95042,1,0,0:0:0:0:
28,340,95153,2,0,P|84:300|88:288,1,75.0000028610231
116,152,95597,2,0,P|84:212|80:240,1,75.0000028610231
216,288,96042,2,0,P|240:228|240:204,1,75.0000028610231,2|0,0:0|0:0,0:0:0:0:
292,76,96486,2,0,P|264:144|264:156,1,75.0000028610231
256,168,96819,1,0,0:0:0:0:
252,204,96931,2,0,P|292:244|312:252,1,75.0000028610231,0|8,0:0|0:0,0:0:0:0:
184,336,97375,2,0,P|144:294|124:286,1,75.0000028610231,8|8,0:0|0:0,0:0:0:0:
52,160,97819,5,4,0:0:0:0:
280,356,98264,1,8,0:0:0:0:
408,84,98708,1,8,0:0:0:0:
172,268,99153,1,0,0:0:0:0:
256,192,99597,12,6,100931,0:0:0:0:
136,80,101375,6,0,L|136:196,1,112.500004291535,4|0,0:0|0:0,0:0:0:0:
136,268,101819,1,0,0:0:0:0:
136,80,102042,1,8,0:0:0:0:
212,212,102264,2,0,L|212:68,1,112.500004291535
212,24,102708,1,0,0:0:0:0:
212,212,102931,1,8,0:0:0:0:
328,116,103153,2,0,P|392:92|408:92,2,75.0000028610231,2|0|0,0:0|0:0|0:0,0:0:0:0:
300,264,103819,1,8,0:0:0:0:
156,312,104042,1,8,0:0:0:0:
224,176,104264,1,8,0:0:0:0:
132,172,104486,1,8,0:0:0:0:
176,84,104708,1,8,0:0:0:0:
324,72,104931,6,0,P|384:116|408:152,1,112.500004291535,4|0,0:0|0:0,0:0:0:0:
428,220,105375,2,0,P|416:272|400:292,1,75.0000028610231,0|8,0:0|0:0,0:0:0:0:
260,332,105819,2,0,P|272:272|256:232,2,75.0000028610231
184,332,106486,2,0,P|124:240|116:192,1,150.000005722046,8|0,0:0|0:0,0:0:0:0:
96,52,107153,1,0,0:0:0:0:
117,204,107375,1,8,0:0:0:0:
180,100,107597,2,0,L|240:68,1,37.5000014305115,8|0,0:0|0:0,0:0:0:0:
276,40,107819,1,8,0:0:0:0:
228,176,108042,1,8,0:0:0:0:
296,148,108153,2,0,L|348:116,1,37.5000014305115,0|8,0:0|0:0,0:0:0:0:
404,192,108486,6,0,B|308:220|232:300|216:300,2,200,4|0|0,0:0|0:0|0:0,0:0:0:0:
156,196,111375,2,0,P|140:124|96:56,1,150.000005722046,2|0,0:0|0:0,0:0:0:0:
240,112,112042,6,0,P|328:72|360:64,1,112.500004291535,4|0,0:0|0:0,0:0:0:0:
416,44,112486,1,0,0:0:0:0:
240,112,112708,1,8,0:0:0:0:
348,216,112931,2,0,P|252:248|224:280,1,112.500004291535
184,300,113375,1,0,0:0:0:0:
348,216,113597,1,8,0:0:0:0:
208,164,113819,2,0,L|152:144,4,37.5000014305115,2|0|0|0|0,0:0|0:0|0:0|0:0|0:0,0:0:0:0:
296,308,114486,2,0,P|388:272|436:232,1,150,0|8,0:0|0:0,0:0:0:0:
204,148,115597,5,4,0:0:0:0:
352,124,115819,5,8,0:0:0:0:
352,124,116264,5,0,0:0:0:0:
204,148,116486,5,2,0:0:0:0:
140,284,116708,5,8,0:0:0:0:
256,192,117153,12,4,118708,0:0:0:0:
92,76,118931,5,0,0:0:0:0:
292,84,119153,2,0,P|336:48|384:44,2,100,4|0|0,0:0|0:0|0:0,0:0:0:0:
108,164,119819,1,0,0:0:0:0:
52,356,120042,2,0,P|96:272|108:264,1,100,0|2,0:0|0:0,0:0:0:0:
124,248,120375,1,0,0:0:0:0:
152,228,120486,2,0,P|200:180|216:136,1,100,10|2,0:0|0:0,0:0:0:0:
392,60,120931,6,0,P|400:120|400:160,2,100,4|0|0,0:0|0:0|0:0,0:0:0:0:
316,244,121597,1,0,0:0:0:0:
316,244,121708,1,0,0:0:0:0:
316,244,121819,1,0,0:0:0:0:
316,244,121931,1,0,0:0:0:0:
316,244,122042,1,2,0:0:0:0:
316,244,122264,2,0,P|292:184|256:148,1,100,10|2,0:0|0:0,0:0:0:0:
96,56,122708,6,0,P|64:132|68:156,1,100,4|0,0:0|0:0,0:0:0:0:
160,324,123153,2,0,P|204:240|204:216,1,100
208,208,123486,1,0,0:0:0:0:
216,172,123597,2,0,P|240:108|284:80,1,100,0|2,0:0|0:0,0:0:0:0:
464,96,124042,1,10,0:0:0:0:
336,252,124264,1,2,0:0:0:0:
156,340,124486,6,0,P|116:292|112:256,2,100,4|0|0,0:0|0:0|0:0,0:0:0:0:
108,148,125153,2,0,L|76:100|76:100,2,50
196,100,125486,2,0,L|244:56,1,50,0|2,0:0|0:0,0:0:0:0:
252,264,125819,2,0,P|228:180|204:152,1,100,10|2,0:0|0:0,0:0:0:0:
221,170,126264,6,0,B|236:124|236:124|304:156|384:100,1,200,4|0,0:0|0:0,0:0:0:0:
384,304,127375,1,2,0:0:0:0:
384,304,127597,1,10,0:0:0:0:
384,304,127819,1,2,0:0:0:0:
184,328,128042,6,0,P|180:256|164:220,1,100,4|0,0:0|0:0,0:0:0:0:
44,76,128486,1,0,0:0:0:0:
240,116,128708,1,0,0:0:0:0:
240,116,128819,1,0,0:0:0:0:
240,116,128931,1,0,0:0:0:0:
240,116,129042,1,0,0:0:0:0:
240,116,129153,1,2,0:0:0:0:
240,116,129375,2,0,P|280:152|304:204,1,100,10|2,0:0|0:0,0:0:0:0:
424,36,129819,6,0,P|352:100|328:160,1,150,4|0,0:0|0:0,0:0:0:0:
284,232,130264,2,0,P|312:168|336:144,1,100
332,148,130931,1,2,0:0:0:0:
404,280,131375,6,0,P|424:300|428:328,2,50,0|0|4,0:0|0:0|0:0,0:0:0:0:
208,316,131819,1,2,0:0:0:0:
108,144,132042,1,2,0:0:0:0:
308,152,132264,1,2,0:0:0:0:
460,64,132708,1,2,0:0:0:0:
392,252,132931,1,2,0:0:0:0:
376,288,133042,1,0,0:0:0:0:
348,316,133153,1,2,0:0:0:0:
312,328,133264,1,0,0:0:0:0:
272,328,133375,5,4,0:0:0:0:
232,320,133597,2,0,P|176:296|136:264,1,100
84,44,134153,1,0,0:0:0:0:
180,72,134264,2,0,P|128:132|92:148,1,100,0|2,0:0|0:0,0:0:0:0:
32,324,134708,2,0,P|48:248|72:212,1,100,10|2,0:0|0:0,0:0:0:0:
256,192,135153,6,0,P|184:196|112:228,1,150,4|0,0:0|0:0,0:0:0:0:
113,227,135597,1,0,0:0:0:0:
308,152,135819,2,0,L|356:120,1,50
328,220,136042,2,0,L|364:268,1,50
396,168,136264,2,0,L|456:152,1,50,2|0,0:0|0:0,0:0:0:0:
440,256,136486,2,0,P|416:312|384:344,1,100,10|2,0:0|0:0,0:0:0:0:
204,264,136931,5,4,0:0:0:0:
244,48,137153,1,0,0:0:0:0:
440,96,137375,1,0,0:0:0:0:
388,288,137597,1,0,0:0:0:0:
208,200,137819,1,0,0:0:0:0:
300,24,138042,1,2,0:0:0:0:
476,120,138264,1,10,0:0:0:0:
348,272,138486,1,2,0:0:0:0:
224,116,138708,6,0,P|104:164|52:320,1,300,4|0,0:0|0:0,0:0:0:0:
232,232,139597,2,0,P|180:260|136:264,1,100,0|2,0:0|0:0,0:0:0:0:
316,168,140042,2,0,L|352:120,1,50,10|0,0:0|0:0,0:0:0:0:
420,196,140264,2,0,L|360:128,1,50,2|0,0:0|0:0,0:0:0:0:
328,312,140486,6,0,B|284:276|284:276|244:288|224:292,2,100,4|0|0,0:0|0:0|0:0,0:0:0:0:
244,288,141597,2,0,P|210:209|238:85,1,200,2|2,0:0|0:0,0:0:0:0:
228,100,142264,2,0,P|274:169|242:265,1,150,8|0,0:0|0:0,0:0:0:0:
244,288,142708,1,8,0:0:0:0:
265,232,142931,1,8,0:0:0:0:
312,80,143375,1,2,0:0:0:0:
468,204,143597,1,2,0:0:0:0:
320,340,143819,1,2,0:0:0:0:
180,196,144042,5,4,0:0:0:0:
468,204,144486,2,0,P|420:172|364:172,1,100
180,196,144931,1,10,0:0:0:0:
180,196,145264,1,10,0:0:0:0:
452,320,145597,1,4,0:0:0:0:
408,252,145708,1,4,0:0:0:0:
340,204,145820,1,4,0:0:0:0:
384,96,146708,6,0,P|328:132|304:164,1,100,4|0,0:0|0:0,0:0:0:0:
136,260,147153,2,0,P|128:208|120:196,2,50,10|10|10,0:0|0:0|0:0,0:0:0:0:
332,308,147597,1,4,0:0:0:0:
420,312,161820,6,0,P|364:256|348:228,1,100,4|0,0:0|0:0,0:0:0:0:
312,148,162486,1,8,0:0:0:0:
232,88,162708,2,0,P|252:172|252:200,1,100
252,185,163375,1,8,0:0:0:0:
180,256,163597,1,2,0:0:0:0:
112,332,163820,1,0,0:0:0:0:
40,264,164042,1,0,0:0:0:0:
104,188,164264,2,0,L|128:136,2,50,8|8|8,0:0|0:0|0:0,0:0:0:0:
148,96,164931,1,8,0:0:0:0:
148,96,165153,1,8,0:0:0:0:
248,104,165375,6,0,P|232:68|224:56,1,50,4|0,0:0|0:0,0:0:0:0:
324,172,165820,2,0,P|336:132|352:120,1,50,0|8,0:0|0:0,0:0:0:0:
336,276,166264,2,0,P|372:264|396:272,1,50
236,300,166708,2,0,P|196:312|180:328,1,50,0|8,0:0|0:0,0:0:0:0:
96,280,167153,1,2,0:0:0:0:
96,280,167375,1,0,0:0:0:0:
96,280,167597,1,8,0:0:0:0:
96,280,167820,2,0,P|72:216|124:92,1,200,0|8,0:0|0:0,0:0:0:0:
208,60,168931,5,4,0:0:0:0:
404,92,169375,2,0,P|424:144|420:152,1,50,0|8,0:0|0:0,0:0:0:0:
384,228,169820,1,0,0:0:0:0:
204,316,170264,2,0,L|192:264,1,50,0|8,0:0|0:0,0:0:0:0:
96,236,170708,1,2,0:0:0:0:
168,168,170931,1,0,0:0:0:0:
52,280,171153,1,0,0:0:0:0:
216,128,171375,1,0,0:0:0:0:
260,80,171597,2,0,P|312:80|328:84,3,50,0|8|8|8,0:0|0:0|0:0|0:0,0:0:0:0:
296,180,172486,5,4,0:0:0:0:
396,200,172708,2,0,P|412:156|412:136,1,50
372,244,173153,1,8,0:0:0:0:
304,316,173375,2,0,P|248:268|208:256,1,100
124,252,174042,2,0,L|164:240,1,25,8|0,0:0|0:0,0:0:0:0:
196,232,174264,1,12,0:0:0:0:
196,232,174486,1,8,0:0:0:0:
196,232,174708,1,8,0:0:0:0:
140,148,174931,2,0,P|208:156|256:144,1,100,0|8,0:0|0:0,0:0:0:0:
412,64,176042,5,4,0:0:0:0:
324,352,176486,2,0,P|320:312|320:304,1,37.5000014305115
320,314,176708,2,0,P|308:240|268:168,1,150.000005722046
200,44,177375,1,0,0:0:0:0:
200,44,177597,1,8,0:0:0:0:
104,160,177820,2,0,P|124:112|148:92,1,75.0000028610231,2|0,0:0|0:0,0:0:0:0:
120,244,178264,2,0,P|68:200|40:188,1,75.0000028610231
192,272,178708,1,0,0:0:0:0:
328,332,178931,1,8,0:0:0:0:
192,272,179153,1,8,0:0:0:0:
316,184,179375,1,8,0:0:0:0:
420,72,179597,6,0,P|356:48|328:44,1,75.0000028610231,4|0,0:0|0:0,0:0:0:0:
208,100,180042,2,0,P|152:104|116:120,1,75.0000028610231
108,116,180375,1,8,0:0:0:0:
72,128,180486,2,0,P|44:80|28:64,2,75.0000028610231
84,276,181153,1,8,0:0:0:0:
228,276,181375,2,0,P|296:268|300:256,2,75.0000028610231,2|0|0,0:0|0:0|0:0,0:0:0:0:
376,308,182042,1,0,0:0:0:0:
408,296,182153,1,0,0:0:0:0:
436,280,182264,2,0,P|448:216|436:192,3,75.0000028610231,0|8|8|8,0:0|0:0|0:0|0:0,0:0:0:0:
348,96,183153,5,4,0:0:0:0:
204,56,183375,2,0,P|156:64|120:96,1,75.0000028610231
264,152,183820,1,8,0:0:0:0:
184,280,184042,1,8,0:0:0:0:
208,132,184264,1,8,0:0:0:0:
244,276,184486,1,8,0:0:0:0:
324,152,184708,2,0,P|400:140|416:124,1,75.0000028610231,8|2,0:0|0:0,0:0:0:0:
308,264,185153,2,0,P|332:296|344:348,2,75.0000028610231
348,56,185820,2,0,P|296:112|288:200,1,150.000005722046,8|8,0:0|0:0,0:0:0:0:
456,332,186708,6,0,P|432:264|360:112,1,225.000008583069,4|0,0:0|0:0,0:0:0:0:
216,128,187597,5,8,0:0:0:0:
192,232,187819,1,8,0:0:0:0:
296,256,188042,1,8,0:0:0:0:
320,152,188264,1,8,0:0:0:0:
284,96,188486,5,8,0:0:0:0:
160,164,188708,1,8,0:0:0:0:
228,288,188931,1,8,0:0:0:0:
352,220,189153,1,8,0:0:0:0:
392,152,189375,5,8,0:0:0:0:
216,56,189597,1,8,0:0:0:0:
120,232,189819,1,8,0:0:0:0:
296,328,190042,1,8,0:0:0:0:
444,308,190264,6,0,P|440:248|468:160,1,150.000005722046,4|0,0:0|0:0,0:0:0:0:
356,64,190931,1,8,0:0:0:0:
212,100,191153,2,0,P|256:60|276:48,1,75.0000028610231
216,192,191597,2,0,P|272:212|304:216,1,75.0000028610231,0|0,0:0|0:0,0:0:0:0:
152,152,192042,6,0,P|128:120|124:112,2,37.5000014305115,2|0|0,0:0|0:0|0:0,0:0:0:0:
84,196,192375,2,0,L|72:232,1,37.5000014305115
186,327,192708,1,8,0:0:0:0:
452,184,193153,2,0,P|392:212|368:244,1,75.0000028610231
256,192,193597,2,0,P|248:112|288:56,2,150,4|8|8,0:0|0:0|0:0,0:0:0:0:
256,192,195375,5,10,0:0:0:0:
124,128,195597,2,0,P|168:128|216:112,2,75.0000028610231,0|0|4,0:0|0:0|0:0,0:0:0:0:
384,280,196486,1,0,0:0:0:0:
452,148,196708,1,0,0:0:0:0:
336,240,196931,1,0,0:0:0:0:
336,92,197153,2,0,P|328:128|324:136,1,37.5000014305115
280,188,197375,2,0,P|244:140|224:128,2,75.0000028610231,8|0|0,0:0|0:0|0:0,0:0:0:0:
220,328,198264,2,0,P|244:288|252:256,2,75.0000028610231,8|0|0,0:0|0:0|0:0,0:0:0:0:
92,252,198931,2,0,L|72:216,2,37.5000014305115,0|0|0,0:0|0:0|0:0,0:0:0:0:
204,148,199375,6,0,P|180:196|156:216,1,75.0000028610231,0|8,0:0|0:0,0:0:0:0:
432,76,200042,1,8,0:0:0:0:
324,180,200264,1,8,0:0:0:0:
480,36,200486,1,8,0:0:0:0:
280,224,200708,1,8,0:0:0:0:
80,192,200931,2,0,P|72:136|40:48,1,150.000005722046,8|0,0:0|0:0,0:0:0:0:
264,56,201708,1,0,0:0:0:0:
228,120,201819,2,0,L|208:152,1,37.5000014305115,8|0,0:0|0:0,0:0:0:0:
208,300,202153,2,0,L|256:284,1,37.5000014305115,0|8,0:0|0:0,0:0:0:0:
392,296,202486,2,0,L|372:256,1,37.5000014305115
344,168,202708,6,0,P|348:104|324:76,2,100,4|0|0,0:0|0:0|0:0,0:0:0:0:
160,248,203375,1,0,0:0:0:0:
160,248,203486,1,0,0:0:0:0:
160,248,203597,2,0,P|136:188|112:152,1,100,0|2,0:0|0:0,0:0:0:0:
176,48,204042,2,0,P|192:116|216:156,1,100,10|2,0:0|0:0,0:0:0:0:
404,140,204486,6,0,P|344:184|324:212,1,100,4|0,0:0|0:0,0:0:0:0:
312,228,204819,1,0,0:0:0:0:
288,256,204931,2,0,P|240:308|192:320,1,100
184,332,205264,1,0,0:0:0:0:
148,340,205375,1,0,0:0:0:0:
52,164,205597,1,2,0:0:0:0:
148,340,205819,1,10,0:0:0:0:
216,152,206042,1,2,0:0:0:0:
216,152,206264,6,0,P|156:80|52:48,1,200,4|0,0:0|0:0,0:0:0:0:
216,152,206931,1,4,0:0:0:0:
216,152,207375,1,4,0:0:0:0:
216,152,207819,1,4,0:0:0:0:
368,152,208264,1,2,0:0:0:0:
204,268,208486,1,2,0:0:0:0:
312,100,208708,1,2,0:0:0:0:
268,296,208931,2,0,L|280:344,1,50,12|0,0:0|0:0,0:0:0:0:
240,100,209264,2,0,L|216:48,1,50,12|0,0:0|0:0,0:0:0:0:
219,54,209597,1,4,0:0:0:0:
64,180,209819,6,0,P|72:236|88:280,1,100,4|0,0:0|0:0,0:0:0:0:
112,80,210264,2,0,P|132:184|156:232,1,150
200,312,210708,1,0,0:0:0:0:
264,124,210931,1,2,0:0:0:0:
264,288,211153,1,10,0:0:0:0:
308,180,211375,1,2,0:0:0:0:
352,252,211597,6,0,P|412:236|452:208,2,100,4|0|0,0:0|0:0|0:0,0:0:0:0:
416,80,212264,1,0,0:0:0:0:
380,68,212375,2,0,L|320:56,1,50
330,58,212597,2,0,L|272:72,1,50,0|2,0:0|0:0,0:0:0:0:
88,120,212931,2,0,P|148:96|192:88,1,100,10|2,0:0|0:0,0:0:0:0:
76,260,213375,6,0,P|124:192|152:176,2,100,4|0|0,0:0|0:0|0:0,0:0:0:0:
260,336,214042,1,0,0:0:0:0:
260,336,214153,1,0,0:0:0:0:
260,336,214264,2,0,L|224:292,1,50
292,220,214486,2,0,L|320:176,1,50,2|0,0:0|0:0,0:0:0:0:
220,164,214708,2,0,L|172:124,1,50,10|0,0:0|0:0,0:0:0:0:
276,104,214931,2,0,L|316:56,1,50,2|0,0:0|0:0,0:0:0:0:
208,56,215153,5,4,0:0:0:0:
148,92,215375,1,0,0:0:0:0:
100,148,215597,1,0,0:0:0:0:
88,216,215819,2,0,L|88:268,1,50
152,336,216042,1,0,0:0:0:0:
216,236,216264,1,2,0:0:0:0:
292,144,216486,1,10,0:0:0:0:
400,92,216708,2,0,L|448:80,1,50,2|0,0:0|0:0,0:0:0:0:
408,172,216931,6,0,P|384:236|340:256,2,100,4|0|0,0:0|0:0|0:0,0:0:0:0:
296,336,217597,1,0,0:0:0:0:
296,336,217708,1,0,0:0:0:0:
296,336,217819,1,0,0:0:0:0:
296,336,218042,2,0,P|232:336|188:320,2,100,2|10|2,0:0|0:0|0:0,0:0:0:0:
112,256,218708,6,0,L|68:216,2,50,4|0|0,0:0|0:0|0:0,0:0:0:0:
112,256,219153,1,0,0:0:0:0:
168,136,219375,2,0,L|216:104,2,50,4|0|0,0:0|0:0|0:0,0:0:0:0:
356,72,219819,2,0,L|312:32,5,50,6|0|2|0|2|0,0:0|0:0|0:0|0:0|0:0|0:0,0:0:0:0:
412,136,220486,5,4,0:0:0:0:
416,240,220708,1,0,0:0:0:0:
352,124,220931,1,12,0:0:0:0:
356,256,221153,1,0,0:0:0:0:
288,112,221375,5,4,0:0:0:0:
296,280,221597,1,2,0:0:0:0:
228,100,221819,1,14,0:0:0:0:
232,304,222042,1,2,0:0:0:0:
96,156,222264,5,4,0:0:0:0:
152,228,222486,1,0,0:0:0:0:
56,112,222708,1,12,0:0:0:0:
192,272,222931,1,0,0:0:0:0:
84,224,223153,5,4,0:0:0:0:
164,164,223375,1,2,0:0:0:0:
36,264,223597,1,14,0:0:0:0:
192,136,223819,1,2,0:0:0:0:
192,136,223931,1,0,0:0:0:0:
192,136,224042,6,0,P|240:88|272:64,1,100,4|0,0:0|0:0,0:0:0:0:
196,280,224486,2,0,P|148:328|116:352,1,100,12|0,0:0|0:0,0:0:0:0:
380,184,224931,6,0,P|332:136|308:104,1,100,4|2,0:0|0:0,0:0:0:0:
132,200,225375,2,0,P|180:248|204:280,1,100,14|2,0:0|0:0,0:0:0:0:
224,128,225819,5,4,0:0:0:0:
192,224,226042,1,0,0:0:0:0:
288,256,226264,1,12,0:0:0:0:
320,160,226486,1,0,0:0:0:0:
356,228,226708,5,4,0:0:0:0:
292,92,226931,1,2,0:0:0:0:
156,156,227153,1,10,0:0:0:0:
220,292,227375,1,2,0:0:0:0:
260,324,227486,1,2,0:0:0:0:
312,332,227597,6,0,P|368:320|408:308,1,100,4|0,0:0|0:0,0:0:0:0:
436,292,228042,2,0,P|440:184|416:120,1,150
384,56,228486,1,0,0:0:0:0:
212,80,228708,1,2,0:0:0:0:
212,80,228931,1,10,0:0:0:0:
212,80,229153,1,2,0:0:0:0:
28,160,229375,6,0,P|104:148|156:148,1,100,4|0,0:0|0:0,0:0:0:0:
80,236,229819,2,0,P|164:240|208:252,1,100
212,248,230153,1,0,0:0:0:0:
244,256,230264,2,0,P|312:288|344:296,1,100,0|2,0:0|0:0,0:0:0:0:
468,144,230708,2,0,P|432:220|404:244,1,100,10|2,0:0|0:0,0:0:0:0:
236,152,231153,5,4,0:0:0:0:
192,240,231375,1,2,0:0:0:0:
292,232,231597,1,2,0:0:0:0:
228,84,231819,5,0,0:0:0:0:
144,264,232042,1,2,0:0:0:0:
344,268,232264,1,2,0:0:0:0:
240,200,232486,1,10,0:0:0:0:
56,120,232708,6,0,P|132:144|244:200,1,200,4|0,0:0|0:0,0:0:0:0:
240,200,233375,1,0,0:0:0:0:
424,124,233597,2,0,L|372:136,2,50,0|0|4,0:0|0:0|0:0,0:0:0:0:
240,200,234042,1,2,0:0:0:0:
420,284,234264,1,10,0:0:0:0:
396,304,234375,1,0,0:0:0:0:
364,324,234486,1,2,0:0:0:0:
336,340,234597,1,0,0:0:0:0:
300,356,234708,1,4,0:0:0:0:
120,268,234931,2,0,B|128:312|136:336|164:360,1,100
60,76,235486,1,0,0:0:0:0:
60,76,235597,6,0,P|112:112|128:152,1,100,0|2,0:0|0:0,0:0:0:0:
208,84,236042,2,0,P|132:136|104:172,1,100,10|2,0:0|0:0,0:0:0:0:
88,232,236486,2,0,P|112:160|140:128,1,100,4|0,0:0|0:0,0:0:0:0:
126,141,236931,1,0,0:0:0:0:
188,332,237153,1,14,0:0:0:0:
264,92,237597,2,2,P|332:176|368:264,1,200,12|0,0:0|0:0,0:0:0:0:
268,252,238264,5,2,0:0:0:0:
68,64,238931,2,0,P|84:128|120:160,1,100,0|8,0:0|0:0,0:0:0:0:
68,64,239597,1,4,0:0:0:0:
252,280,240042,1,4,0:0:0:0:
248,152,240264,1,0,0:0:0:0:
192,296,240486,1,8,0:0:0:0:
312,136,240708,1,0,0:0:0:0:
132,312,240931,1,4,0:0:0:0:
376,120,241153,1,2,0:0:0:0:
76,328,241375,1,10,0:0:0:0:
432,104,241597,1,2,0:0:0:0:
256,216,241819,5,4,0:0:0:0:
152,80,246486,5,8,0:0:0:0:
152,80,246708,2,0,P|204:128|212:160,1,100,10|8,0:0|0:0,0:0:0:0:
116,332,247153,2,0,P|184:252|268:212,1,200,4|0,0:0|0:0,0:0:0:0:
396,56,247819,1,0,0:0:0:0:
472,240,248264,1,8,0:0:0:0:
472,240,248486,1,8,0:0:0:0:
256,192,248931,12,4,254264,0:0:0:0:
