osu file format v12

[General]
AudioFilename: clear.mp3
AudioLeadIn: 0
PreviewTime: 54915
Countdown: 0
SampleSet: Soft
StackLeniency: 0.8
Mode: 0
LetterboxInBreaks: 0

[Editor]
DistanceSpacing: 1.5
BeatDivisor: 4
GridSize: 4

[Metadata]
Title:Sarishinohara
TitleUnicode:Sarishinohara
Artist:Clear
ArtistUnicode:Clear
Creator:kuronotsubasa
Version:Hard
Source:
Tags:
BeatmapID:215832
BeatmapSetID:76589

[Difficulty]
HPDrainRate:5
CircleSize:4
OverallDifficulty:5
ApproachRate:7
SliderMultiplier:1.8
SliderTickRate:2

[Events]
//Background and Video events
0,0,"1156959700680de807o(2).jpg",0,0
//Break Periods
2,82019,85808
2,147797,160919
2,242019,245586
//Storyboard Layer 0 (Background)
//Storyboard Layer 1 (Fail)
//Storyboard Layer 2 (Pass)
//Storyboard Layer 3 (Foreground)
//Storyboard Sound Samples
//Background Colour Transformations
3,100,163,162,255

[TimingPoints]
1820,444.444444444444,4,2,1,60,1,0
23147,-133.333333333333,4,2,1,60,0,0
55137,-100,4,1,1,70,0,1
60486,-200,4,1,1,70,0,1
61153,-100,4,1,1,70,0,1
74708,-200,4,1,1,70,0,1
75375,-100,4,1,1,70,0,1
80042,-200,4,1,1,70,0,1
81819,-100,4,1,1,70,0,0
87128,-133.333333333333,4,2,1,60,0,0
114486,-200,4,2,1,60,0,0
115153,-133.333333333333,4,2,1,60,0,0
119118,-100,4,1,1,70,0,1
126264,-200,4,1,1,70,0,1
127153,-100,4,1,1,70,0,1
147554,-100,4,1,1,70,0,0
161772,-200,4,2,1,60,0,0
175990,-133.333333333333,4,2,1,60,0,0
195540,-133.333333333333,4,2,1,60,0,0
199931,-133.333333333333,4,2,1,5,0,0
200819,-133.333333333333,4,2,1,60,0,0
202649,-100,4,1,1,70,0,0
209819,-100,4,1,1,70,0,1
241748,-100,4,2,1,60,0,0

[Colours]
Combo1 : 255,0,0
Combo2 : 192,192,192
Combo3 : 255,128,0
Combo4 : 128,0,255

[HitObjects]
156,60,22708,2,0,P|96:96|72:128,1,90
128,200,23153,2,0,P|196:132|216:92,1,135.000005149842,4|0,0:0|0:0,0:0:0:0:
152,292,24042,1,8,0:0:0:0:
152,292,24264,1,0,0:0:0:0:
152,292,24486,2,0,P|204:260|248:228,1,101.250003862381,8|0,0:0|0:0,0:0:0:0:
284,256,24931,2,0,P|328:260|356:248,1,67.5000025749208,2|0,0:0|0:0,0:0:0:0:
260,204,25375,2,0,P|272:164|296:140,1,67.5000025749208,0|0,0:0|0:0,0:0:0:0:
88,160,26042,6,0,P|96:112|96:88,2,67.5000025749208,8|8|8,0:0|0:0|0:0,0:0:0:0:
188,136,26708,2,0,P|192:224|212:280,1,135.000005149842,4|0,0:0|0:0,0:0:0:0:
292,84,27597,2,0,P|292:152|276:236,1,135.000005149842,8|8,0:0|0:0,0:0:0:0:
304,316,28264,1,0,0:0:0:0:
240,240,28486,2,0,P|228:288|200:308,1,67.5000025749208,2|0,0:0|0:0,0:0:0:0:
116,304,28931,2,0,P|140:256|156:244,1,67.5000025749208
92,56,29597,2,0,P|116:100|120:124,2,67.5000025749208,8|8|8,0:0|0:0|0:0,0:0:0:0:
192,56,30264,6,0,P|192:124|176:192,1,135.000005149842,4|0,0:0|0:0,0:0:0:0:
256,124,30931,1,0,0:0:0:0:
332,60,31153,2,0,P|316:152|320:208,1,135.000005149842,8|8,0:0|0:0,0:0:0:0:
256,124,31819,1,0,0:0:0:0:
160,156,32042,2,0,P|204:224|240:252,1,101.250003862381,2|0,0:0|0:0,0:0:0:0:
256,268,32486,2,0,P|292:288|324:284,1,67.5000025749208
388,96,33153,5,8,0:0:0:0:
288,120,33375,1,8,0:0:0:0:
364,188,33597,1,8,0:0:0:0:
296,264,33819,2,0,P|244:184|208:160,1,135.000005149842,4|0,0:0|0:0,0:0:0:0:
84,320,34708,2,0,P|84:232|96:180,1,135.000005149842,8|8,0:0|0:0,0:0:0:0:
232,336,35597,1,2,0:0:0:0:
332,332,35819,1,0,0:0:0:0:
388,248,36042,1,0,0:0:0:0:
288,252,36264,1,8,0:0:0:0:
192,56,36931,6,0,P|144:88|128:104,1,67.5000025749208
108,192,37375,2,0,P|176:200|240:172,2,135.000005149842,4|0|12,0:0|0:0|0:0,0:0:0:0:
268,316,38708,2,0,P|264:268|264:240,1,67.5000025749208,8|0,0:0|0:0,0:0:0:0:
328,172,39153,2,0,P|356:224|384:244,1,67.5000025749208,2|0,0:0|0:0,0:0:0:0:
412,140,39597,2,0,P|360:84|320:56,1,101.250003862381
292,60,40042,1,0,0:0:0:0:
192,44,40264,5,8,0:0:0:0:
228,140,40486,1,8,0:0:0:0:
128,124,40708,1,8,0:0:0:0:
68,204,40931,2,0,P|84:264|124:300,1,101.250003862381,4|0,0:0|0:0,0:0:0:0:
156,316,41375,2,0,P|208:308|252:256,1,101.250003862381
232,224,41819,2,0,P|180:188|132:184,1,101.250003862381,8|0,0:0|0:0,0:0:0:0:
92,188,42264,2,0,P|84:144|92:108,1,67.5000025749208,8|0,0:0|0:0,0:0:0:0:
188,108,42708,1,2,0:0:0:0:
256,36,42931,1,0,0:0:0:0:
356,56,43153,1,0,0:0:0:0:
300,140,43375,1,0,0:0:0:0:
236,216,43597,1,0,0:0:0:0:
336,228,43819,1,8,0:0:0:0:
408,160,44042,1,8,0:0:0:0:
300,140,44264,1,8,0:0:0:0:
256,36,44486,6,0,P|196:52|180:64,2,67.5000025749208,4|0|0,0:0|0:0|0:0,0:0:0:0:
176,220,45375,2,0,P|124:256|80:316,1,135.000005149842,8|8,0:0|0:0,0:0:0:0:
284,304,46264,2,0,P|304:256|304:224,1,67.5000025749208,2|0,0:0|0:0,0:0:0:0:
356,152,46708,2,0,P|364:200|384:228,1,67.5000025749208
236,68,47375,2,0,P|192:56|152:56,2,67.5000025749208,8|8|8,0:0|0:0|0:0,0:0:0:0:
272,164,48042,5,4,0:0:0:0:
476,164,48486,2,0,P|460:200|424:232,1,67.5000025749208
416,264,48819,1,0,0:0:0:0:
384,304,48931,1,8,0:0:0:0:
184,292,49375,2,0,P|144:256|136:228,1,67.5000025749208,8|0,0:0|0:0,0:0:0:0:
164,148,49819,2,0,P|196:184|204:212,2,67.5000025749208,2|0|0,0:0|0:0|0:0,0:0:0:0:
256,192,50486,12,12,52931,0:0:0:0:
256,100,53375,5,8,0:0:0:0:
172,156,53597,5,8,0:0:0:0:
220,244,53819,5,8,0:0:0:0:
320,244,54042,5,8,0:0:0:0:
348,148,54264,6,0,P|384:124|436:44,1,135.000005149842,0|4,0:0|0:0,0:0:0:0:
168,84,55153,6,0,P|120:128|108:164,1,90,4|0,0:0|0:0,0:0:0:0:
100,176,55486,1,0,0:0:0:0:
92,200,55597,1,0,0:0:0:0:
156,320,55820,1,0,0:0:0:0:
288,348,56042,2,0,P|360:328|392:300,1,90,0|2,0:0|0:0,0:0:0:0:
392,304,56375,1,0,0:0:0:0:
408,284,56486,1,10,0:0:0:0:
300,204,56708,2,0,P|232:172|216:156,2,90,6|0|0,0:0|0:0|0:0,0:0:0:0:
268,80,57375,2,0,P|216:76|160:88,1,90
84,176,57820,2,0,L|44:140,2,45,0|0|2,0:0|0:0|0:0,0:0:0:0:
84,176,58264,2,0,P|124:244|148:256,1,90,10|2,0:0|0:0,0:0:0:0:
240,168,58708,6,0,P|224:240|200:272,1,90,4|0,0:0|0:0,0:0:0:0:
204,276,59042,1,0,0:0:0:0:
192,300,59153,1,0,0:0:0:0:
316,328,59375,1,0,0:0:0:0:
408,232,59597,2,0,P|424:148|444:120,1,90,0|2,0:0|0:0,0:0:0:0:
436,120,59931,1,0,0:0:0:0:
448,96,60042,1,10,0:0:0:0:
316,80,60264,1,2,0:0:0:0:
192,68,60486,2,0,B|136:68|136:68|120:116|88:140,1,135,4|0,0:0|0:0,0:0:0:0:
88,268,61375,2,0,P|136:240|176:224,1,90,0|2,0:0|0:0,0:0:0:0:
236,344,61819,2,0,P|320:336|356:320,1,90,10|2,0:0|0:0,0:0:0:0:
348,324,62153,1,0,0:0:0:0:
372,312,62264,6,0,P|408:268|424:224,3,90,4|0|0|0,0:0|0:0|0:0|0:0,0:0:0:0:
432,212,63042,1,0,0:0:0:0:
440,184,63153,2,0,P|444:112|440:76,1,90,0|2,0:0|0:0,0:0:0:0:
320,36,63597,2,0,P|312:96|312:136,1,90,10|2,0:0|0:0,0:0:0:0:
188,68,64042,1,4,0:0:0:0:
188,68,64264,1,0,0:0:0:0:
156,84,64486,1,0,0:0:0:0:
156,84,64708,1,0,0:0:0:0:
124,100,64931,2,0,P|80:136|56:200,1,90,0|2,0:0|0:0,0:0:0:0:
104,292,65375,2,0,P|112:224|104:184,1,90,10|2,0:0|0:0,0:0:0:0:
224,132,65819,5,4,0:0:0:0:
472,244,66264,1,0,0:0:0:0:
368,328,66486,1,4,0:0:0:0:
348,196,66931,2,0,P|332:132|232:48,2,180,8|0|2,0:0|0:0|0:0,0:0:0:0:
80,212,68264,1,8,0:0:0:0:
328,320,68708,1,8,0:0:0:0:
404,208,68931,2,0,P|384:252|384:256,2,45,2|2|2,0:0|0:0|0:0,0:0:0:0:
372,76,69375,6,0,P|300:72|248:88,1,90,4|0,0:0|0:0,0:0:0:0:
228,200,69819,2,0,P|180:152|112:112,1,135
96,108,70264,1,0,0:0:0:0:
72,240,70486,1,2,0:0:0:0:
168,332,70708,1,10,0:0:0:0:
300,312,70931,1,2,0:0:0:0:
348,188,71153,1,4,0:0:0:0:
80,168,71597,2,0,P|128:132|200:104,1,135
224,96,72042,2,0,L|288:76,2,45,0|0|2,0:0|0:0|0:0,0:0:0:0:
236,232,72486,2,0,P|192:252|140:252,1,90,10|2,0:0|0:0,0:0:0:0:
268,320,72931,6,0,B|324:284|392:256|436:248,1,180,4|0,0:0|0:0,0:0:0:0:
376,124,73597,1,0,0:0:0:0:
264,48,73819,2,0,P|184:76|172:84,1,90,0|2,0:0|0:0,0:0:0:0:
208,212,74264,2,0,P|184:148|164:132,1,90,10|2,0:0|0:0,0:0:0:0:
204,304,74708,2,0,B|224:272|224:272|288:276|320:248,1,135,4|0,0:0|0:0,0:0:0:0:
432,176,75597,1,0,0:0:0:0:
180,80,76042,2,0,P|136:48|88:48,1,90,10|2,0:0|0:0,0:0:0:0:
104,180,76486,6,0,P|148:220|184:232,2,90,4|0|0,0:0|0:0|0:0,0:0:0:0:
252,320,77264,2,0,L|276:276,1,45
408,264,77597,2,0,P|384:208|348:188,2,90,2|10|2,0:0|0:0|0:0,0:0:0:0:
408,128,78264,1,4,0:0:0:0:
320,24,78486,1,0,0:0:0:0:
288,156,78708,1,0,0:0:0:0:
220,40,78931,1,4,0:0:0:0:
136,160,79375,2,0,P|152:216|232:312,1,180,4|0,0:0|0:0,0:0:0:0:
264,188,80042,6,0,B|300:156|352:152|356:152,3,90,4|0|0|0,0:0|0:0|0:0|0:0,0:0:0:0:
368,284,81597,1,10,0:0:0:0:
368,284,81819,1,14,0:0:0:0:
356,136,86708,6,0,P|364:88|340:48,1,90
260,104,87153,2,0,P|256:168|284:240,2,135.000005149842,4|0|8,0:0|0:0|0:0,0:0:0:0:
160,104,88264,1,0,0:0:0:0:
124,200,88486,2,0,P|80:156|60:140,1,67.5000025749208,8|0,0:0|0:0,0:0:0:0:
52,252,88931,2,0,P|84:292|100:304,2,67.5000025749208,2|0|0,0:0|0:0|0:0,0:0:0:0:
128,320,89597,1,8,0:0:0:0:
208,256,89819,1,8,0:0:0:0:
236,352,90042,1,8,0:0:0:0:
312,284,90264,1,8,0:0:0:0:
392,224,90486,2,0,P|412:160|408:148,1,67.5000025749208,0|4,0:0|0:0,0:0:0:0:
244,52,91153,6,0,P|172:100|124:140,1,135.000005149842,0|8,0:0|0:0,0:0:0:0:
120,332,92042,2,0,P|160:316|196:272,1,101.250003862381,8|0,0:0|0:0,0:0:0:0:
204,252,92486,1,2,0:0:0:0:
248,160,92708,2,0,L|280:96,1,67.5000025749208
360,160,93153,2,0,P|420:160|440:164,1,67.5000025749208,8|8,0:0|0:0,0:0:0:0:
384,252,93597,2,0,P|384:312|368:332,1,67.5000025749208,8|8,0:0|0:0,0:0:0:0:
280,312,94042,2,0,P|224:340|200:344,1,67.5000025749208,0|4,0:0|0:0,0:0:0:0:
72,204,94708,5,0,0:0:0:0:
200,48,95153,2,0,P|204:104|228:160,1,101.250003862381,8|0,0:0|0:0,0:0:0:0:
228,164,95597,2,0,P|264:204|280:208,1,67.5000025749208,8|0,0:0|0:0,0:0:0:0:
324,116,96042,2,0,P|376:104|408:96,1,67.5000025749208,2|0,0:0|0:0,0:0:0:0:
412,200,96486,2,0,P|380:240|368:264,1,67.5000025749208
172,284,97153,2,0,P|136:256|108:248,2,67.5000025749208,8|8|8,0:0|0:0|0:0,0:0:0:0:
228,200,97819,6,0,P|204:152|160:124,1,101.250003862381,4|0,0:0|0:0,0:0:0:0:
148,120,98264,1,0,0:0:0:0:
148,120,98486,1,0,0:0:0:0:
212,44,98708,2,0,P|280:96|312:104,1,101.250003862381,8|0,0:0|0:0,0:0:0:0:
316,104,99153,1,8,0:0:0:0:
316,104,99375,1,0,0:0:0:0:
256,188,99597,2,0,P|224:212|192:216,1,67.5000025749208,2|0,0:0|0:0,0:0:0:0:
268,292,100042,2,0,P|300:316|336:320,1,67.5000025749208
120,96,100931,5,0,0:0:0:0:
120,96,101153,1,0,0:0:0:0:
72,184,101375,2,0,P|96:224|112:264,1,67.5000025749208,4|0,0:0|0:0,0:0:0:0:
126,306,101819,1,0,0:0:0:0:
156,208,102264,2,0,P|204:272|216:280,1,67.5000025749208,8|8,0:0|0:0,0:0:0:0:
248,304,102708,1,0,0:0:0:0:
260,204,103153,2,0,P|304:168|328:148,3,67.5000025749208,2|0|0|0,0:0|0:0|0:0|0:0,0:0:0:0:
132,64,104264,1,8,0:0:0:0:
76,148,104486,1,8,0:0:0:0:
100,248,104708,1,8,0:0:0:0:
180,308,104931,6,0,P|236:332|316:340,1,135.000005149842,4|0,0:0|0:0,0:0:0:0:
309,340,105597,1,0,0:0:0:0:
280,244,105819,2,0,P|352:248|424:236,1,135.000005149842,8|8,0:0|0:0,0:0:0:0:
413,238,106486,1,0,0:0:0:0:
360,156,106708,2,0,P|320:124|308:80,4,67.5000025749208,2|0|0|0|8,0:0|0:0|0:0|0:0|0:0,0:0:0:0:
288,84,107819,2,0,P|232:64|204:56,1,67.5000025749208,8|8,0:0|0:0,0:0:0:0:
24,20,108486,5,12,0:0:0:0:
240,364,109375,1,8,0:0:0:0:
476,32,110264,1,8,0:0:0:0:
148,72,111375,2,0,P|216:96|272:140,1,135.000005149842,2|0,0:0|0:0,0:0:0:0:
176,180,112042,6,0,P|184:216|184:284,1,101.250003862381,4|0,0:0|0:0,0:0:0:0:
184,300,112486,1,0,0:0:0:0:
284,284,112708,2,0,P|304:224|320:208,1,67.5000025749208,0|8,0:0|0:0,0:0:0:0:
452,268,113264,2,0,P|464:236|476:228,1,33.7500012874604,0|8,0:0|0:0,0:0:0:0:
400,160,113597,1,0,0:0:0:0:
324,92,113819,2,0,P|288:128|280:168,2,67.5000025749208,2|0|0,0:0|0:0|0:0,0:0:0:0:
192,120,114486,2,0,P|164:168|92:212,1,135
252,344,115597,6,0,P|224:312|196:292,1,67.5000025749208,12|0,0:0|0:0,0:0:0:0:
372,184,116264,2,0,P|360:232|360:256,2,67.5000025749208,8|10|8,0:0|0:0|0:0,0:0:0:0:
256,192,117375,12,14,118708,0:0:0:0:
148,244,118931,5,0,0:0:0:0:
76,132,119153,2,0,P|108:92|148:72,1,90,4|0,0:0|0:0,0:0:0:0:
224,180,119597,2,0,P|312:132|356:128,1,135
372,124,120042,1,0,0:0:0:0:
372,260,120264,2,0,P|408:224|448:212,1,90,2|10,0:0|0:0,0:0:0:0:
356,316,120708,2,0,P|300:280|268:268,1,90,2|4,0:0|0:0,0:0:0:0:
168,352,121153,2,0,P|136:296|112:284,1,90
96,152,121597,2,0,L|76:112,4,45,0|0|0|0|2,0:0|0:0|0:0|0:0|0:0,0:0:0:0:
96,152,122264,2,0,P|144:188|200:192,1,90,10|2,0:0|0:0,0:0:0:0:
268,96,122708,6,0,P|320:88|360:92,2,90,4|0|0,0:0|0:0|0:0,0:0:0:0:
104,216,123486,1,0,0:0:0:0:
132,212,123597,2,0,P|176:192|232:192,1,90,0|2,0:0|0:0,0:0:0:0:
244,192,123931,1,0,0:0:0:0:
268,204,124042,2,0,P|332:224|364:228,1,90,10|2,0:0|0:0,0:0:0:0:
396,100,124486,1,4,0:0:0:0:
268,60,124708,2,0,P|208:76|176:96,1,90
60,144,125153,1,0,0:0:0:0:
68,168,125264,2,0,L|88:216,1,45
96,236,125486,2,0,L|136:260,1,45,0|2,0:0|0:0,0:0:0:0:
248,336,125819,2,0,P|304:288|344:268,1,90,10|2,0:0|0:0,0:0:0:0:
340,264,126153,1,0,0:0:0:0:
360,252,126264,6,0,P|396:200|404:168,2,90,4|0|0,0:0|0:0|0:0,0:0:0:0:
324,292,127375,1,2,0:0:0:0:
244,332,127597,1,10,0:0:0:0:
156,332,127819,1,2,0:0:0:0:
88,272,128042,2,0,P|100:212|148:144,1,135,4|0,0:0|0:0,0:0:0:0:
160,132,128486,1,0,0:0:0:0:
256,36,128708,1,0,0:0:0:0:
476,196,129153,1,2,0:0:0:0:
240,328,129597,1,2,0:0:0:0:
144,232,129819,6,0,P|104:172|52:124,1,135,4|0,0:0|0:0,0:0:0:0:
36,112,130264,1,0,0:0:0:0:
144,32,130486,2,0,P|216:96|288:136,1,180,4|0,0:0|0:0,0:0:0:0:
264,312,131375,2,0,P|300:272|336:264,1,90,8|0,0:0|0:0,0:0:0:0:
200,260,131819,2,0,B|152:292|96:320|32:328,1,180,0|8,0:0|0:0,0:0:0:0:
100,64,132708,1,8,0:0:0:0:
220,124,132931,2,0,L|264:100,2,45,2|2|2,0:0|0:0|0:0,0:0:0:0:
352,104,133375,6,0,P|396:156|408:184,1,90,4|0,0:0|0:0,0:0:0:0:
400,312,133819,2,0,P|328:256|280:236,1,135
264,228,134264,1,0,0:0:0:0:
152,304,134486,1,2,0:0:0:0:
60,204,134708,1,10,0:0:0:0:
168,124,134931,1,2,0:0:0:0:
256,56,135153,2,0,P|312:60|348:80,1,90,4|0,0:0|0:0,0:0:0:0:
452,156,135597,1,0,0:0:0:0:
376,268,135819,2,0,L|412:304,4,45,0|0|0|0|2,0:0|0:0|0:0|0:0|0:0,0:0:0:0:
244,300,136486,2,0,P|172:312|124:316,1,90,10|2,0:0|0:0,0:0:0:0:
96,192,136931,6,0,P|72:248|72:284,1,90,4|0,0:0|0:0,0:0:0:0:
200,232,137375,2,0,P|216:168|216:96,1,135
232,76,137819,2,0,P|284:64|324:40,1,90,0|2,0:0|0:0,0:0:0:0:
396,148,138264,2,0,P|320:160|292:176,1,90,10|2,0:0|0:0,0:0:0:0:
424,232,138708,2,0,P|312:312|168:332,1,270,4|0,0:0|0:0,0:0:0:0:
52,304,139597,1,0,0:0:0:0:
60,32,140042,2,0,L|80:104,1,45,10|0,0:0|0:0,0:0:0:0:
140,76,140264,2,0,L|92:132,1,45,2|0,0:0|0:0,0:0:0:0:
88,176,140486,6,0,P|132:224|164:248,2,90,4|0|0,0:0|0:0|0:0,0:0:0:0:
212,172,141153,2,0,P|168:224|128:260,1,90
272,176,141597,2,0,P|288:232|316:256,1,90,2|10,0:0|0:0,0:0:0:0:
420,176,142042,1,2,0:0:0:0:
380,304,142264,2,0,P|248:312|228:324,1,135,4|0,0:0|0:0,0:0:0:0:
220,312,142708,1,0,0:0:0:0:
60,256,142931,1,0,0:0:0:0:
252,68,143375,2,0,P|188:96|152:120,2,90,2|10|2,0:0|0:0|0:0,0:0:0:0:
132,132,144042,5,4,0:0:0:0:
256,320,144708,2,0,P|300:276|344:256,1,90,0|8,0:0|0:0,0:0:0:0:
324,264,145264,1,8,0:0:0:0:
440,100,145597,2,0,L|392:72,2,45,2|2|2,0:0|0:0|0:0,0:0:0:0:
100,204,146708,6,0,P|120:256|152:284,1,90,4|0,0:0|0:0,0:0:0:0:
244,188,147153,2,0,L|204:216,2,45,8|8|8,0:0|0:0|0:0,0:0:0:0:
304,308,147597,1,6,0:0:0:0:
100,56,161819,5,4,0:0:0:0:
228,100,162264,2,0,P|204:128|184:136,1,45
144,172,162708,1,0,0:0:0:0:
60,276,163153,2,0,P|96:304|112:312,1,45
160,284,163597,2,0,L|204:256,3,45,2|0|0|0,0:0|0:0|0:0|0:0,0:0:0:0:
244,312,164486,2,0,P|308:280|324:256,1,90,8|8,0:0|0:0,0:0:0:0:
444,216,165375,6,0,L|416:256,1,45,4|0,0:0|0:0,0:0:0:0:
376,200,165819,2,0,L|340:164,1,45
304,224,166264,2,0,L|268:272,1,45
248,200,166708,2,0,L|216:156,1,45
176,216,167153,2,0,P|88:168|56:84,1,180,2|8,0:0|0:0,0:0:0:0:
188,64,168486,2,0,L|216:100,1,45,8|0,0:0|0:0,0:0:0:0:
284,92,168931,5,4,0:0:0:0:
408,144,169375,1,0,0:0:0:0:
408,144,169597,1,0,0:0:0:0:
408,144,169819,1,0,0:0:0:0:
340,260,170264,1,0,0:0:0:0:
340,260,170486,1,0,0:0:0:0:
284,296,170708,2,0,P|256:260|248:252,1,45,2|0,0:0|0:0,0:0:0:0:
192,288,171153,2,0,L|160:328,3,45,0|0|8|0,0:0|0:0|0:0|0:0,0:0:0:0:
100,296,172042,1,8,0:0:0:0:
64,236,172264,1,0,0:0:0:0:
80,172,172486,6,0,P|120:116|196:92,1,135,4|0,0:0|0:0,0:0:0:0:
248,96,173375,2,0,P|328:112|380:136,1,135
400,200,174264,2,0,L|376:252,2,45,2|0|0,0:0|0:0|0:0,0:0:0:0:
332,200,174931,2,0,L|284:236,1,45,0|8,0:0|0:0,0:0:0:0:
236,196,175375,2,0,L|132:204,1,90,0|0,0:0|0:0,0:0:0:0:
60,256,176042,6,0,P|92:304|172:336,1,135.000005149842,4|0,0:0|0:0,0:0:0:0:
176,236,176708,1,0,0:0:0:0:
228,40,177153,2,0,L|168:88,2,67.5000025749208
248,140,177819,2,0,P|296:112|320:108,1,67.5000025749208,2|0,0:0|0:0,0:0:0:0:
384,180,178264,1,0,0:0:0:0:
380,280,178486,1,0,0:0:0:0:
324,196,178708,1,8,0:0:0:0:
312,296,178931,1,8,0:0:0:0:
260,208,179153,1,8,0:0:0:0:
252,308,179375,1,8,0:0:0:0:
152,300,179597,6,0,P|104:284|76:264,1,67.5000025749208,4|0,0:0|0:0,0:0:0:0:
52,180,180042,2,0,P|68:96|84:68,1,101.250003862381
88,68,180486,2,0,P|132:44|160:40,1,67.5000025749208
144,144,180931,2,0,P|128:184|124:212,1,67.5000025749208
200,140,181375,2,0,P|264:128|276:128,2,67.5000025749208,2|0|0,0:0|0:0|0:0,0:0:0:0:
252,52,182042,2,0,P|312:44|392:64,1,135.000005149842,0|8,0:0|0:0,0:0:0:0:
324,140,182708,1,8,0:0:0:0:
396,328,183153,5,4,0:0:0:0:
316,264,183375,2,0,P|288:232|256:212,1,67.5000025749208
212,304,183819,2,0,P|172:280|160:252,1,67.5000025749208
204,172,184264,2,0,P|172:116|156:104,1,67.5000025749208
80,164,184708,2,0,P|48:120|44:88,1,67.5000025749208,0|2,0:0|0:0,0:0:0:0:
104,32,185153,2,0,P|148:76|168:88,2,67.5000025749208
204,40,185819,2,0,P|296:56|352:84,1,135.000005149842,8|8,0:0|0:0,0:0:0:0:
444,244,186708,6,0,P|420:176|336:64,1,202.500007724762,4|0,0:0|0:0,0:0:0:0:
228,112,187597,2,0,P|204:140|172:172,1,67.5000025749208,8|0,0:0|0:0,0:0:0:0:
284,272,188042,2,0,P|308:244|340:212,1,67.5000025749208,8|0,0:0|0:0,0:0:0:0:
176,220,188486,2,0,P|204:244|236:276,1,67.5000025749208,10|0,0:0|0:0,0:0:0:0:
336,164,188931,2,0,P|308:140|276:108,1,67.5000025749208,8|0,0:0|0:0,0:0:0:0:
256,244,189375,1,8,0:0:0:0:
252,140,189597,1,0,0:0:0:0:
176,196,189819,1,8,0:0:0:0:
332,196,190042,1,0,0:0:0:0:
328,296,190264,6,0,P|212:336|116:336,1,202.500007724762,4|0,0:0|0:0,0:0:0:0:
180,248,191153,2,0,P|136:264|92:268,1,67.5000025749208,8|0,0:0|0:0,0:0:0:0:
92,168,191597,2,0,P|68:216|48:240,1,67.5000025749208,8|0,0:0|0:0,0:0:0:0:
144,172,192042,6,0,L|184:136,4,33.7500012874604,6|0|0|0|0,0:0|0:0|0:0|0:0|0:0,0:0:0:0:
224,112,192708,1,8,0:0:0:0:
416,48,193153,2,0,P|376:60|352:80,1,67.5000025749208,8|0,0:0|0:0,0:0:0:0:
376,176,193597,2,0,B|324:212|268:280|184:280,1,202.500007724762
204,278,194931,2,0,P|124:248|80:216,1,135.000005149842
96,120,195597,6,0,P|84:88|60:60,2,67.5000025749208,4|0|0,0:0|0:0|0:0,0:0:0:0:
284,192,196486,2,0,P|320:148|352:132,2,67.5000025749208
192,236,197153,2,0,B|216:280|212:272,1,33.7500012874604
228,312,197375,2,0,P|280:336|300:336,2,67.5000025749208,10|0|0,0:0|0:0|0:0,0:0:0:0:
408,216,198264,2,0,P|368:252|364:276,2,67.5000025749208,8|0|0,0:0|0:0|0:0,0:0:0:0:
388,116,198931,6,0,L|360:80,1,33.7500012874604
332,56,199153,2,0,P|272:68|248:80,2,67.5000025749208,4|0|0,0:0|0:0|0:0,0:0:0:0:
132,80,200042,5,8,0:0:0:0:
96,176,200264,1,8,0:0:0:0:
116,276,200486,1,8,0:0:0:0:
200,332,200708,1,8,0:0:0:0:
300,336,200931,6,0,B|368:316|424:272|456:192,1,202.500007724762,2|0,0:0|0:0,0:0:0:0:
420,112,201819,2,0,P|388:64|356:60,1,67.5000025749208,8|0,0:0|0:0,0:0:0:0:
280,76,202264,2,0,L|240:48,3,33.7500012874604,8|0|0|0,0:0|0:0|0:0|0:0,0:0:0:0:
204,104,202708,6,0,P|160:92|104:96,1,90,4|0,0:0|0:0,0:0:0:0:
80,224,203153,2,0,P|124:272|196:308,1,135
212,308,203597,2,0,P|260:272|288:232,1,90,0|2,0:0|0:0,0:0:0:0:
400,308,204042,2,0,P|456:320|484:344,1,90,10|2,0:0|0:0,0:0:0:0:
464,208,204486,1,4,0:0:0:0:
388,96,204708,1,0,0:0:0:0:
324,216,204931,1,0,0:0:0:0:
212,288,205153,2,0,P|160:304|116:324,2,90,0|0|2,0:0|0:0|0:0,0:0:0:0:
84,52,206042,1,2,0:0:0:0:
76,188,206264,6,0,P|104:136|136:116,1,90,4|0,0:0|0:0,0:0:0:0:
244,48,206708,1,0,0:0:0:0:
316,160,206931,2,0,P|244:204|216:236,1,90,4|0,0:0|0:0,0:0:0:0:
124,264,207375,1,2,0:0:0:0:
124,264,207819,1,6,0:0:0:0:
392,284,208264,2,0,P|416:232|440:200,2,90,2|2|2,0:0|0:0|0:0,0:0:0:0:
264,240,208931,2,0,L|224:264,1,45,8|0,0:0|0:0,0:0:0:0:
236,128,209264,2,0,L|284:92,1,45,8|0,0:0|0:0,0:0:0:0:
404,68,209597,2,0,L|440:108,1,45,8|0,0:0|0:0,0:0:0:0:
448,124,209819,6,0,P|448:180|440:216,2,90,4|0|0,0:0|0:0|0:0,0:0:0:0:
316,280,210597,1,0,0:0:0:0:
292,288,210708,2,0,P|244:308|200:316,1,90,0|2,0:0|0:0,0:0:0:0:
224,180,211153,2,0,P|176:196|132:224,2,90,10|2|4,0:0|0:0|0:0,0:0:0:0:
92,156,211819,1,0,0:0:0:0:
172,44,212042,1,0,0:0:0:0:
300,80,212264,1,0,0:0:0:0:
396,176,212486,2,0,L|432:144,4,45,0|0|2|0|10,0:0|0:0|0:0|0:0|0:0,0:0:0:0:
308,280,213153,2,0,P|244:320|200:320,1,90,2|4,0:0|0:0,0:0:0:0:
120,244,213597,6,0,P|88:200|64:172,1,90
164,100,214042,2,0,L|212:96,1,45
236,96,214264,1,0,0:0:0:0:
292,220,214486,1,2,0:0:0:0:
296,84,214708,1,10,0:0:0:0:
236,204,214931,1,2,0:0:0:0:
344,124,215153,1,4,0:0:0:0:
212,156,215375,1,0,0:0:0:0:
320,176,215597,2,0,P|392:196|412:212,3,90,0|0|0|2,0:0|0:0|0:0|0:0,0:0:0:0:
336,324,216486,1,10,0:0:0:0:
312,336,216597,1,0,0:0:0:0:
288,344,216708,1,2,0:0:0:0:
264,352,216819,1,0,0:0:0:0:
236,360,216931,6,0,P|180:364|136:356,1,90,4|0,0:0|0:0,0:0:0:0:
72,248,217375,2,0,P|136:200|212:172,1,135
212,172,217819,1,0,0:0:0:0:
160,48,218042,2,0,P|104:80|84:100,2,90,2|10|2,0:0|0:0|0:0,0:0:0:0:
296,40,218708,1,4,0:0:0:0:
464,252,219153,1,0,0:0:0:0:
464,252,219375,1,8,0:0:0:0:
208,336,219819,2,0,L|168:300,1,45,2|0,0:0|0:0,0:0:0:0:
232,268,220042,2,0,L|276:236,1,45,2|0,0:0|0:0,0:0:0:0:
212,220,220264,2,0,L|176:184,1,45,2|0,0:0|0:0,0:0:0:0:
144,132,220486,6,0,P|200:96|232:88,1,90,12|0,0:0|0:0,0:0:0:0:
356,84,220931,2,0,P|404:112|432:148,1,90,2|0,0:0|0:0,0:0:0:0:
392,268,221375,2,0,P|332:296|296:296,1,90,8|0,0:0|0:0,0:0:0:0:
176,304,221819,2,0,P|136:248|128:216,1,90,2|0,0:0|0:0,0:0:0:0:
224,132,222264,1,12,0:0:0:0:
340,200,222486,1,0,0:0:0:0:
220,260,222708,1,2,0:0:0:0:
104,192,222931,1,0,0:0:0:0:
224,132,223153,1,8,0:0:0:0:
340,200,223375,1,0,0:0:0:0:
220,260,223597,1,2,0:0:0:0:
104,192,223819,1,0,0:0:0:0:
144,64,224042,6,0,P|216:48|244:48,2,90,12|0|2,0:0|0:0|0:0,0:0:0:0:
240,160,224708,2,0,P|304:148|336:116,2,90,0|8|0,0:0|0:0|0:0,0:0:0:0:
288,288,225375,2,0,P|232:288|192:308,1,90,2|0,0:0|0:0,0:0:0:0:
112,200,225819,2,0,P|152:228|176:264,1,90,12|0,0:0|0:0,0:0:0:0:
180,128,226264,2,0,P|188:176|212:220,1,90,2|0,0:0|0:0,0:0:0:0:
284,104,226708,2,0,P|260:148|252:200,1,90,8|0,0:0|0:0,0:0:0:0:
388,204,227153,2,0,P|336:228|292:260,1,90,2|0,0:0|0:0,0:0:0:0:
284,260,227486,1,0,0:0:0:0:
260,272,227597,6,0,P|188:292|144:288,1,90,4|0,0:0|0:0,0:0:0:0:
72,192,228042,2,0,P|144:168|224:156,1,135
228,156,228486,2,0,P|288:160|320:168,1,90,0|2,0:0|0:0,0:0:0:0:
344,172,228819,1,0,0:0:0:0:
372,176,228931,2,0,P|424:196|456:216,1,90,10|2,0:0|0:0,0:0:0:0:
356,308,229375,2,0,P|304:328|256:336,2,90,4|0|0,0:0|0:0|0:0,0:0:0:0:
232,252,230042,2,0,P|176:268|132:288,2,90,0|0|2,0:0|0:0|0:0,0:0:0:0:
160,136,230708,2,0,P|124:68|104:56,1,90,10|2,0:0|0:0,0:0:0:0:
248,40,231153,6,0,P|268:92|312:120,2,90,12|0|0,0:0|0:0|0:0,0:0:0:0:
340,140,231819,2,0,P|296:176|236:188,2,90,8|0|0,0:0|0:0|0:0,0:0:0:0:
220,200,232486,1,8,0:0:0:0:
140,308,232708,2,4,P|208:328|324:308,1,180,12|0,0:0|0:0,0:0:0:0:
428,240,233375,1,0,0:0:0:0:
448,108,233597,2,0,L|484:56,2,45,2|2|10,0:0|0:0|0:0,0:0:0:0:
316,144,234042,1,0,0:0:0:0:
188,100,234264,2,0,L|156:64,3,45
124,124,234708,6,0,P|92:192|88:304,1,180,12|0,0:0|0:0,0:0:0:0:
288,304,235486,1,0,0:0:0:0:
316,296,235597,2,0,P|364:280|396:248,1,90,12|0,0:0|0:0,0:0:0:0:
372,120,236042,2,0,P|308:168|292:200,1,90
200,88,236486,2,0,P|128:64|96:68,2,90,8|0|0,0:0|0:0|0:0,0:0:0:0:
64,80,237153,1,8,0:0:0:0:
276,248,237597,2,0,P|208:280|96:288,1,180,8|0,0:0|0:0,0:0:0:0:
160,168,238264,5,6,0:0:0:0:
264,76,238931,2,0,P|316:100|348:128,1,90,0|8,0:0|0:0,0:0:0:0:
264,76,239597,1,2,0:0:0:0:
328,340,240042,2,0,P|268:304|240:304,1,90,8|0,0:0|0:0,0:0:0:0:
340,204,240486,2,0,P|384:168|428:152,1,90,2|0,0:0|0:0,0:0:0:0:
284,192,240931,2,0,P|216:204|180:244,1,90,8|0,0:0|0:0,0:0:0:0:
104,124,241375,2,0,P|164:84|208:72,1,90,2|0,0:0|0:0,0:0:0:0:
312,56,241819,1,4,0:0:0:0:
112,72,246486,6,0,P|188:96|216:124,1,90,0|8,0:0|0:0,0:0:0:0:
112,72,246931,1,0,0:0:0:0:
168,196,247153,2,0,P|224:276|308:308,1,180,12|0,0:0|0:0,0:0:0:0:
288,172,247819,1,8,0:0:0:0:
444,104,248264,1,8,0:0:0:0:
412,236,248486,1,8,0:0:0:0:
256,192,248708,12,4,254264,0:0:0:0:
