osu file format v14

[General]
AudioFilename: Clean Bandit feat. Jess Glynne - Rather Be.mp3
AudioLeadIn: 0
PreviewTime: 191581
Countdown: 0
SampleSet: Soft
StackLeniency: 0.7
Mode: 0
LetterboxInBreaks: 0
WidescreenStoryboard: 0

[Editor]
Bookmarks: 33279,49147,65015,92783,96750,112614,112618,128486,144350,144354,172122,176089,187990,188978,189970,191957,207821,223689,235589,237573
DistanceSpacing: 0.9
BeatDivisor: 2
GridSize: 4
TimelineZoom: 1.1

[Metadata]
Title:Rather Be feat. Jess Glynne
TitleUnicode:Rather Be feat. Jess Glynne
Artist:Clean Bandit
ArtistUnicode:Clean Bandit
Creator:Shadren
Version:Normal
Source:
Tags:New Eyes Baroque Pop Synthpop Synth House
BeatmapID:502478
BeatmapSetID:212948

[Difficulty]
HPDrainRate:3
CircleSize:3.5
OverallDifficulty:3
ApproachRate:4
SliderMultiplier:1.2
SliderTickRate:1

[Events]
//Background and Video events
0,0,"BG.jpg",0,0
//Break Periods
2,92979,95427
2,176085,186666
//Storyboard Layer 0 (Background)
//Storyboard Layer 1 (Fail)
//Storyboard Layer 2 (Pass)
//Storyboard Layer 3 (Foreground)
//Storyboard Sound Samples

[TimingPoints]
819,521.739130434783,4,2,1,40,1,0
16912,495.867768595041,4,2,1,40,1,0
17408,495.867768595041,4,2,1,40,1,0
49143,-100,4,2,1,40,0,0
65011,-100,4,2,2,60,0,1
92779,-100,4,2,1,60,0,0
96747,-100,4,2,1,40,0,0
112614,-100,4,2,1,50,0,0
128482,-100,4,2,1,60,0,0
144350,-100,4,2,2,60,0,1
172118,-100,4,2,1,60,0,0
187986,-100,4,2,1,20,0,0
191953,-100,4,2,2,60,0,1
235589,-100,4,2,1,60,0,0
239556,-100,4,2,1,20,0,0

[Colours]
Combo1 : 139,193,254
Combo2 : 255,119,28
Combo3 : 32,143,255
Combo4 : 254,201,16

[HitObjects]
464,256,33275,6,0,P|404:272|344:256,1,120,10|8,0:0|0:0,0:0:0:0:
260,200,34267,1,10,0:0:0:0:
172,264,34763,1,8,0:0:0:0:
76,212,35259,2,0,L|64:88,2,120,10|8|10,0:0|0:0|0:0,0:0:0:0:
172,264,36747,1,8,0:0:0:0:
260,200,37242,6,0,P|320:180|384:204,1,120,10|8,0:0|0:0,0:0:0:0:
419,223,37986,1,0,0:0:0:0:
464,252,38234,2,0,L|468:128,1,120,10|8,0:0|0:0,0:0:0:0:
388,60,39226,1,10,0:0:0:0:
288,100,39722,1,0,0:0:0:0:
188,60,40218,2,0,L|64:52,1,120,10|8,0:0|0:0,0:0:0:0:
104,156,41209,6,0,L|223:163,1,120,10|8,0:0|0:0,0:0:0:0:
275,184,41953,1,0,0:0:0:0:
312,224,42201,2,0,P|328:280|292:352,1,120,10|8,0:0|0:0,0:0:0:0:
220,276,43193,2,0,P|204:220|236:152,1,120,10|0,0:0|0:0,0:0:0:0:
292,80,44185,1,10,0:0:0:0:
376,148,44680,1,8,0:0:0:0:
292,216,45176,6,0,L|160:232,2,120,10|0|10,0:0|0:0|0:0,0:0:0:0:
376,276,46664,1,8,0:0:0:0:
448,196,47160,2,0,P|468:128|444:72,2,120,10|8|0,0:0|0:0|0:0,0:0:0:0:
376,276,48647,1,8,0:0:0:0:
280,224,49143,6,0,L|156:236,2,120,8|10|8,0:0|0:0|0:0,0:0:0:0:
332,208,50383,2,0,P|344:184|368:160,1,60,0|10,0:0|0:0,0:0:0:0:
472,176,51127,2,0,P|488:236|464:316,1,120,8|10,0:0|0:0,0:0:0:0:
396,364,52118,1,8,0:0:0:0:
292,332,52614,1,10,0:0:0:0:
208,264,53110,6,0,B|148:276|148:276|84:264,1,120,8|0,0:0|0:0,0:0:0:0:
60,220,53854,2,0,P|56:192|64:152,1,60,0|8,0:0|0:0,0:0:0:0:
140,84,54598,1,10,0:0:0:0:
244,116,55094,2,0,L|380:108,1,120,8|10,0:0|0:0,0:0:0:0:
456,168,56085,1,8,0:0:0:0:
440,276,56581,1,0,0:0:0:0:
360,348,57077,6,0,B|303:362|303:362|243:346,2,120,8|10|8,0:0|0:0|0:0,0:0:0:0:
440,276,58565,1,10,0:0:0:0:
492,184,59061,2,0,L|500:64,1,120,8|10,0:0|0:0,0:0:0:0:
392,84,60052,2,0,L|384:204,1,120,8|10,0:0|0:0,0:0:0:0:
300,272,61044,6,0,P|236:288|172:264,2,120,8|10|8,0:0|0:0|0:0,0:0:0:0:
376,196,62532,1,0,0:0:0:0:
352,92,63028,1,8,0:0:0:0:
252,48,63523,1,10,0:0:0:0:
152,88,64019,2,0,L|16:76,1,120,10|10,0:0|0:0,0:0:0:0:
68,180,65011,6,0,L|187:190,1,120,6|10,0:0|2:0,0:0:0:0:
232,220,65755,1,0,0:0:0:0:
268,260,66003,2,0,P|284:324|264:376,2,120,2|10|6,0:0|2:0|0:0,0:0:0:0:
216,164,67490,1,0,0:0:0:0:
296,88,67986,2,0,L|420:80,1,120,2|10,0:0|0:0,0:0:0:0:
492,156,68978,6,0,P|512:216|484:280,1,120,6|0,0:0|0:0,0:0:0:0:
464,312,69722,1,0,0:0:0:0:
420,344,69970,2,0,L|300:352,1,120,2|10,0:0|0:0,0:0:0:0:
200,308,70961,2,0,P|184:252|212:184,1,120,6|0,0:0|0:0,0:0:0:0:
236,152,71705,1,0,0:0:0:0:
280,124,71953,2,0,L|400:116,1,120,2|10,0:0|0:0,0:0:0:0:
444,216,72945,6,0,L|324:224,1,120,6|10,0:0|0:0,0:0:0:0:
284,260,73689,2,0,L|208:264,1,60,0|2,0:0|0:0,0:0:0:0:
132,316,74433,1,10,0:0:0:0:
44,252,74928,2,0,P|28:192|56:128,1,120,6|8,0:0|0:0,0:0:0:0:
84,100,75672,1,0,0:0:0:0:
132,76,75920,2,0,B|192:60|192:60|264:84,1,120,2|10,0:0|0:0,0:0:0:0:
328,148,76912,6,0,L|344:280,1,120,6|10,0:0|0:0,0:0:0:0:
260,340,77904,1,2,0:0:0:0:
160,304,78399,1,10,0:0:0:0:
160,252,78647,1,0,0:0:0:0:
124,212,78895,2,0,B|64:196|64:196|0:204,2,120,6|8|0,0:0|0:0|3:0,0:0:0:0:
172,312,80383,1,0,3:0:0:0:
240,228,80879,6,0,P|296:212|364:236,1,120,6|10,0:0|0:0,0:0:0:0:
400,256,81623,1,0,0:0:0:0:
440,296,81871,2,0,L|456:156,1,120,2|10,0:0|0:0,0:0:0:0:
392,88,82862,2,0,P|336:72|264:100,1,120,6|10,0:0|0:0,0:0:0:0:
192,152,83854,2,0,B|204:212|204:212|184:272,1,120,2|10,0:0|0:0,0:0:0:0:
164,316,84598,2,0,L|104:320,1,60,0|4,0:0|0:0,0:0:0:0:
312,260,85837,6,0,L|440:256,2,120,2|10|6,0:0|0:0|0:0,0:0:0:0:
248,172,87325,1,10,0:0:0:0:
148,128,87821,2,0,L|68:120,2,60,2|0|10,0:0|0:0|0:0,0:0:0:0:
188,228,88813,6,0,B|248:244|248:244|324:220,1,120,6|10,0:0|0:0,0:0:0:0:
400,180,89804,2,0,P|416:120|376:56,1,120,2|10,0:0|0:0,0:0:0:0:
344,48,90548,2,0,L|272:52,1,60,0|6,0:0|0:0,0:0:0:0:
196,112,91292,2,0,P|180:168|216:244,1,120,10|2,0:0|0:0,0:0:0:0:
292,280,92284,2,0,L|416:272,1,120,10|2,0:0|0:0,0:0:0:0:
356,120,96747,6,0,P|376:176|344:252,1,120,10|8,0:0|0:0,0:0:0:0:
264,180,97738,2,0,P|246:236|266:291,1,120,10|8,0:0|0:0,0:0:0:0:
364,340,98730,2,0,B|424:352|424:352|488:340,2,120,10|8|10,0:0|0:0|0:0,0:0:0:0:
312,328,99969,1,0,0:0:0:0:
260,312,100217,1,8,0:0:0:0:
164,256,100714,6,0,P|144:200|168:140,1,120,10|8,0:0|0:0,0:0:0:0:
252,84,101705,2,0,B|312:72|312:72|376:88,1,120,10|8,0:0|0:0,0:0:0:0:
440,168,102697,2,0,L|452:292,2,120,10|8|10,0:0|0:0|0:0,0:0:0:0:
408,124,103936,1,0,0:0:0:0:
360,96,104185,1,8,0:0:0:0:
280,168,104680,6,0,P|224:188|160:164,1,120,10|8,0:0|0:0,0:0:0:0:
80,112,105672,2,0,L|68:232,1,120,10|8,0:0|0:0,0:0:0:0:
132,320,106664,1,10,0:0:0:0:
220,256,107160,1,8,0:0:0:0:
312,312,107656,1,10,0:0:0:0:
360,288,107903,2,0,P|388:268|416:232,1,60,0|8,0:0|0:0,0:0:0:0:
380,144,108647,6,0,B|320:128|320:128|252:140,1,120,10|8,0:0|0:0,0:0:0:0:
211,152,109391,1,0,0:0:0:0:
160,168,109639,2,0,B|102:178|102:178|42:162,1,120,10|8,0:0|0:0,0:0:0:0:
106,73,110631,1,10,0:0:0:0:
160,168,111127,1,8,0:0:0:0:
252,112,111623,2,0,B|308:92|308:92|392:108,1,120,10|8,0:0|0:0,0:0:0:0:
416,124,112366,1,0,0:0:0:0:
456,160,112614,6,0,P|476:216|448:288,1,120,10|8,0:0|0:0,0:0:0:0:
364,220,113606,1,10,0:0:0:0:
268,272,114102,1,8,0:0:0:0:
180,208,114598,2,0,L|168:88,2,120,10|8|10,0:0|0:0|0:0,0:0:0:0:
268,272,116085,1,8,0:0:0:0:
200,356,116581,6,0,P|140:372|72:348,1,120,10|8,0:0|0:0,0:0:0:0:
48,320,117325,1,0,0:0:0:0:
24,272,117573,2,0,B|16:212|16:212|36:152,1,120,10|8,0:0|0:0,0:0:0:0:
128,96,118565,2,0,L|256:100,1,120,10|0,0:0|0:0,0:0:0:0:
296,124,119309,2,0,L|304:192,1,60,0|10,0:0|0:0,0:0:0:0:
304,292,120052,1,8,0:0:0:0:
204,336,120548,6,0,B|144:340|144:340|84:320,2,120,10|8|10,0:0|0:0|0:0,0:0:0:0:
304,292,122036,1,8,0:0:0:0:
376,208,122532,2,0,B|392:152|392:152|380:88,1,120,10|0,0:0|0:0,0:0:0:0:
345,52,123275,1,0,0:0:0:0:
296,28,123523,2,0,L|164:40,1,120,10|8,0:0|0:0,0:0:0:0:
88,104,124515,6,0,P|68:160|104:232,1,120,10|0,0:0|0:0,0:0:0:0:
168,288,125507,1,10,0:0:0:0:
276,276,126003,1,8,0:0:0:0:
360,208,126499,2,0,B|420:200|420:200|480:220,2,120,10|8|10,0:0|0:0|0:0,0:0:0:0:
276,276,127986,1,0,0:0:0:0:
236,240,128234,1,0,0:0:0:0:
204,196,128482,6,0,L|192:68,2,120,8|10|8,0:0|0:0|0:0,0:0:0:0:
136,280,129970,1,10,0:0:0:0:
40,228,130466,2,0,P|24:172|56:96,2,120,8|10|8,0:0|0:0|0:0,0:0:0:0:
136,280,131953,1,10,0:0:0:0:
204,196,132449,6,0,B|264:184|264:184|328:196,1,120,8|0,0:0|0:0,0:0:0:0:
372,216,133193,1,0,0:0:0:0:
420,236,133441,2,0,L|428:108,1,120,8|10,0:0|0:0,0:0:0:0:
344,48,134433,1,8,0:0:0:0:
236,44,134928,1,10,0:0:0:0:
168,128,135424,1,8,0:0:0:0:
188,232,135920,1,0,0:0:0:0:
276,296,136416,6,0,B|336:312|336:312|393:298,2,120,8|10|8,0:0|0:0|0:0,0:0:0:0:
229,269,137655,1,0,0:0:0:0:
188,232,137904,1,10,0:0:0:0:
120,148,138400,2,0,L|128:28,2,120,8|10|8,0:0|0:0|0:0,0:0:0:0:
188,232,139887,1,10,0:0:0:0:
233,203,140135,1,0,0:0:0:0:
276,172,140383,6,0,P|332:156|404:180,2,120,8|10|8,0:0|0:0|0:0,0:0:0:0:
188,232,141871,1,0,0:0:0:0:
236,328,142367,1,8,0:0:0:0:
296,240,142862,1,10,0:0:0:0:
400,212,143358,2,0,L|408:80,1,120,10|10,0:0|0:0,0:0:0:0:
320,28,144350,6,0,P|256:12|192:36,1,120,6|10,0:0|0:0,0:0:0:0:
164,60,145094,1,0,0:0:0:0:
132,104,145342,2,0,L|128:228,1,120,2|10,0:0|0:0,0:0:0:0:
208,300,146333,1,6,0:0:0:0:
296,236,146829,1,10,0:0:0:0:
388,296,147325,2,0,B|448:312|448:312|520:288,1,120,2|10,0:0|0:0,0:0:0:0:
424,220,148317,6,0,P|360:216|312:260,1,120,6|0,0:0|0:0,0:0:0:0:
288,292,149060,1,0,0:0:0:0:
248,328,149309,2,0,L|116:328,1,120,2|10,0:0|0:0,0:0:0:0:
84,296,150052,1,0,0:0:0:0:
56,252,150300,2,0,P|40:192|64:132,1,120,6|10,0:0|0:0,0:0:0:0:
156,88,151292,1,2,0:0:0:0:
256,132,151788,1,10,0:0:0:0:
312,224,152284,6,0,L|464:232,1,120,6|10,0:0|0:0,0:0:0:0:
376,136,153275,2,0,L|240:132,1,120,2|10,0:0|0:0,0:0:0:0:
212,164,154019,1,0,0:0:0:0:
168,196,154267,2,0,P|108:212|44:188,1,120,6|0,0:0|0:0,0:0:0:0:
112,104,155259,1,2,0:0:0:0:
216,128,155755,1,10,0:0:0:0:
288,208,156251,6,0,L|304:328,1,120,6|10,0:0|0:0,0:0:0:0:
408,348,157242,2,0,L|429:216,1,120,2|10,0:0|0:0,0:0:0:0:
399,181,157986,1,0,0:0:0:0:
367,137,158234,2,0,P|364:81|410:29,1,120,6|8,0:0|0:0,0:0:0:0:
470,116,159226,1,0,3:0:0:0:
456,224,159722,1,8,3:0:0:0:
348,208,160218,6,0,P|292:224|224:200,1,120,6|10,0:0|0:0,0:0:0:0:
188,180,160962,1,0,0:0:0:0:
144,148,161210,2,0,L|128:288,1,120,2|10,0:0|0:0,0:0:0:0:
176,364,162201,2,0,P|234:364|296:319,1,120,6|10,0:0|0:0,0:0:0:0:
320,232,163193,2,0,B|308:172|308:172|328:112,1,120,2|10,0:0|0:0,0:0:0:0:
348,68,163937,2,0,L|408:64,1,60,0|4,0:0|0:0,0:0:0:0:
200,124,165176,6,0,B|140:140|140:140|72:120,2,120,2|10|6,0:0|0:0|0:0,0:0:0:0:
252,140,166416,1,0,0:0:0:0:
300,164,166664,1,10,0:0:0:0:
380,236,167160,2,0,L|392:308,2,60,2|0|10,0:0|0:0|0:0,0:0:0:0:
300,164,168152,6,0,B|240:152|240:152|164:172,1,120,6|10,0:0|0:0,0:0:0:0:
100,236,169143,2,0,P|84:296|124:360,1,120,2|10,0:0|0:0,0:0:0:0:
156,372,169887,2,0,L|228:368,1,60,0|6,0:0|0:0,0:0:0:0:
300,300,170631,2,0,P|316:244|280:168,1,120,10|2,0:0|0:0,0:0:0:0:
204,132,171623,2,0,L|80:140,1,120,10|0,0:0|0:0,0:0:0:0:
256,192,187986,12,0,190961,0:0:0:0:
140,80,191953,6,0,L|264:84,1,120,6|10,0:0|0:0,0:0:0:0:
348,148,192945,2,0,P|364:208|340:264,1,120,2|10,0:0|0:0,0:0:0:0:
300,296,193689,1,0,0:0:0:0:
256,324,193937,2,0,B|196:340|196:340|128:320,1,120,6|10,0:0|0:0,0:0:0:0:
104,283,194680,1,0,0:0:0:0:
76,236,194928,2,0,L|84:104,1,120,2|10,0:0|0:0,0:0:0:0:
168,48,195920,6,0,P|224:32|288:52,1,120,6|0,0:0|0:0,0:0:0:0:
328,76,196664,1,0,0:0:0:0:
372,104,196912,2,0,P|429:120|486:103,1,120,2|10,0:0|0:0,0:0:0:0:
476,212,197904,2,0,L|464:336,1,120,6|10,0:0|0:0,0:0:0:0:
368,380,198895,1,2,0:0:0:0:
276,320,199391,1,10,0:0:0:0:
168,328,199887,6,0,L|44:336,2,120,6|10|2,0:0|0:0|0:0,0:0:0:0:
276,320,201375,1,10,0:0:0:0:
323,293,201622,1,0,0:0:0:0:
360,252,201871,2,0,P|376:196|352:128,1,120,6|10,0:0|0:0,0:0:0:0:
324,100,202614,1,0,0:0:0:0:
280,72,202862,2,0,L|136:80,1,120,2|10,0:0|0:0,0:0:0:0:
72,144,203854,6,0,B|56:200|56:200|72:272,1,120,6|10,0:0|0:0,0:0:0:0:
110,296,204598,1,0,0:0:0:0:
160,316,204846,2,0,P|216:332|296:304,1,120,2|10,0:0|0:0,0:0:0:0:
320,288,205590,1,0,0:0:0:0:
364,256,205837,2,0,L|376:128,1,120,6|10,0:0|0:0,0:0:0:0:
296,64,206829,1,0,3:0:0:0:
188,60,207325,1,8,3:0:0:0:
240,156,207821,6,0,P|296:172|364:148,1,120,6|10,0:0|0:0,0:0:0:0:
400,128,208565,1,0,0:0:0:0:
444,96,208813,2,0,L|460:236,1,120,2|10,0:0|0:0,0:0:0:0:
392,300,209804,2,0,P|336:316|264:288,1,120,6|10,0:0|0:0,0:0:0:0:
192,232,210796,2,0,B|204:172|204:172|184:112,1,120,2|10,0:0|0:0,0:0:0:0:
156,72,211540,2,0,L|160:12,1,60,0|6,0:0|0:0,0:0:0:0:
268,24,212284,1,10,0:0:0:0:
312,124,212779,6,0,L|440:128,2,120,2|10|6,0:0|0:0|0:0,0:0:0:0:
272,162,214019,1,0,0:0:0:0:
248,212,214267,1,10,0:0:0:0:
144,244,214763,2,0,L|148:312,2,60,2|0|10,0:0|0:0|0:0,0:0:0:0:
100,148,215755,6,0,P|160:140|224:172,1,120,6|10,0:0|0:0,0:0:0:0:
300,228,216746,2,0,P|316:288|276:352,1,120,2|10,0:0|0:0,0:0:0:0:
252,372,217490,2,0,L|192:368,1,60,0|6,0:0|0:0,0:0:0:0:
96,316,218234,2,0,P|80:260|116:184,1,120,10|2,0:0|0:0,0:0:0:0:
164,116,219226,1,10,0:0:0:0:
260,168,219722,6,0,L|380:172,1,120,6|10,0:0|0:0,0:0:0:0:
428,200,220466,1,0,0:0:0:0:
460,244,220714,2,0,B|472:308|472:308|448:360,1,120,2|0,0:0|0:0,0:0:0:0:
396,360,221457,1,0,0:0:0:0:
344,340,221705,1,6,0:0:0:0:
280,252,222201,2,0,B|264:192|264:192|280:128,1,120,10|2,0:0|0:0,0:0:0:0:
372,192,223193,1,10,0:0:0:0:
280,252,223688,6,0,P|224:236|156:260,1,120,6|10,0:0|0:0,0:0:0:0:
112,256,224433,1,0,0:0:0:0:
68,288,224681,2,0,L|52:148,1,120,2|10,0:0|0:0,0:0:0:0:
120,84,225672,2,0,P|176:68|248:96,1,120,6|10,0:0|0:0,0:0:0:0:
320,152,226664,2,0,B|308:212|308:212|328:272,1,120,2|10,0:0|0:0,0:0:0:0:
348,316,227408,2,0,L|408:320,1,60,0|4,0:0|0:0,0:0:0:0:
200,260,228647,6,0,L|72:256,2,120,2|10|6,0:0|0:0|0:0,0:0:0:0:
236,219,229887,1,0,0:0:0:0:
264,172,230135,1,10,0:0:0:0:
352,108,230631,2,0,L|360:36,2,60,2|0|10,0:0|0:0|0:0,0:0:0:0:
312,208,231623,6,0,B|256:228|256:228|176:208,1,120,6|10,0:0|0:0,0:0:0:0:
145,196,232366,1,0,0:0:0:0:
100,164,232614,2,0,P|84:104|124:40,1,120,2|10,0:0|0:0,0:0:0:0:
156,36,233358,2,0,L|228:36,1,60,0|6,0:0|0:0,0:0:0:0:
304,96,234102,2,0,P|320:152|284:228,1,120,10|2,0:0|0:0,0:0:0:0:
236,296,235093,5,10,0:0:0:0:
256,192,235589,12,0,239556,0:0:0:0:
