osu file format v14

[General]
AudioFilename: Clean Bandit - Rather Be (The Magician Remix) (Cut).mp3
AudioLeadIn: 0
PreviewTime: 33035
Countdown: 0
SampleSet: Soft
StackLeniency: 0.7
Mode: 3
LetterboxInBreaks: 0
SpecialStyle: 0
WidescreenStoryboard: 1

[Editor]
DistanceSpacing: 1.2
BeatDivisor: 4
GridSize: 4
TimelineZoom: 2.1

[Metadata]
Title:Rather be ( Short )
TitleUnicode:Rather be ( Short )
Artist:Clean Bandit (Magician Remix)
ArtistUnicode:Clean Bandit (Magician Remix)
Creator:[B l a n k]
Version:EZ
Source:
Tags:remix
BeatmapID:706166
BeatmapSetID:315179

[Difficulty]
HPDrainRate:7
CircleSize:4
OverallDifficulty:8
ApproachRate:5
SliderMultiplier:1.4
SliderTickRate:1

[Events]
//Background and Video events
0,0,"disco-girl-hd-wallpaper-491370.jpg",0,0
//Break Periods
//Storyboard Layer 0 (Background)
//Storyboard Layer 1 (Fail)
//Storyboard Layer 2 (Pass)
//Storyboard Layer 3 (Foreground)
//Storyboard Sound Samples

[TimingPoints]
1290,495.867768595041,4,2,1,30,1,0
80628,-100,4,2,1,30,0,1
95504,-100,4,2,1,30,0,0

[HitObjects]
448,192,1290,128,0,2281:0:0:0:40:26.wav
192,192,2281,1,0,0:0:0:0:
320,192,2777,1,8,0:0:0:0:
64,192,3273,128,0,4761:0:0:0:40:27.wav
448,192,4761,1,8,0:0:0:0:
192,192,5256,128,0,6248:0:0:0:40:26.wav
320,192,6248,1,0,0:0:0:0:
448,192,6744,1,8,0:0:0:0:
192,192,6992,1,4,0:0:0:0:
320,192,7240,128,0,8728:0:0:0:40:27.wav
64,192,8728,1,8,0:0:0:0:
448,192,9223,1,0,0:0:0:40:1.wav
192,192,9595,1,0,0:0:0:40:2.wav
448,192,9967,1,0,0:0:0:40:2.wav
64,192,10215,1,0,0:0:0:40:3.wav
320,192,10711,1,8,0:0:0:0:
192,192,11207,1,0,0:0:0:40:4.wav
448,192,11579,1,0,0:0:0:40:4.wav
64,192,11951,1,0,0:0:0:40:4.wav
448,192,12199,1,0,0:0:0:40:8.wav
192,192,12694,1,8,0:0:0:40:8.wav
448,192,13190,1,0,0:0:0:40:4.wav
320,192,13562,1,0,0:0:0:40:4.wav
192,192,13934,1,0,0:0:0:40:4.wav
64,192,14182,1,0,0:0:0:40:4.wav
448,192,14678,1,8,0:0:0:0:
64,192,15174,1,0,0:0:0:40:4.wav
320,192,15546,1,0,0:0:0:40:3.wav
192,192,15918,1,0,0:0:0:40:3.wav
448,192,16166,1,0,0:0:0:40:3.wav
320,192,16661,1,0,0:0:0:40:3.wav
64,192,16661,1,8,0:0:0:0:
448,192,17157,128,0,17653:0:0:0:40:28.wav
64,192,17901,1,0,0:0:0:40:13.wav
448,192,18149,1,0,0:0:0:40:14.wav
192,192,18645,1,8,0:0:0:0:
64,192,19141,128,0,19637:0:0:0:40:29.wav
448,192,19885,1,0,0:0:0:40:19.wav
64,192,20132,1,0,0:0:0:40:20.wav
320,192,20628,1,0,0:0:0:40:21.wav
192,192,21124,128,0,21620:0:0:0:40:28.wav
64,192,21868,1,0,0:0:0:40:13.wav
192,192,22116,1,0,0:0:0:40:14.wav
448,192,22612,1,8,0:0:0:0:
320,192,23108,128,0,23604:0:0:0:40:29.wav
192,192,23851,1,0,0:0:0:40:19.wav
320,192,24099,1,0,0:0:0:40:20.wav
64,192,24595,1,0,0:0:0:40:21.wav
448,192,25091,1,0,0:0:0:40:1.wav
320,192,25463,1,0,0:0:0:40:2.wav
64,192,25835,1,0,0:0:0:40:2.wav
192,192,26083,1,0,0:0:0:40:3.wav
448,192,26579,1,8,0:0:0:0:
64,192,27075,1,0,0:0:0:40:4.wav
192,192,27447,1,0,0:0:0:40:4.wav
448,192,27818,1,0,0:0:0:40:4.wav
320,192,28066,1,0,0:0:0:40:8.wav
64,192,28562,1,0,0:0:0:40:8.wav
448,192,28562,1,8,0:0:0:0:
64,192,29058,1,0,0:0:0:40:1.wav
320,192,29430,1,0,0:0:0:40:2.wav
192,192,29802,1,0,0:0:0:40:2.wav
320,192,30050,1,0,0:0:0:40:3.wav
448,192,30546,1,8,0:0:0:0:
64,192,31042,1,0,0:0:0:40:4.wav
192,192,31413,1,0,0:0:0:40:4.wav
320,192,31785,1,0,0:0:0:40:4.wav
192,192,32033,1,0,0:0:0:40:8.wav
64,192,32529,1,0,0:0:0:40:8.wav
448,192,32529,1,8,0:0:0:0:
320,192,33025,1,4,0:0:0:0:
64,192,33521,1,8,0:0:0:0:
448,192,33521,1,8,0:0:0:0:
192,192,34017,1,4,0:0:0:0:
320,192,34513,1,8,0:0:0:0:
448,192,34513,1,8,0:0:0:0:
64,192,35009,1,4,0:0:0:0:
192,192,35504,1,8,0:0:0:0:
448,192,35504,1,8,0:0:0:0:
320,192,36000,1,4,0:0:0:0:
448,192,36496,1,8,0:0:0:0:
192,192,36496,1,8,0:0:0:0:
192,192,36992,1,4,0:0:0:0:
448,192,37488,1,8,0:0:0:0:
64,192,37488,1,8,0:0:0:0:
320,192,37984,1,4,0:0:0:0:
192,192,38480,1,8,0:0:0:0:
64,192,38480,1,8,0:0:0:0:
448,192,38975,1,4,0:0:0:0:
320,192,39471,1,8,0:0:0:0:
64,192,39471,1,8,0:0:0:0:
192,192,39967,1,4,0:0:0:0:
320,192,40463,1,8,0:0:0:0:
64,192,40463,1,8,0:0:0:0:
448,192,40959,1,4,0:0:0:0:
320,192,41455,1,8,0:0:0:0:
192,192,41455,1,8,0:0:0:0:
64,192,41951,1,4,0:0:0:0:
192,192,42447,1,8,0:0:0:0:
320,192,42447,1,8,0:0:0:0:
320,192,42942,1,4,0:0:0:0:
192,192,43438,1,8,0:0:0:0:
64,192,43438,1,8,0:0:0:0:
448,192,43934,1,4,0:0:0:0:
192,192,44430,1,8,0:0:0:0:
64,192,44430,1,8,0:0:0:0:
64,192,44926,1,4,0:0:0:0:
192,192,45422,1,8,0:0:0:0:
320,192,45422,1,8,0:0:0:0:
448,192,45918,1,4,0:0:0:0:
320,192,46413,1,8,0:0:0:0:
192,192,46413,1,8,0:0:0:0:
192,192,46909,1,4,0:0:0:0:
320,192,47405,1,8,0:0:0:0:
448,192,47405,1,8,0:0:0:0:
64,192,47901,1,4,0:0:0:0:
320,192,48397,1,8,0:0:0:0:
448,192,48397,1,8,0:0:0:0:
64,192,48893,1,0,0:0:0:40:22.wav
192,192,48893,1,2,0:0:0:0:
448,192,49265,1,0,0:0:0:40:22.wav
192,192,49637,1,0,0:0:0:40:22.wav
320,192,49885,1,0,0:0:0:40:23.wav
64,192,50380,1,8,0:0:0:0:
448,192,50876,1,0,0:0:0:40:4.wav
64,192,51248,1,0,0:0:0:40:4.wav
320,192,51620,1,0,0:0:0:40:4.wav
192,192,51868,1,0,0:0:0:40:8.wav
64,192,52364,1,0,0:0:0:40:8.wav
448,192,52364,1,8,0:0:0:0:
64,192,52860,1,0,0:0:0:40:22.wav
192,192,53232,1,0,0:0:0:40:22.wav
192,192,53604,1,0,0:0:0:40:22.wav
448,192,53851,1,0,0:0:0:40:23.wav
64,192,54347,1,8,0:0:0:0:
448,192,54843,1,0,0:0:0:40:4.wav
320,192,55215,1,0,0:0:0:40:4.wav
320,192,55587,1,0,0:0:0:40:4.wav
64,192,55835,1,0,0:0:0:40:8.wav
448,192,56331,1,0,0:0:0:40:8.wav
192,192,56331,1,8,0:0:0:0:
64,192,56827,1,0,0:0:0:40:22.wav
320,192,57199,1,0,0:0:0:40:22.wav
320,192,57570,1,0,0:0:0:40:22.wav
64,192,57818,1,0,0:0:0:40:23.wav
448,192,58314,1,8,0:0:0:0:
448,192,58810,1,0,0:0:0:40:4.wav
192,192,59182,1,0,0:0:0:40:4.wav
192,192,59554,1,0,0:0:0:40:4.wav
448,192,59802,1,0,0:0:0:40:8.wav
64,192,60298,1,0,0:0:0:40:8.wav
320,192,60298,1,8,0:0:0:0:
448,192,60794,128,0,62281:0:0:0:40:24.wav
64,192,62777,128,0,64265:0:0:0:40:25.wav
448,192,64265,1,8,0:0:0:0:
448,192,64761,128,0,65256:0:0:0:40:28.wav
64,192,65504,1,0,0:0:0:40:13.wav
448,192,65752,1,0,0:0:0:40:14.wav
320,192,66248,1,8,0:0:0:0:
64,192,66744,128,0,67240:0:0:0:40:29.wav
448,192,67488,1,0,0:0:0:40:19.wav
64,192,67736,1,0,0:0:0:40:20.wav
448,192,68232,1,0,0:0:0:40:20.wav
192,192,68232,1,8,0:0:0:0:
192,192,68728,128,0,69223:0:0:0:40:28.wav
320,192,69471,1,0,0:0:0:40:13.wav
64,192,69719,1,0,0:0:0:40:14.wav
448,192,70215,1,8,0:0:0:0:
320,192,70711,128,0,71207:0:0:0:40:29.wav
192,192,71455,1,0,0:0:0:40:19.wav
448,192,71703,1,0,0:0:0:40:20.wav
64,192,72199,1,0,0:0:0:40:21.wav
320,192,72199,1,8,0:0:0:0:
192,192,72694,128,0,73190:0:0:0:40:28.wav
320,192,73438,1,0,0:0:0:40:13.wav
192,192,73686,1,0,0:0:0:40:14.wav
64,192,74182,1,8,0:0:0:0:
320,192,74678,128,0,75174:0:0:0:40:29.wav
192,192,75422,1,0,0:0:0:40:19.wav
320,192,75670,1,0,0:0:0:40:20.wav
448,192,76166,1,0,0:0:0:40:21.wav
192,192,76166,1,8,0:0:0:0:
64,192,76661,128,0,77157:0:0:0:40:28.wav
448,192,77405,1,0,0:0:0:40:13.wav
320,192,77653,1,0,0:0:0:40:14.wav
64,192,78149,1,8,0:0:0:0:
448,192,78645,128,0,79141:0:0:0:40:29.wav
192,192,79389,1,0,0:0:0:40:19.wav
320,192,79637,1,0,0:0:0:40:20.wav
448,192,80132,1,0,0:0:0:40:21.wav
64,192,80132,1,8,0:0:0:0:
192,192,80628,1,4,0:0:0:0:
448,192,81124,1,8,0:0:0:0:
64,192,81124,1,8,0:0:0:0:
320,192,81620,1,4,0:0:0:0:
448,192,82116,1,8,0:0:0:0:
64,192,82116,1,8,0:0:0:0:
320,192,82612,1,4,0:0:0:0:
192,192,83108,1,8,0:0:0:0:
64,192,83108,1,8,0:0:0:0:
448,192,83604,1,4,0:0:0:0:
320,192,84099,1,8,0:0:0:0:
192,192,84099,1,8,0:0:0:0:
320,192,84595,1,4,0:0:0:0:
64,192,85091,1,8,0:0:0:0:
448,192,85091,1,8,0:0:0:0:
192,192,85587,1,4,0:0:0:0:
64,192,86083,1,8,0:0:0:0:
448,192,86083,1,8,0:0:0:0:
192,192,86579,1,4,0:0:0:0:
320,192,87075,1,8,0:0:0:0:
448,192,87075,1,8,0:0:0:0:
64,192,87570,1,4,0:0:0:0:
192,192,88066,1,8,0:0:0:0:
320,192,88066,1,8,0:0:0:0:
448,192,88562,1,4,0:0:0:0:
64,192,89058,1,8,0:0:0:0:
320,192,89058,1,8,0:0:0:0:
192,192,89554,1,4,0:0:0:0:
448,192,90050,1,8,0:0:0:0:
64,192,90050,1,8,0:0:0:0:
64,192,90546,1,4,0:0:0:0:
192,192,91042,1,8,0:0:0:0:
448,192,91042,1,8,0:0:0:0:
320,192,91537,1,4,0:0:0:0:
448,192,92033,1,8,0:0:0:0:
64,192,92033,1,8,0:0:0:0:
192,192,92529,1,4,0:0:0:0:
320,192,93025,1,8,0:0:0:0:
448,192,93025,1,8,0:0:0:0:
64,192,93521,1,4,0:0:0:0:
192,192,94017,1,8,0:0:0:0:
448,192,94017,1,8,0:0:0:0:
320,192,94513,1,4,0:0:0:0:
192,192,95009,1,8,0:0:0:0:
64,192,95009,1,8,0:0:0:0:
448,192,95504,1,4,0:0:0:0:
192,192,96000,1,8,0:0:0:0:
64,192,96000,1,0,0:0:0:0:
