osu file format v7

[General]
AudioFilename: broken moon.mp3
AudioLeadIn: 2000
PreviewTime: 44221
Countdown: 1
SampleSet: Normal
StackLeniency: 0.7
Mode: 0
LetterboxInBreaks: 1

[Editor]
Bookmarks: 22621,93936
DistanceSpacing: 1.29999995231628
BeatDivisor: 4
GridSize: 8

[Metadata]
Title:Broken Moon Remix
Artist:Cle
Creator:Suck
Version:Yaya
Source:
Tags:Broken Moon Touhou Remix hvick226 Tsukamaete Yaya James2250

[Difficulty]
HPDrainRate:5
CircleSize:4
OverallDifficulty:7
SliderMultiplier:1.4
SliderTickRate:1

[Events]
//Background and Video events
0,0,"Yaya.jpg"
//Break Periods
2,66707,70407
//Storyboard Layer 0 (Background)
//Storyboard Layer 1 (Fail)
//Storyboard Layer 2 (Pass)
//Storyboard Layer 3 (Foreground)
//Storyboard Sound Samples
//Background Colour Transformations
3,100,163,162,255

[TimingPoints]
336,342.857142857143,4,1,0,100,1,0
45507,-100,4,2,0,100,0,0
46828,-100,4,1,0,100,0,0
48593,-100,4,2,0,100,0,0
49535,-100,4,1,0,100,0,0
50993,-100,4,2,0,100,0,0
52364,-100,4,1,0,100,0,0
65136,-200,4,1,0,100,0,0
66507,-100,4,1,0,100,0,0
71307,-200,4,2,0,100,0,0
82964,-100,4,2,0,100,0,0
92564,-200,4,2,0,100,0,0
93936,-100,4,2,0,100,0,0
94193,-100,4,1,0,100,0,0
126850,-200,4,1,0,100,0,0
127878,-100,4,1,0,100,0,0
137821,1371.42857142857,4,1,0,100,1,0

[Colours]
Combo1 : 228,50,5
Combo2 : 2,2,255
Combo3 : 128,0,128

[HitObjects]
56,96,22621,2,2,B|160:72|224:112|224:112,1,140,2|0
216,184,23136,1,0
192,272,23307,2,2,B|280:312|352:264|352:264,1,140,2|0
304,184,23821,1,0
328,96,23993,2,0,B|408:96,2,70,2|0|0
256,40,24507,1,2
184,96,24678,2,2,B|24:96|24:96,1,140,2|0
168,160,25364,6,2,B|80:216|96:304|96:304,1,140,2|0
280,272,26050,1,2
184,312,26221,1,0
280,272,26393,1,2
384,312,26564,2,2,B|384:232|384:232,1,70
440,48,27078,6,2,B|360:48|360:48,1,70
80,48,27593,2,2,B|160:48,2,70
32,128,28107,6,2,B|104:176|192:152|192:152,1,140,2|0
256,128,28621,1,0
336,80,28793,2,2,B|408:120|432:200|432:200,1,140,2|0
408,264,29307,1,0
336,304,29478,2,2,B|248:304|248:304,1,70,2|0
192,224,29821,2,2,B|296:224|296:224,1,70,2|0
336,168,30164,1,2
80,56,30507,5,2
168,56,30678,1,0
256,56,30850,1,2
432,328,31193,5,2
344,328,31364,1,0
256,328,31536,1,2
64,152,31878,5,2
64,240,32050,1,0
64,328,32221,1,2
448,232,32564,5,2
448,144,32736,1,0
448,56,32907,1,2
376,104,33078,1,0
376,192,33250,1,2
304,148,33421,1,2
224,88,33593,6,0,B|120:88|120:88,1,70,2|0
80,144,33936,1,2
144,208,34107,1,0
208,272,34278,2,2,B|328:336|432:256|432:256,1,210,2|0
448,200,34964,1,2
448,120,35136,1,0
376,160,35307,1,0
304,112,35478,2,0,B|304:64,2,35,0|0|2
256,296,35993,6,0,B|168:352|112:280|112:280,1,140,0|2
256,192,36678,6,0,B|336:240|408:176|408:176,1,140,0|2
256,80,37364,6,0,B|168:136|112:64|112:64,1,140,0|2
48,160,37878,5,0
96,232,38050,1,2
144,304,38221,1,0
256,304,38393,1,2
368,304,38564,1,0
416,232,38735,1,2
464,160,38907,1,2
464,72,39078,6,2,B|296:72|296:72,1,140,2|0
272,144,39593,1,0
232,216,39764,2,2,B|72:216|72:216,1,140,2|0
40,144,40278,1,0
88,72,40450,2,0,B|88:32,2,35,2|0|0
176,72,40793,2,0,B|224:72,2,35,2|0|0
136,144,41135,1,2
80,344,41478,5,2
80,304,41650,1,0
80,264,41821,1,2
208,304,42164,5,2
208,240,42335,1,0
208,176,42507,1,2
352,232,42850,5,2
352,144,43021,1,0
352,56,43193,1,2
256,208,43364,12,0,44221
112,112,44564,6,0,B|192:112|192:112,1,70,8|0
392,112,44907,2,0,B|320:112|320:112,1,70
256,168,45250,1,8
200,328,45593,6,0,B|112:328|112:328,1,70,2|0
312,328,45935,2,0,B|392:328|392:328,1,70
256,264,46278,1,2
256,192,46450,1,0
256,120,46621,1,0
64,64,46964,5,0
64,64,47135,2,0,B|216:64|216:64,1,140,0|8
208,144,47650,2,0,B|296:144|296:144,1,70,0|0
280,224,47993,2,0,B|448:224|448:224,1,140,0|8
256,344,48678,5,2
80,40,49021,1,0
432,40,49364,1,2
112,112,49707,6,0,B|200:112|200:112,1,70
184,192,50050,1,8
400,144,50393,5,0
432,224,50564,2,0,B|336:224|336:224,1,70,0|8
136,320,51078,5,0
136,320,51421,1,2
256,320,51593,1,2
256,320,51935,1,2
368,320,52107,1,2
240,64,52450,6,0,B|160:64|160:64,1,70
88,64,52793,2,0,B|0:192|96:280|96:280,1,210,8|0
168,304,53478,5,8
336,304,53650,1,0
192,280,53821,1,0
320,280,53993,1,0
256,248,54164,5,8
256,216,54507,1,0
256,184,54850,1,0
256,176,54935,1,0
256,168,55021,1,0
256,160,55107,1,0
256,152,55193,5,2
176,96,55364,1,0
104,152,55535,1,2
256,232,55878,5,2
336,288,56050,1,0
408,232,56221,1,2
424,80,56564,5,0
344,72,56735,1,0
264,88,56907,1,2
200,136,57078,1,0
152,200,57250,2,2,B|96:216|112:280|112:280,1,70,2|0
88,328,57593,1,2
440,208,57935,6,2,B|376:224|408:288|408:288,1,70,2|0
256,248,58278,2,0,B|256:168|256:168,1,70
72,208,58621,2,2,B|136:224|104:288|104:288,2,70,2|2|0
40,128,59135,1,0
88,56,59307,1,2
168,96,59478,1,0
256,56,59650,6,2,B|400:56|400:56,1,140,2|0
456,112,60164,1,0
400,168,60335,1,2
320,320,60678,5,0
237,340,60850,1,0
152,329,61021,1,2
75,290,61193,1,0
32,216,61364,1,0
32,130,61535,1,0
71,55,61707,1,2
328,64,62050,6,0,B|296:104|328:136|328:136,1,70
440,152,62393,2,2,B|472:192|440:224|440:224,1,70,2|0
328,240,62735,2,2,B|296:280|328:312|328:312,2,70,2|2|0
72,48,63421,5,0
136,112,63593,1,0
200,176,63764,2,2,B|200:256|200:256,1,70,2|0
312,208,64107,2,2,B|312:128|312:128,1,70,2|0
424,176,64450,2,2,B|424:256|424:256,1,70,2|0
424,344,64793,1,2
344,296,64964,1,0
264,344,65136,2,2,B|72:360|24:208|32:184|32:184,1,280,2|0
64,48,71307,5,0
144,48,71650,1,0
224,48,71993,2,2,B|320:48|320:48,1,70,2|0
392,120,72678,2,2,B|312:120|312:120,1,70,2|0
224,192,73364,2,2,B|312:192|312:192,1,70,2|0
344,208,73878,1,0
392,232,74050,2,2,B|392:312|392:312,1,70,2|0
232,328,74735,6,2,C|144:328|144:328,1,70,2|0
56,328,75421,2,2,C|56:240|56:240,1,70,2|0
56,152,76107,2,2,C|144:152|144:152,1,70,2|0
176,144,76621,1,0
224,128,76793,2,2,C|224:40|224:40,1,70,2|0
368,96,77478,6,2,B|400:144|352:176|352:176,1,70,2|0
144,176,78164,2,2,B|112:224|160:264|160:264,1,70,2|0
368,272,78850,2,2,B|400:320|352:360|352:360,1,70,2|0
320,336,79364,1,0
272,336,79535,2,2,B|192:336|192:336,1,70,2|0
48,192,80221,6,2,B|136:192|136:192,1,70,2|0
464,192,80907,6,2,B|384:192|384:192,1,70,2|0
256,40,81593,6,2,B|256:200|256:200,1,140,2|0
256,180,82450,1,0
256,180,82621,1,0
256,180,82793,1,0
339,180,82964,6,0,B|384:96|336:24|336:24,1,140,4|8
264,64,83478,1,0
178,45,83650,2,0,B|36:45|36:45|32:48,1,140,0|8
80,128,84164,1,0
40,200,84335,2,0,B|40:288|40:288,1,70
88,336,84678,2,0,B|176:392|240:312|240:312,1,140,8|0
256,48,85364,6,0,B|168:88|104:40|104:40,2,140,8|4|8
256,128,86221,1,0
256,208,86393,2,0,B|312:240|408:208|408:208,1,140,0|8
480,216,86907,2,0,B|480:128,2,70,0|8|0
424,280,87421,2,0,B|352:328|280:288|280:288,1,140,0|8
256,120,88107,6,0,B|192:80|112:120|112:120,2,140,0|4|0
256,208,88964,1,0
256,208,89136,1,8
112,288,89478,2,0,B|64:208|112:128,2,140,0|4|0
200,288,90336,1,0
200,288,90507,1,8
440,72,90850,6,0,B|392:136|392:136,1,70
336,192,91193,2,0,B|288:136|312:40|312:40,1,140,4|0
224,40,91707,2,0,B|72:40|72:40,1,140
84,40,92221,1,4
24,104,92393,1,0
88,168,92564,2,2,B|200:232|216:80|360:184|360:184,1,280
456,296,94621,5,0
384,352,94793,1,0
312,296,94964,1,0
240,240,95136,1,0
176,296,95307,2,2,B|8:296|8:296,1,140,2|0
64,216,95821,1,0
40,136,95993,2,2,B|0:64|40:0|40:0,1,140,2|0
120,24,96507,1,0
200,48,96678,1,2
280,80,96850,1,0
360,120,97021,2,2,B|400:112|424:72,2,70,2|2|2
192,256,97707,6,0,B|128:320|128:320,2,70,0|0|2
256,192,98221,1,0
320,256,98393,2,0,B|384:320|384:320,2,70,0|0|2
256,192,98907,1,0
184,136,99078,2,0,B|120:72,2,70,0|0|2
256,192,99593,1,0
320,128,99764,2,0,B|360:88,4,35,0|0|0|0|2
464,192,100450,5,0
440,280,100621,1,0
376,344,100793,2,2,B|296:344|248:256,2,140,2|0|2
48,192,101821,5,0
72,280,101992,1,0
143,342,102164,2,2,B|223:342|268:264,2,140,2|0|2
120,40,103193,5,0
144,120,103364,1,0
184,192,103536,2,2,B|248:200|336:152|336:152,1,140,2|0
392,128,104050,1,0
472,96,104221,2,2,B|472:240|472:240,1,140,2|0
472,320,104736,1,0
392,280,104907,2,2,B|232:280,2,140,2|0|2
344,200,105764,5,0
288,127,105936,1,0
205,89,106107,1,0
114,84,106278,2,2,B|112:256|112:256,1,140,2|0
184,288,106793,1,0
256,360,106964,2,2,B|344:344|384:280|384:280,1,140,2|0
336,208,107478,1,0
392,136,107650,1,2
392,136,107736,1,0
336,64,107907,1,0
336,64,107993,1,0
280,136,108164,1,0
264,136,108250,1,0
248,136,108336,1,2
88,120,108678,6,0,B|48:192|96:272|96:272,2,140,0|2|0
168,72,109536,1,0
256,112,109707,2,2,B|424:112|424:112,1,140,2|0
448,184,110221,1,0
400,256,110393,1,2
136,320,110736,5,0
184,240,110907,1,0
136,160,111078,1,2
368,56,111421,5,0
304,128,111593,1,0
368,200,111764,2,2,B|424:272|352:360,2,140,2|0|2
304,128,112621,1,0
240,200,112793,1,0
168,128,112964,1,0
104,200,113136,1,2
104,216,113221,1,0
104,232,113307,1,0
104,248,113393,1,0
104,264,113478,1,0
176,328,113650,1,0
240,264,113821,1,2
384,56,114164,6,0,B|440:128|384:200,2,140,0|2|0
256,120,115021,1,0
120,184,115193,2,2,B|64:112|120:40,2,140,2|0|2
432,296,116221,5,0
344,256,116393,1,0
352,344,116564,1,2
80,88,116907,5,0
168,128,117079,1,0
160,40,117250,1,2
248,80,117421,1,0
344,80,117593,2,2,B|376:136|352:240|352:240,1,140,2|2
120,320,118278,6,2,B|64:248|112:168|112:168,1,140
176,136,118793,1,0
256,184,118964,1,2
336,240,119136,1,0
416,296,119307,2,2,B|480:248|464:144|464:144,1,140,2|0
88,96,119993,6,2,B|160:56|232:80,2,140,2|2|0
40,176,120850,1,0
88,256,121021,1,2
144,176,121193,1,0
192,256,121364,2,2,B|304:256|304:256,1,105,2|0
297,256,121707,1,2
352,176,121878,1,0
400,256,122050,1,2
88,16,122393,5,0
424,16,122736,1,2
136,104,123078,1,0
376,104,123421,1,2
88,184,123764,1,0
424,184,124107,1,2
40,264,124450,1,0
472,264,124793,1,2
256,368,125136,6,0,B|304:312|280:216|280:216,1,140,0|2
216,64,125650,2,0,B|168:120|192:216|192:216,1,140
272,152,126164,1,2
360,152,126336,1,0
448,152,126507,1,2
448,152,126850,2,2,B|464:280|352:344|352:344,1,210
224,128,128221,6,2,B|136:96|72:136,2,140,2|0|2
296,192,129078,1,0
368,256,129250,2,0,B|456:224|480:144,2,140,0|2|0
296,192,130107,1,0
208,224,130278,2,2,B|200:312|112:336|112:336,1,140,2|0
440,64,130964,5,0
440,168,131136,1,0
360,120,131307,1,2
360,224,131478,1,0
440,168,131650,1,0
440,288,131821,1,0
360,224,131993,1,2
360,344,132164,1,0
288,288,132336,2,2,B|208:264|141:293,2,140,2|0|2
72,16,133364,5,2
24,96,133536,1,0
72,176,133707,1,2
256,112,134050,5,2
256,200,134221,1,0
256,288,134393,1,2
440,208,134736,5,2
488,288,134907,1,0
440,368,135079,1,2
256,112,135421,5,2
256,200,135593,1,0
256,288,135764,1,2
32,56,136107,6,2,B|208:56|208:56,1,140,2|2
480,328,136793,6,2,B|320:328|320:328,1,140,2|2
256,56,137478,5,0
256,328,137821,6,2,B|256:184|256:184,1,140,2|4
