osu file format v7

[General]
AudioFilename: broken moon.mp3
AudioLeadIn: 1985
PreviewTime: 44221
Countdown: 1
SampleSet: Normal
StackLeniency: 0.7
Mode: 0
LetterboxInBreaks: 1

[Editor]
Bookmarks: 10281,11052,14217,14303,16960,17045,19703,19788,22450,22664,27934,28105,32391,33677,37877,39077,52098,56219,92559
DistanceSpacing: 2
BeatDivisor: 4
GridSize: 8

[Metadata]
Title:Broken Moon Remix
Artist:Cle
Creator:Suck
Version:Lunatic
Source:
Tags:Broken Moon Touhou Remix hvick226 Tsukamaete Yaya James2250

[Difficulty]
HPDrainRate:5
CircleSize:4
OverallDifficulty:8
SliderMultiplier:1
SliderTickRate:1

[Events]
//Background and Video events
0,0,"Lunatic.jpg"
//Break Periods
//Storyboard Layer 0 (Background)
//Storyboard Layer 1 (Fail)
//Storyboard Layer 2 (Pass)
//Storyboard Layer 3 (Foreground)
//Storyboard Sound Samples
//Background Colour Transformations
3,100,163,162,255

[TimingPoints]
336,342.857142857143,4,1,0,100,1,0
1020,-100,4,2,0,100,0,0
21250,-100,4,1,0,100,0,0
23131,-100,4,1,0,100,0,0
26731,-100,4,1,0,100,0,0
27931,-50,4,1,0,100,0,0
28616,-100,4,1,0,100,0,0
32388,-50,4,1,0,100,0,0
34102,-100,4,1,0,100,0,0
37874,-50,4,1,0,100,0,0
39588,-100,4,1,0,100,0,0
51759,-100,4,2,0,100,0,0
52445,-100,4,1,0,100,0,0
62730,-100,4,2,0,100,0,0
63416,-100,4,2,0,100,0,0
66159,-100,4,2,0,100,0,0
81588,-200,4,2,0,100,0,0
82278,-100,4,2,0,100,0,0
85359,-100,4,2,0,100,0,0
92564,-100,4,1,0,100,0,0
94616,-50,4,1,0,100,0,0
116559,-100,4,1,0,100,0,0
139188,-200,4,2,0,100,0,0

[HitObjects]
256,192,678,1,0
456,216,1021,5,2
456,264,1193,1,2
456,312,1364,1,2
312,168,1707,1,2
312,120,1878,1,2
312,72,2050,1,2
168,216,2393,1,2
168,264,2564,1,2
168,312,2736,1,2
24,168,3078,1,2
24,120,3250,1,2
24,72,3421,1,2
56,272,3764,5,2
136,336,3936,1,2
216,272,4107,1,2
296,88,4450,1,2
376,24,4621,1,2
456,88,4793,1,2
456,288,5135,1,2
376,352,5307,1,2
296,288,5478,1,2
216,104,5821,1,2
136,40,5993,1,2
56,104,6164,1,2
24,304,6507,6,2,B|24:200,1,100
144,40,7193,2,2,B|144:144,1,100
256,304,7878,2,2,B|256:200,1,100
376,40,8564,2,2,B|376:144,1,100
488,304,9250,2,2,B|488:200,1,100
256,208,9935,12,0,11050
40,104,11307,5,2
56,88,11393,1,2
80,72,11478,1,2
104,64,11564,1,2
128,56,11650,2,2,B|176:40|232:56,1,100
288,248,12336,2,2,B|240:264|184:248,1,100
344,120,13021,2,2,B|392:104|448:120,1,100
504,312,13707,2,2,B|456:328|400:312,1,100
328,264,14221,5,2
312,264,14307,1,2
296,264,14393,2,2,B|256:360,1,100
160,184,15078,2,2,B|200:280,1,100,2|2
296,104,15764,2,2,B|256:200,1,100
160,24,16450,2,2,B|200:120,1,100
112,160,16964,5,2
96,176,17050,1,2
88,200,17136,2,2,B|128:280|200:296,2,150
424,184,18507,2,2,B|384:104|312:88,2,150
368,256,19707,1,2
352,256,19793,1,2
336,256,19878,2,2,B|232:256,1,100
136,80,20564,2,2,B|240:80,1,100
392,208,21250,6,0,B|440:280|392:360,1,150
120,176,21936,2,0,B|72:104|120:24,1,150
176,112,22621,6,0,B|269:103|307:15,1,150
297,35,23307,1,0
448,296,23821,1,0
352,328,23993,2,0,B|304:352|248:352,1,100
160,352,24507,1,0
160,352,24593,1,0
160,352,24678,1,0
88,168,25021,5,0
176,112,25193,1,0
256,56,25364,1,0
424,160,25707,1,0
448,256,25878,1,0
472,352,26050,2,0,B|414:287|325:312,1,150,0|0
304,216,26736,2,0,B|248:232|240:296,1,100
256,208,27250,12,0,28107
32,248,28621,5,0
80,160,28793,1,0
352,32,29307,1,0
424,104,29478,1,0
472,192,29650,1,0
432,280,29821,1,0
360,352,29993,1,0
360,352,30078,1,0
360,352,30164,1,0
184,256,30507,6,0,B|208:208,2,50
64,56,31193,2,0,B|93:100,2,50,0|0|0
352,40,31878,2,0,B|298:43,2,50,0|0|0
320,136,32393,6,0,B|290:122,5,25
342,181,32736,2,0,B|312:167,5,25,0|0|0|0|0|0
399,173,33078,2,0,B|369:159,5,25
422,219,33421,2,0,B|392:205,6,25
368,104,34107,5,0
280,48,34278,1,0
280,344,34793,1,0
184,320,34964,1,0
112,248,35136,1,0
64,160,35307,1,0
32,64,35478,1,0
32,64,35564,1,0
32,64,35650,1,0
232,32,35993,5,0
328,56,36164,1,0
408,120,36336,1,0
464,200,36507,1,0
408,120,36678,1,0
328,56,36850,1,0
232,32,37021,1,0
72,288,37535,5,0
112,192,37707,1,0
144,96,37878,6,0,B|112:96,4,25
232,144,38221,2,0,B|200:144,4,25,0|0|0|0|0
320,96,38564,2,0,B|288:96,4,25
408,144,38907,2,0,B|376:144,4,25
304,248,39593,5,0
208,280,39764,1,0
40,48,40278,1,0
112,120,40450,1,0
200,72,40621,1,0
264,152,40793,1,0
352,104,40964,1,0
352,104,41050,1,0
352,104,41135,1,0
480,256,41478,5,0
422,179,41650,1,0
364,102,41821,1,0
422,179,41993,1,0
327,199,42164,1,0
226,220,42335,1,0
327,199,42507,1,0
381,118,42678,1,0
437,32,42850,1,0
381,118,43021,1,0
327,199,43193,1,0
256,208,43278,12,0,44050
328,184,44221,6,0,B|408:248,1,100
184,200,44907,2,0,B|104:136,1,100
192,88,45421,5,0
192,88,45507,1,0
192,88,45593,1,0
106,135,45764,1,0
106,135,45850,1,0
106,135,45935,1,0
154,219,46107,1,0
237,170,46278,1,0
237,170,46364,1,0
237,170,46450,1,0
237,170,46535,1,0
237,170,46621,1,0
410,70,46964,5,0
410,70,47135,1,0
462,160,47307,1,0
462,160,47478,1,0
379,209,47650,1,0
379,209,47821,1,0
328,119,47993,1,0
328,119,48164,1,0
237,170,48335,1,0
328,119,48507,1,0
410,71,48678,1,0
264,88,48935,5,0
264,88,49021,1,0
304,184,49193,1,0
368,256,49364,1,0
368,256,49707,6,0,B|472:256,1,100,0|0
280,184,50393,2,0,B|392:184,1,100
88,248,51250,2,0,B|200:248,1,100
264,312,51764,1,4
280,312,51850,1,4
296,312,51935,1,4
312,312,52021,1,4
328,312,52107,1,4
208,152,52450,5,0
304,152,52621,1,0
256,64,52793,1,0
208,256,53135,1,0
304,256,53307,1,0
208,216,53478,1,0
304,216,53650,1,0
208,176,53821,1,0
304,176,53993,1,0
256,208,54164,12,0,55021
256,320,55193,6,0,B|184:248,1,100
256,64,55878,2,0,B|328:136,1,100
256,192,56393,5,4
160,192,56564,1,4
160,192,56650,1,4
160,192,56735,1,4
160,88,56907,1,4
256,88,57078,1,4
352,88,57250,1,0
360,88,57335,1,0
368,88,57421,1,0
376,88,57507,1,0
384,88,57593,1,0
472,264,57935,5,0
387,318,58107,1,0
284,325,58278,1,0
193,291,58450,1,0
139,207,58621,1,0
132,103,58793,1,0
174,12,58964,1,0
256,200,59307,5,0
208,288,59478,1,0
304,288,59650,1,0
344,200,59821,1,0
312,160,59907,1,0
280,120,59993,1,0
208,56,60164,1,0
304,56,60335,1,0
200,224,60678,6,0,B|120:288,1,100
312,224,61364,2,0,B|392:288,1,100
390,286,62050,1,0
121,286,62393,1,0
256,224,62735,1,4
256,232,62821,1,4
256,240,62907,1,4
256,248,62993,1,4
256,256,63078,1,4
432,352,63421,5,2
496,272,63593,1,2
496,168,63764,1,2
440,88,63935,1,2
352,32,64107,1,2
256,8,64278,1,2
160,32,64450,1,2
72,88,64621,1,2
8,168,64793,1,2
8,264,64964,1,2
56,352,65135,1,2
256,208,65221,12,4,65993
296,232,66164,6,2,B|352:320,1,100
216,160,66850,2,2,B|160:248,1,100
296,88,67535,2,2,B|352:176,1,100
256,208,67964,12,4,68735
304,136,68907,6,2,B|408:136,1,100
208,192,69593,2,2,B|104:192,1,100
304,248,70278,2,2,B|408:248,1,100
56,48,71307,6,0,B|24:88|56:144,2,100
256,48,72335,1,2
328,120,72507,1,2
400,48,72678,1,2
400,48,73021,2,4,B|440:88|408:144,1,100,4|0
112,336,73707,2,4,B|72:296|104:240,1,100,4|0
304,264,74393,6,2,B|360:360,1,100
304,120,75078,2,2,B|360:24,1,100
464,200,75764,1,2
384,264,75935,1,2
304,200,76107,1,2
232,264,76278,1,2
160,200,76450,2,4,B|120:200,2,25
80,264,76793,1,4
120,72,77135,6,2,B|29:124,1,100,2|2
232,96,77821,2,2,B|322:43,1,100
176,184,78507,2,2,B|85:236,1,100
288,208,79193,2,2,B|378:156,1,100,2|2
240,304,79878,2,2,B|149:356,1,100,2|2
32,192,80564,5,2
66,95,80735,1,2
161,131,80907,1,2
190,38,81078,1,2
285,73,81250,1,2
384,72,81593,2,12,B|464:72,1,75,4|4
440,176,82278,6,0,B|408:224,1,50
320,176,82621,2,0,B|288:128,1,50
200,176,82964,2,0,B|168:224,1,50
248,280,83307,1,2
344,280,83478,1,2
448,280,83650,1,2
400,80,83993,2,0,L|344:80,1,50
400,80,84335,2,0,L|456:80,1,50
408,168,84678,1,2
304,168,84850,1,2
208,168,85021,1,2
208,168,85364,6,0,B|104:168,1,100,0|4
304,216,86050,2,0,B|408:216,1,100,0|4
480,32,86735,1,2
376,32,86907,1,2
272,32,87078,1,2
168,32,87250,1,2
64,32,87421,2,2,B|16:32,2,25
64,32,87764,1,2
208,168,88107,6,0,B|152:72,1,100,0|2
304,224,88793,2,0,B|360:128,1,100,0|4
208,272,89478,2,0,B|152:176,1,100,0|4
304,328,90164,2,2,B|328:288,2,25
208,368,90507,1,2
56,232,90850,5,2
56,128,91021,1,2
144,80,91193,1,2
344,80,91536,5,2
424,136,91707,1,2
424,232,91878,1,2
344,288,92050,1,2
256,248,92221,1,2
160,56,92564,6,0,B|80:104|104:192,1,150
352,328,93250,2,0,B|432:280|408:192,1,150
256,192,93936,1,0
256,200,94021,1,0
256,208,94107,1,0
256,216,94193,1,0
256,224,94278,1,0
256,232,94364,1,0
256,240,94450,1,0
256,248,94536,1,4
256,256,94621,6,0,B|360:256,2,100
448,328,95136,2,0,B|344:328,1,100
40,72,95650,2,0,L|120:136|120:240,1,200
480,64,96336,2,0,B|380:37,1,100
176,48,96678,2,0,B|276:75,1,100
440,184,97021,2,0,B|340:157,2,100
40,176,97707,6,0,L|39:278|120:343,1,200,0|0
440,112,98393,2,0,L|337:112|272:31,1,200,0|0
32,344,99078,2,0,B|111:265,1,100,0|0
296,200,99421,2,0,B|217:279,1,100,0|0
408,184,99764,2,0,B|487:105,2,100
32,32,100450,6,0,L|232:32,1,200
480,352,101136,2,0,L|280:352,1,200
256,192,101821,2,0,B|256:296,2,100,0|0|0
256,192,102336,1,0
256,192,102507,2,0,B|256:88,2,100,0|0|0
432,344,103193,5,0
256,248,103364,1,0
80,344,103536,1,0
480,256,103878,5,0
408,72,104050,1,0
336,256,104221,1,0
264,72,104393,1,0
184,256,104564,1,0
104,72,104736,1,0
32,256,104907,1,8
376,48,105593,6,0,B|428:29,1,50,0|0
411,78,105764,2,0,B|467:78,1,50,0|0
438,127,105936,2,0,B|492:142,1,50,0|0
447,176,106107,2,0,B|498:199,1,50,0|0
492,196,106278,1,8
120,344,106621,2,0,B|13:289|43:167,1,200
400,352,107307,6,0,B|354:319,1,50,0|0
422,286,107478,2,0,B|369:267,1,50,0|0
436,219,107650,2,0,B|379:214,1,50,0|0
430,152,107821,2,0,B|374:161,1,50,0|0
410,89,107993,2,0,B|359:112,1,50,0|0
377,34,108164,2,0,B|334:71,1,50,0|0
343,68,108336,1,8
48,344,108678,6,0,B|154:289|124:167,1,200
464,40,109364,2,0,B|357:94|387:216,1,200
32,32,110050,6,0,B|86:17,1,50
16,94,110221,2,0,B|64:66,1,50
27,165,110393,2,0,B|67:125,1,50
42,226,110564,2,0,B|69:177,1,50
76,282,110736,2,0,B|90:228,1,50
134,324,110907,2,0,B|133:268,1,50
134,274,111078,1,8
456,40,111421,6,0,B|352:40,2,100,0|0|8
56,40,112107,2,0,B|160:40,2,100,0|0|8
16,192,112793,5,0
96,192,112964,1,0
176,192,113136,1,0
256,192,113307,1,0
336,192,113478,1,0
416,192,113650,1,0
496,192,113821,1,8
312,112,114164,5,0
256,192,114336,1,0
192,112,114507,1,0
256,304,114850,5,0
344,256,115021,1,0
312,160,115193,1,0
208,160,115364,1,0
176,256,115536,1,0
256,304,115707,1,0
256,304,115878,1,2
120,160,116564,6,0,B|40:96,1,100,0|0
368,336,117250,2,0,B|472:328,1,100,0|0
72,248,117936,2,0,B|40:344,1,100
368,112,118621,2,0,B|264:104,2,100
392,312,119650,5,0
392,312,119821,1,0
448,264,119993,1,0
448,264,120164,1,0
480,200,120336,1,0
480,200,120507,1,0
480,200,120678,1,0
448,48,121021,5,0
440,48,121107,1,0
432,48,121193,1,0
424,48,121278,1,0
416,48,121364,1,0
312,96,121621,1,0
312,96,121707,1,0
232,104,121878,1,0
168,144,122050,1,0
352,232,122393,5,0
376,192,122564,1,0
352,144,122736,1,0
168,144,123078,1,0
144,184,123250,1,0
168,232,123421,1,0
400,48,123936,5,0
467,115,124107,1,0
400,183,124278,1,0
326,110,124450,1,0
320,104,124536,1,0
315,98,124621,1,0
309,93,124707,1,0
303,87,124793,1,0
112,336,125136,5,0
112,336,125307,1,0
44,268,125478,1,0
44,268,125650,1,0
112,200,125821,1,0
112,200,125993,1,0
184,264,126164,1,0
189,258,126250,1,0
195,252,126336,1,0
200,247,126421,1,0
206,241,126507,1,0
212,235,126593,1,0
217,230,126678,1,0
223,224,126764,1,0
229,218,126850,1,0
72,96,127536,5,0
72,192,127707,1,0
112,96,127878,1,0
112,192,128050,1,0
152,96,128221,1,0
152,192,128393,1,0
192,96,128564,1,0
192,192,128736,1,0
280,144,128907,1,0
296,344,129250,5,0
395,344,129421,1,0
395,243,129593,1,0
295,241,129764,1,0
295,137,129936,1,0
391,137,130107,1,0
391,33,130278,1,0
256,104,130621,5,0
168,192,130793,1,0
256,280,130964,1,0
344,192,131136,1,0
344,192,131307,1,0
344,288,131478,1,0
344,96,131650,1,0
168,184,131993,5,0
168,184,132164,1,0
168,184,132336,1,0
272,80,132593,1,0
272,80,132678,1,0
168,80,132850,1,0
168,80,133021,1,0
40,240,133364,6,0,B|40:344,1,100
208,224,134050,2,0,B|208:120,1,100
208,328,134736,1,0
208,224,134907,1,0
304,224,135078,1,0
304,120,135250,1,0
400,120,135421,1,0
400,16,135593,1,0
496,16,135764,1,0
296,56,136107,5,0
216,112,136278,1,0
296,168,136450,1,0
216,232,136621,1,0
296,288,136793,1,0
292,188,136964,5,4
300,188,137050,1,4
308,188,137136,1,4
220,188,137307,1,4
212,188,137393,1,4
204,188,137478,1,4
260,268,137650,1,4
260,276,137736,1,4
260,284,137821,1,4
256,208,137993,12,4,139021
256,16,139193,5,2
256,112,139536,2,2,B|312:112,1,50,2|2
256,200,140221,2,2,B|200:200,1,50,2|2
256,288,140907,2,2,B|312:288,1,50,2|2
256,376,141593,2,2,B|200:376,1,50
256,208,142278,12,4,145021
