osu file format v6

[General]
AudioFilename: Freedom.mp3
AudioLeadIn: 0
PreviewTime: 47289
Countdown: 0
SampleSet: Soft
StackLeniency: 0.7
Mode: 0
LetterboxInBreaks: 1

[Editor]
Bookmarks: 4407,8217,12026,15836,19764,23455,27264,31074,34883,38693,40598,42502,46431,50122,54050,57741,61550,65360,69288,72979,76788,80598
DistanceSpacing: 0.800000011920929
BeatDivisor: 4
GridSize: 8

[Metadata]
Title:Freedom
Artist:Clazziquai
Creator:MoonFragrance
Version:Normal
Source:DJMAX
Tags:DJ Clazzi DJClazzi Christina SARA TECHNIKA Robotica

[Difficulty]
HPDrainRate:3
CircleSize:4
OverallDifficulty:5
SliderMultiplier:1.4
SliderTickRate:1

[Events]
//Background and Video events
0,0,"bg.jpg"
Video,0,"video.flv"
//Break Periods
//Storyboard Layer 0 (Background)
//Storyboard Layer 1 (Fail)
//Storyboard Layer 2 (Pass)
//Storyboard Layer 3 (Foreground)
//Storyboard Sound Samples
//Background Colour Transformations
3,100,191,128,255

[TimingPoints]
1118,476.190476190476,4,1,1,80,1,0
3260,-100,4,2,2,100,0,0
10165,-100,4,2,1,100,0,0
15403,-100,4,2,1,0,0,0
15641,-100,4,2,1,100,0,0
16356,-100,4,2,1,0,0,0
16594,-100,4,2,1,100,0,0
17308,-100,4,2,1,0,0,0
17546,-100,4,2,2,80,0,0
33260,-100,4,2,1,80,0,0
40998,-100,4,2,2,80,0,0
48737,-100,4,2,2,90,0,1
50641,-100,4,2,1,80,0,1
56356,-100,4,2,2,90,0,1
59570,-100,4,2,1,80,0,1
63975,-100,4,2,2,80,0,0
94451,-100,4,2,2,60,0,0
94689,-100,4,2,2,45,0,0
95046,-100,4,2,2,30,0,0
95522,-100,4,2,2,20,0,0
95998,-100,4,2,2,10,0,0
96594,-100,4,2,2,0,0,0

[Colours]
Combo1 : 213,0,106
Combo2 : 0,128,255

[HitObjects]
96,96,3022,1,4
176,96,3379,2,0,B|296:96,1,105
384,152,4213,1,0
384,264,4689,1,0
384,264,4927,1,0
312,304,5284,2,0,B|192:304,1,105
96,304,6117,1,0
40,208,6594,1,8
40,208,6832,5,0
72,136,7189,2,0,B|96:72|160:96,1,105
256,144,8022,1,0
352,96,8498,1,0
352,96,8737,1,0
416,152,9094,2,0,B|416:280,1,105
312,296,9927,1,0
200,296,10403,2,8,B|136:296,2,35,2|2|0
200,240,10879,6,0,B|200:168,2,70,0|12|0
104,176,11832,2,0,B|104:80,2,70,0|12|0
200,128,12784,2,0,B|296:128,2,70,0|12|0
304,176,13737,2,0,B|304:264,2,70,0|4|2
456,240,14927,5,12
456,184,15165,2,2,B|456:104,1,70,0|0
344,88,15879,1,12
288,88,16117,2,2,B|208:88,1,70,0|0
120,136,16832,1,12
120,192,17070,2,2,B|120:272,1,70,0|0
216,200,17784,5,2
264,104,18260,2,0,B|264:56|368:56|368:112,1,140,0|2
400,152,18975,2,0,B|448:152|448:256|392:256,1,140,0|0
397,255,19689,1,2
296,296,20165,2,0,B|192:296|232:264|128:264,1,140,0|2
120,232,20879,2,0,B|72:232|72:128|128:128,1,140,0|0
122,128,21594,1,2
208,64,22070,6,0,B|272:64|272:120|344:120,1,140,0|2
392,120,22784,2,0,B|440:120|440:232|392:224,1,140
394,224,23498,1,2
280,232,23975,2,0,B|216:232|232:304|160:304,1,140,0|2
120,272,24689,2,0,B|40:272|40:176,1,140
40,179,25403,1,0
112,96,25879,6,0,B|272:96,1,140,0|2
280,144,26594,2,0,B|432:144,1,140
420,144,27308,1,2
424,256,27784,2,0,B|272:256,1,140,0|2
248,304,28498,2,0,B|96:304,1,140
80,256,29213,1,2
80,200,29451,2,0,B|16:200,2,35,8|8|0
136,104,30165,5,2
136,104,30403,2,0,B|304:104,1,140
276,104,31117,1,2
368,176,31594,1,0
368,288,32070,1,2
256,288,32546,1,0
144,288,33022,1,2
72,200,33498,6,0,B|96:120,1,70,8|0
112,80,33975,1,12
224,80,34451,1,8
280,80,34689,2,0,B|368:80,1,70,0|12
440,144,35403,2,0,B|440:232,1,70,8|0
440,272,35879,1,12
328,272,36356,2,0,B|272:216,1,70,8|0
248,264,36832,1,12
216,304,37070,1,2
176,264,37308,6,0,B|96:264,1,70,8|0
106,264,37784,1,12
104,152,38260,1,8
104,152,38498,2,0,B|104:80,1,70,0|12
216,80,39213,1,8
272,80,39451,2,0,B|344:80,2,70,0|12|0
272,136,40165,1,8
328,136,40403,2,0,B|328:216,1,70,0|12
328,264,40879,1,2
272,264,41117,6,2,B|168:264|240:208|128:208,1,140,0|6
136,96,42070,2,2,B|240:96|168:152|280:152,1,140,0|6
344,88,43022,2,2,B|392:88|392:200|344:192,1,140,0|6
264,272,43975,2,2,B|264:320|152:320|160:272,1,140,0|6
256,208,44927,12,2,47308
256,208,48737,12,0,50403
160,104,52070,5,12
160,104,52308,1,2
200,72,52546,2,0,B|304:72,1,70,8|0
328,72,53022,1,12
328,72,53260,1,0
416,144,53737,2,0,B|416:224,2,70,0|12|0
368,176,54451,6,0,B|280:176,1,70,8|0
298,176,54927,1,12
240,176,55165,1,0
128,184,55641,1,0
152,136,55879,1,12
200,104,56117,1,2
256,208,56356,12,0,58022
200,80,59689,5,12
256,80,59927,2,0,B|256:24,2,35,2|2|8
304,104,60403,2,0,B|392:64,2,70,0|12|0
208,160,61356,2,0,B|120:200,2,70,0|12|0
256,192,62070,5,0
304,216,62308,2,0,B|392:256,2,70,0|12|0
232,304,63260,1,0
184,280,63498,1,12
160,232,63737,1,2
256,208,63975,12,0,65879
160,96,66356,5,4
216,96,66594,2,0,B|352:96,1,105
321,96,67308,1,4
392,184,67784,5,0
280,184,68260,1,4
224,184,68498,2,0,B|104:184,1,105
119,184,69213,1,4
88,288,69689,1,0
200,288,70165,1,4
256,288,70403,2,0,B|384:288,1,105
361,288,71117,1,4
432,200,71594,6,0,B|432:56,1,140,0|4
432,60,72308,1,0
352,56,72665,1,0
352,136,73022,1,4
352,136,73260,1,0
352,192,73498,2,0,B|352:344,1,140,0|4
352,332,74213,1,0
272,336,74570,1,0
272,256,74927,1,4
272,256,75165,1,0
272,200,75403,6,0,B|272:56,1,140,0|4
272,60,76117,1,0
184,56,76475,1,0
184,136,76832,1,4
184,136,77070,1,0
184,192,77308,2,0,B|184:336,1,140,0|4
184,332,78022,1,0
128,336,78260,1,0
48,264,78737,1,4
144,208,79213,5,0
192,176,79451,1,0
240,144,79689,2,0,B|240:56|368:48|368:152,1,210,4|0
367,146,80641,1,4
400,256,81117,1,0
344,256,81356,1,0
288,256,81594,2,0,B|72:256,1,210,4|0
78,256,82546,1,4
160,112,83260,5,0
160,112,83498,2,0,B|256:112,1,70,4|0
280,80,83975,2,0,B|280:24|376:24|376:88,1,140,0|4
424,112,84689,2,0,B|424:264,2,140
424,112,85879,1,0
312,112,86356,1,4
120,112,87070,5,0
120,112,87308,2,0,B|120:280,3,140,4|0|4|0
224,304,89213,1,4
328,256,89689,2,0,B|416:256|416:168,1,140,0|4
280,72,90879,5,0
280,72,91117,1,4
168,72,91594,2,0,B|168:192,2,105
256,208,92427,12,0,93498
256,192,93975,5,4
256,208,94451,12,0,96832
