osu file format v6

[General]
AudioFilename: Freedom.mp3
AudioLeadIn: 504
PreviewTime: 47289
Countdown: 0
SampleSet: Soft
StackLeniency: 0.7
Mode: 0
LetterboxInBreaks: 1

[Editor]
Bookmarks: 4407,7527,8217,12026,15836,19764,23455,27264,31074,34883,38693,40598,42502,46431,50122,54050,57741,61550,65360,69288,72979,76788,80598
DistanceSpacing: 0.800000011920929
BeatDivisor: 4
GridSize: 8

[Metadata]
Title:Freedom
Artist:Clazziquai
Creator:MoonFragrance
Version:Hard
Source:DJMAX
Tags:DJ Clazzi DJClazzi Christina SARA TECHNIKA Robotica

[Difficulty]
HPDrainRate:5
CircleSize:4
OverallDifficulty:7
SliderMultiplier:1.8
SliderTickRate:2

[Events]
//Background and Video events
0,0,"bg.jpg"
Video,0,"video.flv"
//Break Periods
//Storyboard Layer 0 (Background)
//Storyboard Layer 1 (Fail)
//Storyboard Layer 2 (Pass)
//Storyboard Layer 3 (Foreground)
//Storyboard Sound Samples
//Background Colour Transformations
3,100,191,128,255

[TimingPoints]
1118,476.190476190476,4,1,1,80,1,0
3260,-100,4,2,2,100,0,0
10284,-100,4,2,1,100,0,0
17427,-100,4,2,2,50,0,0
18141,-100,4,2,2,70,0,0
33260,-100,4,2,1,100,0,0
41058,-100,4,2,2,90,0,0
47427,-100,4,2,2,50,0,0
48737,-100,4,2,2,90,0,1
50641,-100,4,2,2,60,0,1
51117,-100,4,2,2,40,0,1
51594,-100,4,2,2,30,0,1
51951,-100,4,2,1,100,0,1
56356,-100,4,2,2,90,0,1
58260,-100,4,2,2,60,0,1
58737,-100,4,2,2,40,0,1
59213,-100,4,2,2,30,0,1
59570,-100,4,2,1,100,0,1
63975,-100,4,2,2,70,0,0
79094,-100,4,2,2,85,0,0
94451,-100,4,2,2,60,0,0
94689,-100,4,2,2,45,0,0
95046,-100,4,2,2,30,0,0
95522,-100,4,2,2,20,0,0
95998,-100,4,2,2,10,0,0
96594,-100,4,2,2,0,0,0

[Colours]
Combo1 : 213,0,106
Combo2 : 0,128,255

[HitObjects]
256,208,1118,12,4,3022
328,112,3379,5,0
328,112,3498,1,6
272,64,3737,2,0,B|226:18|130:114|175:160,1,180
120,200,4451,1,6
144,272,4689,1,0
208,312,4927,5,0
312,272,5284,1,0
312,272,5403,1,6
368,232,5641,2,0,B|423:264|491:146|435:114,1,180
392,64,6356,1,6
320,48,6594,1,8
288,64,6713,1,8
256,80,6832,5,0
152,56,7189,1,0
152,56,7308,1,6
96,104,7546,2,0,B|30:104|30:239|95:240,1,180
152,280,8260,1,6
216,248,8498,1,0
280,280,8737,5,0
384,248,9094,1,0
384,248,9213,1,6
424,184,9451,2,0,B|470:138|374:41|328:87,1,180
264,56,10165,1,6
192,56,10403,1,2
160,72,10522,1,2
128,88,10641,5,8
64,128,10879,1,0
128,160,11117,1,12
64,192,11356,2,2,B|64:288,1,90,0|8
120,328,11832,1,0
176,288,12070,1,12
240,328,12308,2,2,B|336:328,1,90,0|8
392,288,12784,5,0
440,232,13022,1,12
392,176,13260,2,2,B|392:80,1,90,0|8
328,48,13737,1,0
264,88,13975,1,12
208,48,14213,1,2
176,64,14332,1,2
144,80,14451,5,8
88,128,14689,1,0
88,128,14927,1,12
144,176,15165,2,2,B|144:272,1,90,0|8
200,304,15641,1,0
232,296,15760,1,0
264,288,15879,1,12
336,304,16117,2,2,B|408:232,1,90,0|8
448,192,16594,5,0
448,192,16832,1,12
400,136,17070,2,2,B|336:72,1,90,0|8
240,184,17784,1,2
240,184,18022,1,0
168,184,18260,5,0
104,96,18617,1,0
104,96,18737,1,2
168,72,18975,1,0
312,72,19451,1,0
376,104,19689,1,2
376,248,20165,5,0
304,328,20522,1,0
304,328,20641,1,2
256,280,20879,1,0
120,232,21356,1,0
120,160,21594,1,10
120,88,21832,1,8
152,72,21951,1,8
184,56,22070,5,0
288,56,22427,1,0
288,56,22546,1,2
344,104,22784,1,0
344,248,23260,1,0
400,288,23498,1,2
256,288,23975,5,0
152,288,24332,1,0
152,288,24451,1,2
96,248,24689,1,0
96,104,25165,1,0
152,56,25403,1,10
208,104,25641,1,8
232,80,25760,1,8
264,56,25879,5,0
360,104,26237,1,0
360,104,26356,1,2
416,152,26594,1,0
472,200,26832,1,0
408,224,27070,1,0
344,256,27308,1,2
400,296,27546,1,0
336,328,27784,5,0
232,304,28141,1,0
232,304,28260,1,2
168,336,28498,1,0
168,264,28737,1,0
104,296,28975,1,0
40,264,29213,1,10
72,200,29451,1,8
88,168,29570,1,8
104,136,29689,5,0
184,64,30046,1,0
184,64,30165,1,2
240,104,30403,1,0
304,64,30641,1,0
304,136,30879,1,0
368,104,31117,1,2
368,176,31356,1,0
432,144,31594,5,0
432,248,31951,1,0
432,248,32070,1,2
368,288,32308,1,0
368,288,32546,1,0
120,288,33022,5,2
64,152,33498,5,8
104,88,33737,1,0
136,72,33856,1,0
168,56,33975,1,12
224,104,34213,2,2,B|320:104,1,90,0|8
368,56,34689,1,0
392,88,34808,1,0
416,120,34927,1,12
440,192,35165,2,2,B|440:288,1,90,0|8
376,312,35641,5,0
344,296,35760,1,0
312,280,35879,1,12
248,312,36117,2,2,B|152:312,1,90,0|8
88,288,36594,1,0
88,256,36713,1,0
88,224,36832,1,14
160,208,37070,1,2
160,240,37189,1,2
160,272,37308,5,0
232,256,37546,1,0
232,224,37665,1,0
232,192,37784,1,12
192,136,38022,2,2,B|96:112,1,90,0|8
136,48,38498,1,0
168,56,38617,1,0
200,64,38737,1,12
272,88,38975,2,2,B|368:112,1,90,0|8
432,120,39451,5,0
448,152,39570,1,0
464,184,39689,1,12
416,240,39927,2,2,B|368:160,1,90,0|8
296,176,40403,1,0
312,208,40522,1,0
328,240,40641,1,14
280,288,40879,1,2
264,256,40998,1,2
248,224,41117,6,0,B|248:136|128:112|128:200|192:200|192:112|56:136|56:224,1,270
120,240,42070,2,0,B|120:328|240:352|240:264|176:264|176:352|312:328|312:240,1,270
240,224,43022,2,0,B|240:136|360:112|360:200|296:200|296:112|432:136|432:224,1,270
360,240,43975,2,0,B|360:328|240:352|240:264|304:264|304:352|168:328|168:240,1,270
256,208,44927,12,2,47308
256,192,47546,5,0
184,192,47784,1,0
224,128,48022,2,0,B|272:48,1,90
344,56,48498,2,0,B|297:133,1,90,0|0
256,208,48856,12,0,50403
256,192,50879,5,0
256,192,51356,1,0
256,192,51832,1,0
200,152,52070,1,2
144,112,52308,1,2
168,80,52427,1,2
192,48,52546,5,8
264,48,52784,1,0
288,80,52903,1,0
312,112,53022,1,12
384,112,53260,2,2,B|448:200,1,90,0|8
392,248,53737,1,0
368,216,53856,1,0
344,184,53975,1,12
272,184,54213,2,2,B|224:264,1,90,0|8
152,264,54689,5,0
128,240,54808,1,0
104,216,54927,1,12
104,144,55165,2,2,B|168:72,1,90,0|8
232,80,55641,1,0
264,96,55760,1,0
296,112,55879,1,14
328,128,55998,1,0
360,144,56117,1,2
392,160,56237,1,2
256,208,56356,12,0,58022
256,192,58498,5,0
256,192,58975,1,0
256,192,59451,1,0
192,160,59689,1,14
136,112,59927,1,2
168,96,60046,1,2
200,80,60165,5,0
272,80,60403,1,0
304,96,60522,1,0
336,112,60641,1,12
400,80,60879,2,2,B|424:176,1,90,0|8
352,192,61356,1,0
320,208,61475,1,0
288,224,61594,1,12
232,184,61832,2,2,B|136:232,1,90,0|8
88,248,62308,5,0
72,216,62427,1,0
56,184,62546,1,12
104,136,62784,2,2,B|144:224,1,90,0|8
216,216,63260,1,0
248,232,63379,1,0
280,232,63498,1,14
312,216,63617,1,0
328,184,63737,1,2
320,152,63856,1,2
256,208,63975,12,0,65879
152,80,66237,5,0
152,80,66356,1,4
200,128,66594,1,0
296,80,66951,1,0
384,144,67308,1,4
432,192,67546,1,0
432,192,67784,5,0
352,264,68141,1,0
352,264,68260,1,4
296,224,68498,1,0
200,264,68856,1,0
104,224,69213,1,4
72,160,69451,1,0
72,160,69689,5,0
152,88,70046,1,0
152,88,70165,1,4
168,160,70403,1,0
248,88,70760,1,0
328,160,71117,1,4
376,216,71356,1,0
376,216,71594,5,0
328,312,71951,1,0
328,312,72070,1,4
280,264,72308,1,0
232,312,72546,1,0
232,312,72665,1,0
136,264,73022,1,4
136,264,73260,1,0
80,216,73498,5,0
136,120,73856,1,0
136,120,73975,1,4
176,56,74213,1,0
216,120,74451,1,0
216,120,74570,1,0
304,56,74927,1,4
304,56,75165,1,0
336,120,75403,5,0
416,192,75760,1,0
416,192,75879,1,4
432,264,76117,1,0
360,240,76356,1,0
360,240,76475,1,0
256,272,76832,1,4
256,272,77070,1,0
192,304,77308,5,0
88,272,77665,1,0
88,272,77784,1,4
152,232,78022,1,0
88,200,78260,1,0
88,200,78379,1,0
88,88,78737,1,4
88,88,78975,1,0
152,48,79213,5,0
216,88,79451,1,0
216,88,79570,1,0
280,48,79808,1,0
344,88,80046,1,0
448,240,80641,2,2,B|360:208|400:344|280:288,1,180,4|0
224,272,81356,5,0
224,272,81475,1,0
160,304,81713,1,0
96,272,81951,1,0
96,96,82546,2,2,B|104:64|152:64|160:96|160:96|168:136|224:136|232:96,1,180,4|0
288,56,83260,5,0
288,56,83379,1,0
344,104,83617,1,0
400,152,83856,1,0
288,288,84451,2,2,B|192:288|248:200|136:200,1,180,4|0
80,160,85165,5,0
80,160,85284,1,0
112,96,85522,1,0
184,80,85760,1,0
368,88,86356,2,2,B|400:96|400:144|368:152|368:152|328:160|328:216|368:224,1,180,4|0
320,288,87070,5,0
288,296,87189,1,0
216,288,87427,1,0
216,288,87665,1,0
112,288,88022,1,0
64,232,88260,1,4
96,168,88498,1,0
112,136,88617,1,0
128,104,88737,5,0
184,64,88975,1,0
216,80,89094,1,0
288,64,89332,1,0
288,64,89570,1,0
384,112,89927,1,0
440,160,90165,1,4
424,224,90403,1,0
416,256,90522,1,0
408,288,90641,5,0
344,256,90879,1,0
312,272,90998,1,0
240,288,91237,1,0
240,288,91475,1,0
136,256,91832,1,0
80,208,92070,1,4
96,144,92308,1,0
104,112,92427,1,0
112,80,92546,5,0
184,64,92784,1,0
216,72,92903,1,0
288,88,93141,1,0
288,88,93379,1,0
352,176,93737,1,0
328,240,93975,1,4
264,280,94213,1,0
256,208,94451,12,0,96832
