osu file format v6

[General]
AudioFilename: Come to Me.mp3
AudioLeadIn: 1000
PreviewTime: 62690
Countdown: 0
SampleSet: Normal
StackLeniency: 0.6
Mode: 0
LetterboxInBreaks: 1

[Editor]
DistanceSpacing: 0.800000011920929
BeatDivisor: 4
GridSize: 8

[Metadata]
Title:Come to Me
Artist:Clazziquai
Creator:MoonFragrance
Version:Normal
Source:Clazziquai 1st Album [Instant Pig]
Tags:DJMAX Alex Horan DJ Clazzi DJClazzi Instant Pig

[Difficulty]
HPDrainRate:4
CircleSize:4
OverallDifficulty:3
SliderMultiplier:1.4
SliderTickRate:1

[Events]
//Background and Video events
0,0,"bg.jpg"
Video,-1200,"bg.flv"
//Break Periods
2,77289,83809
//Storyboard Layer 0 (Background)
//Storyboard Layer 1 (Fail)
//Storyboard Layer 2 (Pass)
//Storyboard Layer 3 (Foreground)
//Storyboard Sound Samples
//Background Colour Transformations
3,100,255,128,192

[TimingPoints]
770,480,4,2,0,70,1,0
11684,-100,4,2,0,50,0,0
12764,-100,4,2,0,70,0,0
15404,-100,4,2,0,50,0,0
47804,-100,4,1,0,30,0,0
50444,-100,4,2,0,50,0,0
50924,-100,4,1,0,30,0,0
54284,-100,4,2,0,50,0,0
54764,-100,4,1,0,30,0,0
57644,-100,4,2,0,50,0,0
62204,-100,4,2,0,30,0,1
62444,-100,4,2,0,70,0,1
69884,-100,4,2,0,30,0,1
70124,-100,4,2,0,70,0,1
77564,-100,4,2,0,100,0,0
85244,-100,4,1,0,25,0,0

[Colours]
Combo1 : 240,138,89
Combo2 : 255,128,255
Combo3 : 128,255,128
Combo4 : 128,128,255

[HitObjects]
80,296,8449,2,0,B|136:112|264:312|344:112,1,350
448,88,10129,2,0,B|448:320|144:320,1,420,0|0
104,320,11809,2,2,B|56:320,1,35,2|2
104,248,12289,6,0,B|104:208,2,35
216,248,13009,1,0
328,248,13489,1,0
328,192,13729,1,0
256,208,13969,12,0,15410
160,248,16849,5,2
120,144,17329,1,0
176,80,17689,2,0,B|304:80,1,105,2|0
432,152,18769,1,2
392,256,19249,1,0
304,312,19729,1,2
192,312,20209,1,0
104,168,20929,5,0
104,168,21169,2,0,B|128:96|176:160|208:80,2,140,2|0|2
144,272,22609,1,0
248,312,23089,2,0,B|328:312,1,70,2|0
352,112,24529,5,2
352,112,24769,2,0,B|304:80|248:112,2,105,0|0|2
352,224,25969,1,0
240,224,26449,1,2
128,224,26929,1,0
128,112,27409,1,2
240,112,27889,1,0
352,112,28369,6,0,B|352:184|320:184|320:184|288:160|264:184|264:184|264:184,2,140,2|0|2
264,48,29809,2,0,B|128:48|128:264,1,280,0|2
128,256,31009,1,0
224,312,31490,6,0,B|448:312|448:96,1,350
336,104,33169,2,0,B|272:48|192:112,4,140,0|2|0|2|0
392,104,35329,2,0,B|392:168,2,35
304,248,36289,5,0
304,248,36530,2,0,B|224:200|176:248|176:248|112:312|48:248,2,280
416,256,38930,2,0,B|440:296,2,35
272,168,39889,5,2
272,168,40129,2,0,B|320:120|360:168|360:168|360:96|448:96,3,210,0|2|0|0
320,64,42769,1,2
208,64,43249,1,0
256,168,43730,5,0
304,200,43969,1,0
256,232,44209,1,0
208,200,44450,1,0
256,208,44689,12,2,46849
144,80,48289,5,0
144,80,48529,1,8
144,192,49009,1,0
144,192,49249,1,8
256,192,49729,1,0
368,192,50209,1,8
312,96,50689,5,2
144,304,52129,5,0
144,304,52369,1,8
144,192,52849,1,0
144,192,53089,1,8
256,192,53569,1,0
368,192,54049,1,8
312,288,54529,5,2
144,80,55969,5,0
144,80,56209,1,8
144,192,56689,1,0
144,192,56929,1,8
256,192,57409,1,0
368,192,57889,6,0,B|368:152,4,35,0|2|0|2|2
256,64,59089,6,0,B|256:208,1,140
256,264,59809,1,8
312,264,60049,2,0,B|312:120,1,140
312,72,60769,1,8
368,72,61009,2,0,B|368:216,1,140
368,272,61729,2,0,B|408:272,4,35,2|0|2|2|4
256,272,62689,6,0,B|328:176|256:72,1,210
208,104,63649,1,8
256,208,63889,12,2,66049
368,144,66529,6,0,B|368:72|208:72|208:144,1,210,2|0
152,136,67489,1,8
152,136,67729,2,2,B|152:72|88:72|88:72|56:128|112:184|72:256,1,280,2|0
168,304,69169,1,0
224,304,69409,2,0,B|280:304,4,35,2|0|2|2|4
328,264,70369,6,0,B|408:264|408:120|320:120,1,210,2|0
280,152,71329,1,8
256,208,71569,12,2,73729
256,272,74209,5,2
256,160,74689,1,0
256,48,75169,1,8
200,48,75409,2,0,B|96:48|96:144,1,140
96,176,76129,1,8
96,232,76369,2,0,B|96:312|200:312,1,140
248,312,77089,1,8
112,152,85249,6,2,B|200:152|200:56|200:56|240:56|272:88,1,210,6|2
304,104,86209,2,2,B|384:184|264:272|264:272|216:272|192:240,1,280
144,144,87649,2,0,B|112:96|168:48|208:96,2,105,8|2|2
176,192,88609,1,8
240,248,88969,5,0
296,232,89209,2,2,B|336:160|336:160|416:160|416:256,1,210
392,320,90289,1,2
280,320,90769,1,0
232,288,91009,2,0,B|232:176|80:320|80:184,2,210,0|2|2
376,112,93409,5,2
328,272,94129,2,0,B|264:184|200:312|128:224,2,210,2|2|2
400,232,95929,1,0
336,136,96409,5,2
288,104,96649,2,2,B|240:64|184:104,1,105
152,144,97249,1,2
152,144,97489,1,2
152,144,97730,1,0
224,288,98209,1,2
328,248,98689,2,2,B|504:152|320:40,1,280
232,112,100129,5,0
232,224,100609,1,4
