osu file format v6

[General]
AudioFilename: Come to Me.mp3
AudioLeadIn: 2000
PreviewTime: 62690
Countdown: 0
SampleSet: Normal
StackLeniency: 0.7
Mode: 0
LetterboxInBreaks: 1

[Editor]
DistanceSpacing: 0.800000011920929
BeatDivisor: 4
GridSize: 8

[Metadata]
Title:Come to Me
Artist:Clazziquai
Creator:MoonFragrance
Version:Hard
Source:Clazziquai 1st Album [Instant Pig]
Tags:DJMAX Alex Horan DJ Clazzi DJClazzi Instant Pig

[Difficulty]
HPDrainRate:5
CircleSize:4
OverallDifficulty:4
SliderMultiplier:1.8
SliderTickRate:1

[Events]
//Background and Video events
0,0,"bg.jpg"
Video,-1200,"bg.flv"
//Break Periods
//Storyboard Layer 0 (Background)
//Storyboard Layer 1 (Fail)
//Storyboard Layer 2 (Pass)
//Storyboard Layer 3 (Foreground)
//Storyboard Sound Samples
//Background Colour Transformations
3,100,255,128,192

[TimingPoints]
770,480,4,2,0,30,1,0
3644,-100,4,2,0,20,0,0
5084,-100,4,2,0,50,0,0
7724,-100,4,2,0,20,0,0
8564,-100,4,2,0,50,0,0
11324,-100,4,2,0,20,0,0
12764,-100,4,2,0,50,0,0
46964,-100,4,1,0,30,0,0
50264,-100,4,2,0,50,0,0
50924,-100,4,1,0,30,0,0
53804,-100,4,2,0,50,0,0
54764,-100,4,1,0,30,0,0
57644,-100,4,2,0,50,0,0
62210,-100,4,2,0,50,0,1
62324,-100,4,1,0,30,0,1
65324,-100,4,2,0,50,0,1
66284,-100,4,1,0,30,0,1
69284,-100,4,2,0,50,0,1
70124,-100,4,1,0,30,0,1
72884,-100,4,2,0,50,0,1
75284,-100,4,1,0,30,0,1
77324,-100,4,2,0,100,0,1
77564,-100,4,2,0,30,0,0
85244,-100,4,1,0,25,0,0
100604,-100,4,1,0,0,0,0

[Colours]
Combo1 : 240,138,89
Combo2 : 255,128,255
Combo3 : 128,255,128
Combo4 : 128,128,255

[HitObjects]
272,240,770,1,0
168,136,1250,1,0
120,80,1490,1,0
264,80,1970,1,0
408,80,2450,1,0
336,208,2930,1,0
192,208,3410,1,0
264,80,3890,5,2
264,80,4130,2,0,B|264:136,1,45,2|2
264,232,4610,2,0,B|264:272,4,22.5
408,224,5330,5,0
328,104,5810,1,0
184,104,6290,1,0
112,224,6770,1,0
256,224,7250,1,0
112,64,7970,5,0
112,136,8210,2,0,B|112:168,4,22.5
184,136,8690,5,0
328,136,9170,1,0
328,280,9650,1,0
184,280,10130,1,0
80,184,10610,1,0
184,88,11090,1,0
328,88,11570,5,2
328,88,11810,2,2,B|328:144,1,45
328,240,12290,2,0,B|288:240,4,22.5
184,240,13010,1,0
312,168,13490,1,0
248,200,13730,1,0
256,192,13970,12,0,14930
256,80,15410,6,0,B|256:128,5,45,0|0|0|0|0|0
256,232,16370,5,0
112,216,16850,2,0,B|152:256,1,45
176,144,17330,1,2
320,144,17810,1,0
440,224,18290,1,0
296,224,18770,2,0,B|248:224,1,45
144,224,19250,1,2
192,88,19730,1,0
312,160,20210,5,0
432,72,20690,2,0,B|432:120,1,45
432,224,21170,1,2
312,304,21650,1,0
208,200,22130,1,0
72,240,22610,2,0,B|72:296,2,45
88,168,23090,1,0
128,104,23330,1,0
192,72,23570,6,0,B|216:72,3,22.5
304,72,24050,1,0
448,72,24530,2,0,B|448:120,1,45
368,192,25010,1,2
224,192,25490,1,0
80,192,25970,1,0
144,320,26450,2,0,B|144:264,1,45
144,168,26930,1,2
248,72,27410,1,0
392,72,27890,5,0
392,216,28370,2,0,B|392:272,1,45
288,264,28850,1,2
144,264,29330,1,0
144,120,29810,1,0
288,120,30290,2,0,B|344:120,1,45
336,192,30650,2,0,B|336:240,1,45
264,240,31010,1,0
120,240,31490,5,0
176,192,31730,1,2
120,136,31970,1,0
176,88,32210,1,2
176,88,32330,1,0
176,88,32450,1,0
224,136,32690,1,2
272,192,32930,1,0
320,136,33170,1,2
320,280,33650,5,2
264,320,33890,1,0
208,280,34130,1,2
208,280,34250,1,0
208,280,34370,1,0
264,232,34610,1,2
208,184,34850,1,0
152,144,35090,1,2
208,96,35330,6,0,B|248:96,4,22.5
352,96,36050,1,2
408,144,36290,1,0
352,192,36530,1,2
352,264,36770,1,0
288,224,37010,1,2
232,272,37250,5,0
176,224,37490,1,2
232,176,37730,1,0
176,128,37970,1,2
176,128,38090,1,0
176,128,38210,1,0
232,80,38450,1,2
304,80,38690,1,2
304,80,38810,1,2
376,80,39050,2,0,B|376:112,2,22.5
376,152,39410,5,2
376,296,39890,1,2
376,296,40010,1,0
376,296,40130,1,0
320,248,40370,1,2
264,296,40610,1,0
208,248,40850,1,2
152,296,41090,5,0
104,240,41330,1,2
152,192,41570,1,0
208,144,41810,1,2
208,144,41930,1,0
208,144,42050,1,0
264,192,42290,1,2
320,144,42530,1,0
376,192,42770,1,2
256,192,43010,12,0,44210
256,192,44450,5,0
256,192,44690,12,2,46850
336,80,47330,5,0
192,80,47810,1,0
104,200,48290,1,0
152,256,48530,1,8
296,256,49010,1,0
352,208,49250,1,8
296,160,49490,1,0
296,160,49730,2,0,B|368:160|368:32|288:32,1,180,0|8
232,32,50450,6,0,B|184:80,2,45,2|2|0
232,176,51170,5,0
376,176,51650,2,0,B|448:176|448:296|368:296,1,180,0|0
373,295,52370,1,8
232,296,52850,1,0
176,248,53090,1,8
232,200,53330,1,0
232,200,53570,1,0
320,88,54050,6,0,B|360:128,1,45,2|0
320,144,54290,2,0,B|360:184,1,45,2|2
320,200,54530,1,0
448,272,55010,6,0,B|448:336|320:336|320:264,1,180
192,200,55970,1,0
192,128,56210,1,8
336,128,56690,1,0
368,192,56930,1,8
296,192,57170,1,0
296,192,57410,1,0
176,272,57890,5,0
176,272,58010,1,2
176,272,58130,1,0
176,272,58250,1,2
176,272,58370,1,0
176,200,58610,5,2
232,152,58850,1,8
280,208,59090,1,2
312,184,59210,1,0
344,160,59330,1,0
392,216,59570,1,2
448,168,59810,1,10
400,120,60050,2,2,B|400:48|272:48|272:120,1,180
272,112,60770,1,8
200,120,61010,2,0,B|200:176,1,45
128,160,61370,2,0,B|128:216,1,45
200,224,61730,5,2
200,224,61850,1,0
200,224,61970,1,2
200,224,62090,1,2
200,224,62210,1,4
344,216,62690,5,0
280,88,63170,2,0,B|168:88|168:208,1,180,0|0
168,272,63890,2,8,B|168:344|296:344|296:264,1,180,8|0
352,224,64610,1,8
304,168,64850,1,0
280,144,64970,1,8
256,168,65090,1,0
160,272,65570,5,8
128,248,65690,1,2
160,232,65810,1,0
128,216,65930,1,2
160,200,66050,1,0
232,72,66530,6,0,B|312:72|312:184|224:184,1,180
376,184,67490,1,0
376,184,67730,2,0,B|376:256|248:256|248:176,1,180,8|0
249,188,68450,1,8
192,144,68690,1,0
168,120,68810,1,8
144,144,68930,1,0
144,216,69170,1,8
200,256,69410,5,2
224,280,69530,1,0
248,304,69650,1,0
272,328,69770,1,0
304,328,69890,1,4
408,232,70370,6,0,B|480:232|480:104|400:112,1,180,0|0
264,104,71330,1,0
264,104,71570,2,8,B|192:104|192:232|272:232,1,180,8|0
328,232,72290,1,8
392,272,72530,1,0
416,248,72650,1,8
440,272,72770,1,0
408,136,73250,5,8
384,112,73370,1,2
360,88,73490,1,0
336,64,73610,1,2
312,88,73730,1,0
248,48,73970,5,0
192,96,74210,1,8
136,144,74450,1,0
112,168,74570,1,0
88,192,74690,1,0
136,248,74930,1,2
192,200,75170,1,0
264,200,75410,5,0
288,176,75530,1,0
312,200,75650,1,0
336,176,75770,1,0
360,200,75890,1,0
384,176,76010,1,0
408,200,76130,1,8
408,272,76370,1,0
336,272,76610,1,0
312,296,76730,1,8
288,272,76850,1,0
216,296,77090,1,8
72,296,77570,5,0
120,240,77810,1,2
72,184,78050,1,8
120,128,78290,2,0,B|80:88,2,45,2|0|0
176,80,78770,1,2
232,128,79010,1,8
288,80,79250,2,0,B|288:32,2,45,2|0|0
344,128,79730,5,2
400,176,79970,1,8
344,224,80210,2,0,B|384:264,2,45,2|0|0
288,264,80690,1,2
232,216,80930,1,8
176,264,81170,2,0,B|176:312,2,45,2|2|0
104,264,81650,5,2
104,264,81890,1,8
104,192,82130,1,2
104,160,82250,1,0
104,128,82370,1,0
104,56,82610,1,2
104,56,82850,1,8
176,56,83090,1,0
208,56,83210,1,0
240,56,83330,5,0
312,56,83570,1,2
312,56,83810,1,8
384,56,84050,1,2
384,88,84170,1,0
384,120,84290,1,0
384,192,84530,1,8
384,192,84770,1,8
256,192,85250,12,8,86690
88,168,87170,5,0
104,136,87290,1,2
136,112,87410,1,2
184,168,87650,2,2,B|208:112|288:168,1,90,10|2
296,168,88010,1,0
352,208,88250,1,2
264,272,88610,2,2,B|192:272,1,67.5,10|2
168,224,88970,1,0
200,160,89210,2,2,B|200:56|392:56|392:176,1,270
416,184,90050,5,10
400,256,90290,1,0
384,288,90410,1,2
320,248,90650,1,0
304,280,90770,1,0
240,312,91010,2,0,B|176:312|176:256,2,90,2|0|10
312,312,91730,2,2,B|344:192|344:192|504:304|496:112,1,360
440,88,92930,1,0
336,120,93290,5,0
312,96,93410,1,10
248,120,93650,1,0
248,120,93890,1,0
192,168,94130,1,0
168,192,94250,1,0
136,208,94370,1,10
104,200,94490,1,0
88,168,94610,1,0
96,136,94730,1,0
120,112,94850,1,2
152,104,94970,1,0
184,80,95090,1,0
256,64,95330,1,10
256,64,95570,2,2,B|336:0|384:96,1,157.5
424,136,96170,1,0
368,184,96410,5,2
368,184,96650,2,2,B|280:160|304:248,1,112.5,2|2
256,288,97190,1,2
256,288,97430,2,2,B|168:320|96:248,1,157.5,2|2
104,192,98090,1,2
104,192,98210,1,2
104,192,98330,1,2
104,192,98450,2,2,B|128:136|176:136,1,90
256,192,98810,12,0,99650
256,136,100130,5,0
256,192,100610,12,0,102530
