osu file format v6

[General]
AudioFilename: Come to Me.mp3
AudioLeadIn: 1000
PreviewTime: 62690
Countdown: 0
SampleSet: Soft
StackLeniency: 0.6
Mode: 0
LetterboxInBreaks: 1

[Editor]
DistanceSpacing: 0.800000011920929
BeatDivisor: 4
GridSize: 8

[Metadata]
Title:Come to Me
Artist:Clazziquai
Creator:MoonFragrance
Version:Easy
Source:Clazziquai 1st Album [Instant Pig]
Tags:DJMAX Alex Horan DJ Clazzi DJClazzi Instant Pig

[Difficulty]
HPDrainRate:2
CircleSize:3
OverallDifficulty:2
SliderMultiplier:1.1
SliderTickRate:1

[Events]
//Background and Video events
0,0,"bg.jpg"
Video,-1200,"bg.flv"
//Break Periods
2,76568,83689
//Storyboard Layer 0 (Background)
//Storyboard Layer 1 (Fail)
//Storyboard Layer 2 (Pass)
//Storyboard Layer 3 (Foreground)
//Storyboard Sound Samples
//Background Colour Transformations
3,100,255,128,192

[TimingPoints]
770,480,4,2,0,70,1,0
46610,-100,4,1,0,30,0,0
58364,-100,4,2,0,70,0,0
61970,-100,4,2,0,40,0,0
62210,-100,4,2,0,40,0,1
62450,-100,4,2,0,70,0,1
69644,-100,4,2,0,40,0,1
70124,-100,4,2,0,70,0,1
77564,-100,4,2,0,50,0,0
85244,-100,4,1,0,30,0,0

[Colours]
Combo1 : 240,138,89
Combo2 : 255,128,255
Combo3 : 128,255,128
Combo4 : 128,128,255

[HitObjects]
72,224,8449,2,0,B|72:48|240:48,1,275,0|0
312,88,10129,2,0,B|312:344|64:344,1,385,0|0
56,256,12289,2,0,B|224:256|224:72,1,275
256,192,13969,12,0,15410
72,104,16849,6,0,B|128:64|176:104,1,110
304,104,18049,1,0
408,296,19249,1,0
320,296,19729,1,0
128,192,20929,6,0,B|264:264|304:128|408:208,1,275
256,80,23089,1,0
168,80,23569,1,0
64,272,24769,6,0,B|104:224|168:344|224:288,1,165
280,240,25969,1,0
384,96,26929,1,0
296,96,27409,1,0
392,240,28369,6,0,B|280:184|168:288|64:216,1,330
152,64,30769,1,0
240,64,31249,1,0
256,280,32449,5,0
256,152,33169,2,0,B|312:120|360:160,1,110
256,304,34609,1,0
168,304,35089,1,0
120,88,36289,6,0,B|208:152|312:40|400:112,1,275
304,256,38449,1,0
216,256,38929,1,0
72,88,40129,6,0,B|128:88,1,55
216,88,40849,2,0,B|272:120|336:80,1,110
368,256,42289,1,0
280,256,42769,1,0
104,256,43729,6,0,B|56:208|104:152,2,110
184,216,45169,1,0
184,128,45649,2,0,B|224:72|288:72,1,110
88,192,47329,5,0
176,192,47809,1,0
264,192,48289,1,0
416,104,49249,1,8
416,280,50209,1,8
216,104,51649,5,0
304,104,52129,1,0
168,216,53089,1,8
344,216,54049,1,8
256,64,55009,5,0
256,152,55489,1,0
256,240,55969,1,0
104,320,56929,1,8
104,144,57889,1,8
312,80,59089,5,0
256,152,59569,1,0
208,80,60049,1,0
160,152,60529,1,0
104,224,61009,2,0,B|104:296|184:296,1,110
304,296,62210,5,4
304,208,62689,2,0,B|136:208,1,165,2|0
136,120,63889,2,0,B|136:-8|424:-8|424:136,1,385,2|8
280,224,66529,6,0,B|200:304|120:208,1,165
128,136,67729,2,0,B|160:72|200:136|200:136|240:80|288:176|320:136,1,220
400,144,69169,1,0
424,272,69889,5,4
336,264,70369,2,0,B|272:152|216:272,1,165
256,192,71569,12,2,73729
208,192,75409,6,0,B|256:152|320:200,2,110
104,104,85249,5,4
192,104,85729,1,8
368,104,86689,1,8
368,280,87649,1,8
192,280,88609,1,8
192,104,89569,5,8
368,104,90529,1,8
368,280,91489,1,8
192,280,92449,2,0,B|128:280,2,55,8|0|0
192,192,93409,5,8
376,192,94369,1,8
376,104,94849,2,0,B|240:104,3,110,0|8|0|8
176,104,96769,6,0,B|176:240,3,110,0|8|0|8
256,192,98689,12,4,100609
