osu file format v12

[General]
AudioFilename: Claudia Bramnfsette - Yo Te Atrapo, Tu Me Atrapas (TV Size).mp3
AudioLeadIn: 0
PreviewTime: 47140
Countdown: 0
SampleSet: Soft
StackLeniency: 0.7
Mode: 0
LetterboxInBreaks: 0
WidescreenStoryboard: 0

[Editor]
DistanceSpacing: 1
BeatDivisor: 8
GridSize: 4

[Metadata]
Title:Yo Te Atrapo, Tu Me Atrapas (TV Size)
TitleUnicode:Yo Te Atrapo, Tu Me Atrapas (TV Size)
Artist:Claudia Bramnfsette
ArtistUnicode:Claudia Bramnfsette
Creator:Gero
Version:Dificil
Source:Card Captor Sakura
Tags:Gumi Catch You Catch Me Clow Cards クロウカード Kurō Kādo Megumi Hinata 日向 めぐみ CCS SCC Magical Girl Cardcaptors Shoujo Shojo Opening カードキャプターさくら Kādokyaputā Sakura Sakura Cardcaptors Sakura Cazadora de Cartas Cardcaptor Sakura Sakura Card Captor CLAMP Latino [Yue]
BeatmapID:361378
BeatmapSetID:145738

[Difficulty]
HPDrainRate:6
CircleSize:4
OverallDifficulty:6
ApproachRate:7
SliderMultiplier:1.6
SliderTickRate:2

[Events]
//Background and Video events
Video,0,"Video.avi"
0,0,"BG.jpg",0,0
//Break Periods
//Storyboard Layer 0 (Background)
//Storyboard Layer 1 (Fail)
//Storyboard Layer 2 (Pass)
//Storyboard Layer 3 (Foreground)
//Storyboard Sound Samples
//Background Colour Transformations
3,100,163,162,255

[TimingPoints]
851,468.75,4,2,1,70,1,0
47726,-100,4,2,1,70,0,1
55108,-100,4,2,1,70,0,0
55226,-100,4,2,1,70,0,1
58858,-100,4,2,1,70,0,0
58976,-100,4,2,1,70,0,1
62374,-100,4,2,1,70,0,0
62491,-100,4,2,1,70,0,1
66241,-100,4,2,1,70,0,0
73507,-100,4,2,2,60,0,0
73565,-100,4,2,1,70,0,0
74913,-100,4,2,1,55,0,0
75382,-100,4,2,1,50,0,0
75851,-100,4,2,1,45,0,0
76319,-100,4,2,1,40,0,0
76788,-100,4,2,1,35,0,0
77257,-100,4,2,1,30,0,0
77726,-100,4,2,1,25,0,0
78194,-100,4,2,1,20,0,0
78663,-100,4,2,1,15,0,0
79132,-100,4,2,1,10,0,0
79601,-100,4,2,3,5,0,0

[Colours]
Combo1 : 238,226,83
Combo2 : 255,149,152
Combo3 : 186,154,124
Combo4 : 124,228,151
Combo5 : 68,200,238
Combo6 : 166,149,187
Combo7 : 153,153,153
Combo8 : 194,107,54

[HitObjects]
463,359,2726,2,0,P|490:286|457:214,1,160,6|0,0:0|0:0,0:0:0:0:
392,168,3429,1,2,0:0:0:0:
312,164,3663,2,0,P|321:123|352:98,2,80,0|2|0,0:0|0:0|0:0,0:0:0:0:
392,168,4366,2,0,L|245:80,1,160,2|0,0:0|0:0,0:0:0:0:
181,52,5069,1,0,0:0:0:0:
124,108,5304,6,0,P|92:172|136:244,2,160,2|2|2,0:0|0:0|0:0,0:0:0:0:
170,173,6476,2,0,P|211:224|204:278,1,120
205,275,6944,2,0,L|271:320,1,80,0|2,0:0|0:0,0:0:0:0:
324,258,7413,2,0,L|399:280,1,80,0|2,0:0|0:0,0:0:0:0:
429,252,7765,2,0,L|475:252,1,40
504,180,8116,6,0,P|520:105|496:28,2,160,6|6|6,1:2|1:2|1:2,0:0:0:0:
445,239,9288,2,0,L|420:259,4,20,0|0|0|0|6,0:0|0:0|0:0|0:0|1:2,0:0:0:0:
421,162,9757,2,0,L|338:162,1,80,0|6,1:0|1:2,0:0:0:0:
284,105,10226,6,0,B|203:105|203:105|139:53,1,160,6|12,1:2|0:0,0:0:0:0:
63,37,10929,1,2,0:0:0:0:
25,107,11163,2,0,P|12:144|24:184,1,80,0|2,0:0|0:0,0:0:0:0:
82,235,11632,2,0,P|95:272|83:312,2,80,8|2|0,0:0|0:0|0:0,0:0:0:0:
148,192,12335,5,2,0:0:0:0:
188,124,12569,1,8,0:0:0:0:
188,124,12804,2,0,P|256:88|324:124,1,160,2|2,0:0|0:0,0:0:0:0:
364,192,13507,1,8,0:0:0:0:
324,260,13742,2,0,P|256:296|188:260,1,160,2|2,0:0|0:0,0:0:0:0:
148,192,14444,6,0,B|124:192|124:192|100:204|100:204|68:204,1,80,8|2,0:0|0:0,0:0:0:0:
364,192,14913,2,0,B|388:192|388:192|412:204|412:204|444:204,2,80,2|2|8,0:0|0:0|0:0,0:0:0:0:
324,120,15616,6,0,P|256:84|188:120,2,160,6|6|6,1:2|1:2|1:2,0:0:0:0:
256,188,16788,2,0,L|256:168,4,20,2|0|0|0|6,0:0|0:0|0:0|0:0|1:2,0:0:0:0:
220,260,17257,2,0,P|256:275|292:260,1,80,2|2,0:0|1:2,0:0:0:0:
332,328,17726,6,0,P|256:350|180:328,2,160,6|8|2,1:2|0:0|0:0,0:0:0:0:
376,264,18897,1,0,0:0:0:0:
418,196,19132,2,0,P|382:184|342:192,1,80,8|2,0:0|0:0,0:0:0:0:
268,224,19601,2,0,P|336:184|336:108,2,160,2|8|2,0:0|0:0|0:0,0:0:0:0:
196,192,20772,1,0,0:0:0:0:
136,136,21007,2,0,L|52:136,1,80,8|2,0:0|0:0,0:0:0:0:
40,216,21476,6,0,B|60:136|60:136|40:56,1,160,2|8,0:0|0:0,0:0:0:0:
116,32,22179,1,2,0:0:0:0:
196,20,22413,2,0,L|276:20,1,80,0|2,0:0|0:0,0:0:0:0:
408,80,22882,2,0,L|328:80,1,80,8|2,0:0|0:0,0:0:0:0:
294,152,23351,6,0,B|294:208|220:208|220:292,1,160,2|8,0:0|0:0,0:0:0:0:
291,287,24054,2,0,B|292:208|218:208|218:152,1,160,2|2,0:0|0:0,0:0:0:0:
184,80,24757,2,0,L|104:80,1,80,8|2,0:0|0:0,0:0:0:0:
56,144,25226,6,0,P|27:216|66:294,1,160,2|8,0:0|0:0,0:0:0:0:
64,368,25929,2,0,P|72:288|144:288,1,160,2|2,0:0|0:0,0:0:0:0:
216,308,26632,2,0,L|296:308,1,80,8|2,0:0|0:0,0:0:0:0:
368,344,27101,2,0,B|384:300|364:264|364:264|440:216,1,160,2|8,0:0|0:0,0:0:0:0:
504,196,27804,2,0,P|448:220|376:164,1,160,2|2,0:0|0:0,0:0:0:0:
452,136,28507,1,8,0:0:0:0:
400,76,28741,1,2,0:0:0:0:
348,16,28976,6,0,B|292:16|292:16|232:16|212:72,2,160,6|8|2,0:0|0:0|0:0,0:0:0:0:
400,76,30147,1,0,0:0:0:0:
452,136,30382,2,0,L|424:212,1,80,8|2,0:0|0:0,0:0:0:0:
500,240,30851,2,0,B|480:294|420:294|420:294|364:294,2,160,2|8|2,0:0|0:0|0:0,0:0:0:0:
424,211,32022,1,8,0:0:0:0:
424,211,32257,6,0,B|336:211|336:211|340:172|312:140,1,160,8|6,0:0|0:0,0:0:0:0:
256,200,32960,1,0,0:0:0:0:
196,144,33194,2,0,B|172:172|176:211|176:211|87:211,1,160,8|2,0:0|0:0,0:0:0:0:
48,288,33897,1,0,0:0:0:0:
92,356,34132,6,0,L|0:216,2,160,8|2|8,0:0|0:0|0:0,0:0:0:0:
170,371,35304,1,0,0:0:0:0:
249,360,35538,2,0,P|258:322|247:284,1,80,2|0,0:0|0:0,0:0:0:0:
195,144,36007,2,0,P|184:181|193:220,1,80,8|0,0:0|0:0,0:0:0:0:
265,184,36476,6,0,L|431:184,2,160,2|8|2,0:0|0:0|0:0,0:0:0:0:
195,144,37647,2,0,P|184:181|193:220,1,80,2|8,0:0|0:0,0:0:0:0:
216,296,38116,1,2,0:0:0:0:
216,296,38351,6,0,L|256:368,1,80,2|0,0:0|0:0,0:0:0:0:
294,296,38819,2,0,L|255:365,1,80,10|0,0:0|0:0,0:0:0:0:
324,220,39288,2,0,P|256:184|188:220,1,160,2|10,0:0|0:0,0:0:0:0:
148,152,39991,1,0,0:0:0:0:
148,152,40226,6,0,L|88:92,2,80,6|2|8,0:0|0:0|0:0,0:0:0:0:
216,108,40929,1,0,0:0:0:0:
216,108,41163,2,0,L|216:16,2,80,6|2|8,0:0|0:0|0:0,0:0:0:0:
296,108,41866,1,0,0:0:0:0:
296,108,42100,2,0,L|296:16,2,80,6|2|8,0:0|0:0|0:0,0:0:0:0:
364,152,42804,1,0,0:0:0:0:
364,152,43039,2,0,L|424:92,2,80,6|2|8,0:0|0:0|0:0,0:0:0:0:
112,328,43976,6,0,B|172:416|256:364|256:364|312:332|320:288|296:240|256:224|216:240|192:288|200:332|256:364|256:364|340:416|400:328,2,640,6|2|14,0:0|0:0|1:2,0:0:0:0:
81,254,47960,5,2,0:0:0:0:
50,180,48194,2,0,L|14:96,2,80,8|2|0,0:0|0:0|0:0,0:0:0:0:
129,192,48897,1,2,0:0:0:0:
208,204,49132,2,0,L|244:288,1,80,8|2,0:0|0:0,0:0:0:0:
308,318,49601,5,0,0:0:0:0:
383,342,49835,1,2,0:0:0:0:
383,342,50069,2,0,P|467:341|517:285,2,160,8|2|8,0:0|0:0|0:0,0:0:0:0:
308,318,51241,1,2,0:0:0:0:
231,294,51476,6,0,L|59:294,1,160,2|8,0:0|0:0,0:0:0:0:
14,237,52179,1,0,0:0:0:0:
70,180,52413,2,0,P|35:110|67:40,1,160,2|8,0:0|0:0,0:0:0:0:
119,109,53116,1,0,0:0:0:0:
119,109,53351,6,0,L|159:109,2,40,2|2|2,0:0|0:0|0:0,0:0:0:0:
70,180,53819,2,0,B|150:180|150:180|220:217,1,160,8|2,0:0|0:0,0:0:0:0:
277,274,54522,1,0,0:0:0:0:
333,330,54757,2,0,L|414:330,1,80,8|2,0:0|0:0,0:0:0:0:
441,254,55226,6,0,L|360:254,1,80,6|2,0:0|0:0,0:0:0:0:
386,178,55694,2,0,L|467:178,1,80,8|2,0:0|0:0,0:0:0:0:
491,101,56163,2,0,L|327:101,2,160,2|8|2,0:0|0:0|0:0,0:0:0:0:
467,178,57335,1,2,0:0:0:0:
441,254,57569,6,0,B|320:254|320:254|277:292|277:292|136:292,1,320,8|10,0:0|0:0,0:0:0:0:
86,223,58741,1,2,0:0:0:0:
105,145,58976,6,0,P|65:145|24:171,1,80,6|2,0:0|0:0,0:0:0:0:
86,223,59444,2,0,L|127:56,2,160,8|2|8,0:0|0:0|0:0,0:0:0:0:
142,279,60616,1,2,0:0:0:0:
196,340,60851,6,0,P|256:296|316:340,2,160,2|8|2,0:0|0:0|0:0,0:0:0:0:
142,279,62022,1,0,0:0:0:0:
86,223,62257,1,10,0:0:0:0:
86,223,62491,6,0,B|86:155|23:131|23:131|86:107|86:39,1,240,6|8,1:2|0:0,0:0:0:0:
140,132,63429,1,2,0:0:0:0:
140,132,63663,2,0,L|304:132,1,160,2|8,0:0|0:0,0:0:0:0:
356,208,64366,6,0,L|196:208,2,160,6|6|6,1:2|1:2|1:2,0:0:0:0:
284,352,65772,2,0,L|444:352,2,160,6|6|6,1:2|1:2|1:2,0:0:0:0:
203,352,66944,6,0,P|136:352|76:280,1,160,14|2,1:2|0:0,0:0:0:0:
134,229,67647,1,2,0:0:0:0:
192,172,67882,1,8,0:0:0:0:
248,115,68116,2,0,L|411:115,1,160,2|2,0:0|0:0,0:0:0:0:
444,188,68819,5,8,0:0:0:0:
502,242,69054,2,0,P|447:197|407:257,1,160,2|2,0:0|0:0,0:0:0:0:
462,315,69757,1,8,0:0:0:0:
462,315,69991,2,0,P|390:338|330:284,1,160,2|2,0:0|0:0,0:0:0:0:
270,339,70694,6,0,P|327:281|327:202,1,160,8|2,0:0|0:0,0:0:0:0:
385,149,71397,1,2,0:0:0:0:
441,92,71632,1,8,0:0:0:0:
464,168,71866,6,0,L|336:50,1,160,6|6,1:2|1:2,0:0:0:0:
289,116,72569,1,8,0:0:0:0:
232,172,72804,2,0,L|104:54,2,160,6|6|6,1:2|1:2|1:2,0:0:0:0:
295,220,73976,1,2,0:0:0:0:
351,276,74210,6,0,L|376:276,4,20,0|0|0|0|6,0:0|0:0|0:0|0:0|1:2,0:0:0:0:
256,192,74679,12,0,79601,0:0:0:0:
