osu file format v12

[General]
AudioFilename: Claudia Bramnfsette - Yo Te Atrapo, Tu Me Atrapas (TV Size).mp3
AudioLeadIn: 0
PreviewTime: 47140
Countdown: 0
SampleSet: Soft
StackLeniency: 0.7
Mode: 0
LetterboxInBreaks: 0
WidescreenStoryboard: 0

[Editor]
DistanceSpacing: 0.5
BeatDivisor: 8
GridSize: 4

[Metadata]
Title:Yo Te Atrapo, Tu Me Atrapas (TV Size)
TitleUnicode:Yo Te Atrapo, Tu Me Atrapas (TV Size)
Artist:Claudia Bramnfsette
ArtistUnicode:Claudia Bramnfsette
Creator:Gero
Version:Experto
Source:Card Captor Sakura
Tags:Gumi Catch You Catch Me Clow Cards クロウカード Kurō Kādo Megumi Hinata 日向 めぐみ CCS SCC Magical Girl Cardcaptors Shoujo Shojo Opening カードキャプターさくら Kādokyaputā Sakura Sakura Cardcaptors Sakura Cazadora de Cartas Cardcaptor Sakura Sakura Card Captor CLAMP Latino [Yue]
BeatmapID:361380
BeatmapSetID:145738

[Difficulty]
HPDrainRate:7
CircleSize:4
OverallDifficulty:7
ApproachRate:8
SliderMultiplier:2.4
SliderTickRate:2

[Events]
//Background and Video events
Video,0,"Video.avi"
0,0,"BG.jpg",0,0
//Break Periods
//Storyboard Layer 0 (Background)
//Storyboard Layer 1 (Fail)
//Storyboard Layer 2 (Pass)
//Storyboard Layer 3 (Foreground)
//Storyboard Sound Samples
//Background Colour Transformations
3,100,163,162,255

[TimingPoints]
851,468.75,4,2,1,70,1,0
47726,-100,4,2,1,70,0,1
55108,-100,4,2,1,70,0,0
55226,-100,4,2,1,70,0,1
58858,-100,4,2,1,70,0,0
58976,-100,4,2,1,70,0,1
62374,-100,4,2,1,70,0,0
62491,-100,4,2,1,70,0,1
66241,-100,4,2,1,70,0,0
74913,-100,4,2,1,55,0,0
75382,-100,4,2,1,50,0,0
75851,-100,4,2,1,45,0,0
76319,-100,4,2,1,40,0,0
76788,-100,4,2,1,35,0,0
77257,-100,4,2,1,30,0,0
77726,-100,4,2,1,25,0,0
78194,-100,4,2,1,20,0,0
78663,-100,4,2,1,15,0,0
79132,-100,4,2,1,10,0,0
79601,-100,4,2,3,5,0,0

[Colours]
Combo1 : 238,226,83
Combo2 : 255,149,152
Combo3 : 186,154,124
Combo4 : 124,228,151
Combo5 : 68,200,238
Combo6 : 166,149,187
Combo7 : 153,153,153
Combo8 : 194,107,54

[HitObjects]
85,364,2726,2,0,P|102:312|83:240,1,120,6|0,0:0|0:0,0:0:0:0:
67,228,3077,1,0,0:0:0:0:
45,206,3194,2,0,P|26:148|48:96,1,120,0|2,0:0|0:0,0:0:0:0:
124,19,3663,1,0,0:0:0:0:
200,95,3897,1,2,0:0:0:0:
221,116,4015,1,0,0:0:0:0:
242,137,4132,2,0,B|302:137|302:137|356:170,1,120,0|2,0:0|0:0,0:0:0:0:
440,232,4601,6,0,P|456:288|442:348,1,120,0|0,0:0|0:0,0:0:0:0:
415,359,4952,2,0,L|356:359,1,60
256,313,5304,1,2,0:0:0:0:
159,265,5538,1,0,0:0:0:0:
256,216,5772,1,2,0:0:0:0:
256,216,5890,1,0,0:0:0:0:
256,216,6007,1,0,0:0:0:0:
353,265,6241,1,2,0:0:0:0:
256,313,6476,5,0,0:0:0:0:
159,265,6710,1,0,0:0:0:0:
159,265,6827,1,0,0:0:0:0:
159,265,6944,2,0,P|139:208|159:154,1,120,0|2,0:0|0:0,0:0:0:0:
353,154,7413,2,0,P|373:209|353:265,1,120,0|2,0:0|0:0,0:0:0:0:
328,282,7765,2,0,L|364:332,1,60
468,192,8116,5,6,1:2:0:0:
256,36,8585,1,6,1:2:0:0:
44,192,9054,1,6,1:2:0:0:
130,255,9288,6,0,L|106:279,4,30,0|0|0|0|6,0:0|0:0|0:0|0:0|1:2,0:0:0:0:
256,128,9757,1,0,1:0:0:0:
382,255,9991,1,6,1:2:0:0:
256,371,10226,5,6,1:2:0:0:
130,255,10460,1,2,0:0:0:0:
44,192,10694,2,0,P|25:133|44:77,1,120,12|2,0:0|0:0,0:0:0:0:
468,192,11163,2,0,P|487:251|468:307,1,120,2|2,0:0|0:0,0:0:0:0:
382,255,11632,1,8,0:0:0:0:
382,255,11749,1,0,0:0:0:0:
382,255,11866,2,0,P|472:195|443:82,1,240,2|2,0:0|0:0,0:0:0:0:
130,157,12569,5,8,0:0:0:0:
198,88,12804,2,0,L|87:34,1,120,2|0,0:0|0:0,0:0:0:0:
130,157,13272,2,0,L|241:211,1,120,2|8,0:0|0:0,0:0:0:0:
264,224,13624,1,0,0:0:0:0:
292,240,13741,1,2,0:0:0:0:
376,132,13976,5,2,0:0:0:0:
462,188,14210,1,2,0:0:0:0:
385,264,14444,2,0,P|368:321|389:380,1,120,8|2,0:0|0:0,0:0:0:0:
462,188,14913,2,0,P|480:131|463:75,1,120,2|2,0:0|0:0,0:0:0:0:
269,97,15382,5,10,0:0:0:0:
269,97,15499,1,0,0:0:0:0:
269,97,15616,2,0,P|317:132|376:132,1,120,6|0,1:2|0:0,0:0:0:0:
242,286,16085,2,0,P|194:251|136:252,2,120,6|0|6,1:2|0:0|1:2,0:0:0:0:
166,346,16788,2,0,L|166:376,4,30,2|0|0|0|6,0:0|0:0|0:0|0:0|1:2,0:0:0:0:
320,224,17257,5,2,0:0:0:0:
392,160,17491,1,2,1:2:0:0:
392,160,17608,1,0,1:0:0:0:
392,160,17726,2,0,B|344:92|272:92|272:92|172:92,1,240,6|8,1:2|0:0,0:0:0:0:
104,156,18429,2,0,B|152:224|224:224|224:224|324:224,1,240,2|2,0:0|0:0,0:0:0:0:
388,292,19132,5,8,0:0:0:0:
460,352,19366,2,0,P|480:296|464:240,1,120,2|2,0:0|0:0,0:0:0:0:
392,160,19835,1,0,0:0:0:0:
336,80,20069,2,0,L|208:48,1,120,8|2,0:0|0:0,0:0:0:0:
119,114,20538,2,0,L|236:144,1,120,0|2,0:0|0:0,0:0:0:0:
348,72,21007,2,0,L|220:40,1,120,8|2,0:0|0:0,0:0:0:0:
16,176,21476,5,2,0:0:0:0:
33,270,21710,1,0,0:0:0:0:
96,341,21944,2,0,P|151:361|210:345,1,120,8|2,0:0|0:0,0:0:0:0:
370,267,22413,2,0,P|315:247|258:263,1,120,0|2,0:0|0:0,0:0:0:0:
309,344,22882,5,8,0:0:0:0:
156,260,23116,1,2,0:0:0:0:
96,341,23351,2,0,P|151:361|210:345,1,120,2|0,0:0|0:0,0:0:0:0:
370,267,23819,2,0,P|315:247|258:263,2,120,8|2|0,0:0|0:0|0:0,0:0:0:0:
448,328,24522,1,2,0:0:0:0:
484,240,24757,2,0,B|448:192|448:192|484:144,1,120,8|2,0:0|0:0,0:0:0:0:
352,80,25226,6,0,B|332:28|284:28|284:28|256:28|256:28|228:28|228:28|180:28|160:80,1,240,2|8,0:0|0:0,0:0:0:0:
160,176,25929,2,0,B|180:228|228:228|228:228|256:228|256:228|284:228|284:228|332:228|352:176,1,240,2|2,0:0|0:0,0:0:0:0:
256,128,26632,1,8,0:0:0:0:
160,176,26866,1,2,0:0:0:0:
75,222,27101,6,0,P|55:278|70:335,1,120,2|0,0:0|0:0,0:0:0:0:
160,176,27569,2,0,P|180:120|165:63,1,120,8|2,0:0|0:0,0:0:0:0:
68,216,28038,6,0,P|48:272|63:329,1,120,0|2,0:0|0:0,0:0:0:0:
172,168,28507,2,0,P|192:112|177:55,1,120,8|2,0:0|0:0,0:0:0:0:
69,334,28976,5,6,0:0:0:0:
159,369,29210,1,0,0:0:0:0:
252,349,29444,1,8,0:0:0:0:
320,281,29679,1,2,0:0:0:0:
352,190,29913,6,0,P|294:190|242:225,1,120,2|2,0:0|0:0,0:0:0:0:
320,281,30382,2,0,P|378:281|430:246,1,120,8|2,0:0|0:0,0:0:0:0:
500,332,30851,2,0,P|429:244|487:143,1,240,2|8,0:0|0:0,0:0:0:0:
393,111,31554,1,2,0:0:0:0:
315,60,31788,6,0,L|332:32,4,30,2|0|0|0|8,0:0|0:0|0:0|0:0|0:0,0:0:0:0:
318,217,32257,1,8,0:0:0:0:
456,299,32491,1,8,0:0:0:0:
456,299,32608,1,8,0:0:0:0:
456,299,32726,6,0,P|472:241|455:185,1,120,14|0,0:0|0:0,0:0:0:0:
262,246,33194,2,0,P|320:262|377:245,1,120,10|0,0:0|0:0,0:0:0:0:
315,60,33663,2,0,P|299:118|317:175,1,120,2|0,0:0|0:0,0:0:0:0:
511,111,34132,6,0,P|453:95|396:113,1,120,10|0,0:0|0:0,0:0:0:0:
456,299,34601,2,0,P|472:241|455:185,1,120,2|0,0:0|0:0,0:0:0:0:
262,246,35069,6,0,P|320:262|377:245,1,120,10|0,0:0|0:0,0:0:0:0:
315,59,35538,2,0,P|299:117|317:174,2,120,2|0|10,0:0|0:0|0:0,0:0:0:0:
337,38,36124,1,0,0:0:0:0:
364,26,36241,1,0,0:0:0:0:
456,299,36476,5,2,0:0:0:0:
388,366,36710,1,2,0:0:0:0:
456,299,36944,2,0,P|474:218|457:182,2,120,8|2|0,0:0|0:0|0:0,0:0:0:0:
379,240,37647,1,2,0:0:0:0:
304,180,37882,2,0,P|256:150|208:180,1,120,8|2,0:0|0:0,0:0:0:0:
152,260,38351,6,0,P|116:208|116:152,1,120,2|0,0:0|0:0,0:0:0:0:
360,260,38819,2,0,P|396:208|396:152,1,120,10|0,0:0|0:0,0:0:0:0:
136,256,39288,6,0,P|100:204|100:148,1,120,2|0,0:0|0:0,0:0:0:0:
376,256,39757,2,0,P|412:204|412:148,1,120,10|0,0:0|0:0,0:0:0:0:
256,20,40226,5,6,0:0:0:0:
171,104,40460,1,2,0:0:0:0:
256,188,40694,1,8,0:0:0:0:
341,273,40929,1,0,0:0:0:0:
256,357,41163,5,6,0:0:0:0:
171,273,41397,1,2,0:0:0:0:
256,188,41632,1,8,0:0:0:0:
341,104,41866,1,0,0:0:0:0:
256,20,42101,5,6,0:0:0:0:
171,104,42335,2,0,P|113:109|71:150,2,120,2|8|0,0:0|0:0|0:0,0:0:0:0:
341,104,43038,2,0,P|399:108|441:149,1,120,6|2,0:0|0:0,0:0:0:0:
356,196,43507,2,0,P|256:252|156:196,1,240,8|6,0:0|0:0,0:0:0:0:
87,263,44210,5,0,0:0:0:0:
26,337,44444,2,0,P|82:361|138:346,1,120,2|0,0:0|0:0,0:0:0:0:
486,47,44913,2,0,P|430:23|374:38,1,120,2|0,0:0|0:0,0:0:0:0:
40,328,45382,6,0,P|96:352|152:337,1,120,2|0,0:0|0:0,0:0:0:0:
472,56,45851,2,0,P|416:32|360:47,1,120,2|0,0:0|0:0,0:0:0:0:
56,320,46319,6,0,P|112:344|168:329,1,120,2|0,0:0|0:0,0:0:0:0:
456,64,46788,2,0,L|416:64,4,30,2|0|0|0|0,0:0|0:0|0:0|0:0|0:0,0:0:0:0:
387,132,47257,1,8,0:0:0:0:
319,199,47491,1,8,0:0:0:0:
319,199,47608,1,8,0:0:0:0:
319,199,47726,6,0,P|306:257|320:316,2,120,14|2|8,0:0|0:0|0:0,0:0:0:0:
387,132,48429,1,2,0:0:0:0:
456,64,48663,2,0,L|342:18,1,120,2|2,0:0|0:0,0:0:0:0:
276,87,49132,2,0,L|390:133,1,120,8|2,0:0|0:0,0:0:0:0:
319,199,49601,1,2,0:0:0:0:
256,271,49835,1,2,0:0:0:0:
183,333,50069,6,0,B|122:333|122:333|71:371,1,120,8|0,0:0|0:0,0:0:0:0:
329,333,50538,2,0,B|390:333|390:333|441:371,1,120,2|0,0:0|0:0,0:0:0:0:
482,283,51007,1,10,0:0:0:0:
482,283,51124,1,0,0:0:0:0:
482,283,51241,1,0,0:0:0:0:
456,64,51476,6,0,P|406:31|347:31,1,120,2|0,0:0|0:0,0:0:0:0:
380,120,51944,2,0,P|312:212|376:304,2,240,8|2|8,0:0|0:0|0:0,0:0:0:0:
412,212,53116,1,0,0:0:0:0:
482,283,53351,5,2,0:0:0:0:
460,304,53468,1,0,0:0:0:0:
438,325,53585,1,2,0:0:0:0:
416,346,53702,1,0,0:0:0:0:
394,367,53819,2,0,P|334:367|294:326,1,120,10|0,0:0|0:0,0:0:0:0:
169,192,54288,2,0,P|227:191|269:233,2,120,2|0|8,0:0|0:0|0:0,0:0:0:0:
101,124,54991,1,2,0:0:0:0:
32,55,55226,6,0,L|146:14,1,120,6|2,0:0|0:0,0:0:0:0:
213,83,55694,2,0,L|101:124,1,120,8|2,0:0|0:0,0:0:0:0:
169,192,56163,2,0,L|281:151,1,120,2|2,0:0|0:0,0:0:0:0:
349,219,56632,1,8,0:0:0:0:
416,286,56866,1,2,0:0:0:0:
492,344,57101,6,0,P|509:283|493:228,1,120,2|2,0:0|0:0,0:0:0:0:
416,286,57569,2,0,P|306:302|258:197,2,240,8|2|8,0:0|0:0|0:0,0:0:0:0:
349,219,58741,1,2,0:0:0:0:
216,20,58976,5,6,0:0:0:0:
194,41,59093,1,0,0:0:0:0:
172,62,59210,1,2,0:0:0:0:
150,83,59327,1,0,0:0:0:0:
128,104,59444,1,10,0:0:0:0:
196,172,59679,1,2,0:0:0:0:
263,239,59913,5,2,0:0:0:0:
241,260,60030,1,0,0:0:0:0:
219,281,60147,1,2,0:0:0:0:
197,302,60264,1,0,0:0:0:0:
175,323,60381,1,10,0:0:0:0:
98,264,60616,1,2,0:0:0:0:
98,264,60733,1,2,0:0:0:0:
98,264,60851,6,0,P|78:320|96:376,1,120,2|0,0:0|0:0,0:0:0:0:
416,375,61319,2,0,P|433:319|414:264,1,120,10|0,0:0|0:0,0:0:0:0:
108,264,61788,6,0,P|88:320|106:376,1,120,2|0,0:0|0:0,0:0:0:0:
406,375,62257,1,10,0:0:0:0:
338,307,62491,5,6,1:2:0:0:
316,285,62608,1,0,0:0:0:0:
294,263,62726,2,0,P|276:207|292:146,2,120,0|0|10,0:0|0:0|0:0,0:0:0:0:
370,204,63429,1,2,0:0:0:0:
454,158,63663,2,0,B|408:118|408:118|408:55,2,120,2|0|8,0:0|0:0|0:0,0:0:0:0:
475,179,64249,1,0,0:0:0:0:
496,200,64366,5,6,1:2:0:0:
427,268,64601,1,0,0:0:0:0:
368,343,64835,2,0,P|422:363|485:346,2,120,6|0|6,1:2|0:0|1:2,0:0:0:0:
283,297,65538,6,0,L|256:324,4,30,2|0|0|0|6,0:0|0:0|0:0|0:0|1:2,0:0:0:0:
214,227,66007,1,0,0:0:0:0:
146,159,66241,1,6,1:2:0:0:
146,159,66358,1,0,1:0:0:0:
146,159,66476,2,0,P|125:103|145:48,1,120,0|6,1:0|1:2,0:0:0:0:
367,48,66944,6,0,P|386:104|366:159,2,120,14|2|2,1:2|0:0|0:0,0:0:0:0:
289,105,67647,1,2,0:0:0:0:
220,173,67882,1,8,0:0:0:0:
220,173,67999,1,0,0:0:0:0:
220,173,68116,2,0,P|165:273|221:377,1,240,2|2,0:0|0:0,0:0:0:0:
404,276,68819,5,8,0:0:0:0:
336,207,69054,2,0,L|447:153,1,120,2|0,0:0|0:0,0:0:0:0:
404,276,69522,2,0,L|293:330,1,120,2|8,0:0|0:0,0:0:0:0:
274,307,69874,1,0,0:0:0:0:
252,285,69991,1,2,0:0:0:0:
48,92,70226,5,2,0:0:0:0:
115,24,70460,1,2,0:0:0:0:
48,92,70694,2,0,P|31:149|52:208,1,120,8|2,0:0|0:0,0:0:0:0:
133,368,71163,2,0,P|150:312|132:256,1,120,2|2,0:0|0:0,0:0:0:0:
131,159,71632,5,8,0:0:0:0:
131,159,71749,1,0,0:0:0:0:
131,159,71866,2,0,B|192:159|192:159|241:120,1,120,6|0,1:2|0:0,0:0:0:0:
381,225,72335,2,0,B|320:225|320:225|271:264,2,120,6|8|6,1:2|0:0|1:2,0:0:0:0:
352,317,73038,6,0,L|352:347,4,30,0|0|0|0|6,0:0|0:0|0:0|0:0|1:2,0:0:0:0:
381,225,73507,1,8,0:0:0:0:
409,133,73741,1,6,1:2:0:0:
409,133,73858,1,0,0:0:0:0:
409,133,73976,1,2,0:0:0:0:
437,41,74210,6,0,L|437:11,4,30,0|0|0|0|6,0:0|0:0|0:0|0:0|1:2,0:0:0:0:
256,192,74679,12,0,79601,0:0:0:0:
