osu file format v12

[General]
AudioFilename: Claude - Cross My Heart.mp3
AudioLeadIn: 0
PreviewTime: 31547
Countdown: 0
SampleSet: Normal
StackLeniency: 0.7
Mode: 0
LetterboxInBreaks: 1

[Editor]
DistanceSpacing: 1.2
BeatDivisor: 4
GridSize: 4

[Metadata]
Title:Cross My Heart
TitleUnicode:Cross My Heart
Artist:Claude
ArtistUnicode:Claude
Creator:---Assault[K]---
Version:Normal
Source:
Tags:Ylinestra44
BeatmapID:141358
BeatmapSetID:45243

[Difficulty]
HPDrainRate:5
CircleSize:3
OverallDifficulty:5
ApproachRate:4
SliderMultiplier:0.999999999999999
SliderTickRate:1

[Events]
//Background and Video events
0,0,"Shining-Heart-1-4NGBMXGTOB-800x600.jpg",0,0
//Break Periods
2,119020,132046
//Storyboard Layer 0 (Background)
//Storyboard Layer 1 (Fail)
//Storyboard Layer 2 (Pass)
//Storyboard Layer 3 (Foreground)
//Storyboard Sound Samples
//Background Colour Transformations
3,100,163,162,255

[TimingPoints]
2457,454.545454545455,4,1,0,50,1,0
6547,-100,4,2,0,50,0,0
7684,-100,4,1,0,50,0,0
31547,-100,4,1,0,50,0,1
60638,-100,4,1,0,50,0,0
64729,-100,4,2,0,50,0,0
66093,-200,4,2,0,50,0,0
66547,-100,4,2,0,50,0,0
67229,-100,4,1,0,50,0,0
67457,-100,4,2,0,50,0,0
67570,-100,4,1,0,50,0,0
67684,-100,4,2,0,50,0,0
67911,-100,4,1,0,50,0,0
68593,-100,4,2,0,50,0,0
69729,-100,4,1,0,50,0,0
89729,-100,4,1,0,50,0,1
118820,-100,4,2,0,50,0,0
133366,-100,4,1,0,50,0,0
144047,-50,4,1,0,50,0,0
144729,-100,4,1,0,50,0,0
147911,-100,4,1,0,50,0,1
177002,-100,4,1,0,50,0,0

[Colours]
Combo1 : 255,128,64
Combo2 : 255,0,0
Combo3 : 0,0,255
Combo4 : 255,255,255

[HitObjects]
256,32,2457,1,8,0:0:0:0:
332,124,2911,5,0,0:0:0:0:
308,180,3138,1,0,0:0:0:0:
252,160,3366,1,0,0:0:0:0:
136,132,3820,2,0,B|124:148|104:248|104:248,2,99.9999999999999
140,372,5638,1,8,0:0:0:0:
200,268,6093,1,0,0:0:0:0:
320,248,6547,2,0,B|432:184|456:168|476:128,2,200
240,156,8820,6,0,B|308:112|348:160,1,99.9999999999999
288,260,9729,1,0,0:0:0:0:
60,184,10638,6,0,B|60:72|200:76|200:76,1,200
184,196,12002,1,8,0:0:0:0:
304,200,12457,2,0,B|371:289|256:376|256:376,1,200
212,176,13820,2,0,B|144:176|124:200|124:248,1,125
144,360,14729,5,8,0:0:0:0:
144,240,15184,1,0,0:0:0:0:
24,232,15638,1,8,0:0:0:0:
20,112,16093,1,0,0:0:0:0:
140,112,16547,1,8,0:0:0:0:
352,96,17002,5,4,0:0:0:0:
232,96,17457,1,8,0:0:0:0:
228,216,17911,1,0,0:0:0:0:
348,212,18366,1,8,0:0:0:0:
376,328,18820,5,0,0:0:0:0:
256,336,19275,1,8,0:0:0:0:
256,216,19729,1,0,0:0:0:0:
376,216,20184,1,8,0:0:0:0:
496,220,20638,5,0,0:0:0:0:
404,144,21093,1,8,0:0:0:0:
292,100,21547,1,0,0:0:0:0:
172,108,22002,1,8,0:0:0:0:
228,216,22457,5,0,0:0:0:0:
344,188,22911,1,8,0:0:0:0:
380,304,23366,1,0,0:0:0:0:
264,336,23820,1,8,0:0:0:0:
304,288,24275,6,2,B|224:288|224:208|272:192|288:192|272:112|208:112,1,245
296,276,26093,2,2,B|376:276|376:196|328:180|312:180|328:100|392:100,1,245
204,80,27911,6,0,B|256:80,1,50
116,192,28820,1,0,0:0:0:0:
208,288,29275,1,0,0:0:0:0:
288,176,29729,1,0,0:0:0:0:
76,72,31547,6,2,B|372:344|372:344,1,400
332,228,33820,2,2,B|64:384|64:384,1,300
256,192,35638,12,4,37456,0:0:0:0:
80,96,38820,6,0,B|400:96|400:108,1,300
144,256,40638,5,8,0:0:0:0:
255,260,41093,1,8,0:0:0:0:
367,260,41547,1,8,0:0:0:0:
144,176,42456,2,0,B|208:128|208:112|224:128|224:96|240:112|240:80|256:112|256:112|256:64|256:64|236:56,1,200
284,100,44275,6,0,B|284:179|204:211|156:212|92:212|60:212|104:216|104:216|104:216|104:216|104:216|104:216|104:216|104:216|104:216|104:216|104:216|104:216|104:216|104:216|32:228,1,325
128,128,46093,1,8,0:0:0:0:
208,208,46547,1,8,0:0:0:0:
320,208,47002,1,8,0:0:0:0:
384,112,47684,6,0,B|304:80|304:96|304:96|288:80|288:80|272:96|272:96|256:80|256:80|160:128|160:128|160:128,1,250
240,240,49275,1,0,0:0:0:0:
68,300,49729,2,0,B|148:332|140:168|164:332|196:332|196:332|196:332|196:332|224:320,1,200
256,208,51320,6,0,B|256:144|352:64|448:160|200:296,1,350
240,112,53366,2,0,B|208:80|144:80|96:144|96:192|128:224|288:256|288:256,1,350
304,112,55184,2,0,B|352:80|416:80|464:144|464:192|432:224|272:256|272:256,1,350
256,192,57456,12,0,60638,0:0:0:0:
144,128,62456,5,0,0:0:0:0:
224,208,62911,1,0,0:0:0:0:
304,128,63366,1,0,0:0:0:0:
224,64,64275,5,0,0:0:0:0:
144,128,64729,1,0,0:0:0:0:
224,208,65184,1,0,0:0:0:0:
304,128,65638,1,0,0:0:0:0:
416,128,66093,1,0,0:0:0:0:
416,240,66547,1,0,0:0:0:0:
304,240,67002,1,0,0:0:0:0:
240,112,67911,6,0,B|176:48|100:132,1,150
72,168,68820,1,0,0:0:0:0:
136,268,69275,1,0,0:0:0:0:
188,160,69729,1,0,0:0:0:0:
292,220,70184,1,0,0:0:0:0:
352,288,70638,1,0,0:0:0:0:
432,224,71093,1,0,0:0:0:0:
344,148,71547,2,0,B|236:84|112:132|148:248|24:104|52:144,1,300
168,96,73366,2,0,B|280:160|312:116|324:48|364:24|444:52,1,300
321,177,75184,5,0,0:0:0:0:
257,177,75638,1,8,0:0:0:0:
193,177,76093,1,0,0:0:0:0:
128,177,76547,1,8,0:0:0:0:
128,272,77002,5,0,0:0:0:0:
192,272,77456,1,8,0:0:0:0:
256,272,77911,1,0,0:0:0:0:
320,272,78366,1,8,0:0:0:0:
128,192,79275,5,8,0:0:0:0:
84,88,79729,1,0,0:0:0:0:
204,88,80184,1,0,0:0:0:0:
224,192,80638,5,10,0:0:0:0:
344,188,81093,1,10,0:0:0:0:
344,308,81547,1,10,0:0:0:0:
464,312,82002,1,10,0:0:0:0:
208,288,82456,6,2,B|288:288|288:208|240:192|224:192|240:112|304:112,1,245
288,300,84275,2,2,B|208:300|208:220|256:204|272:204|256:124|192:124,1,245
64,332,86093,6,2,B|116:332,1,50
204,252,87002,1,8,0:0:0:0:
300,180,87456,1,8,0:0:0:0:
220,92,87911,1,8,0:0:0:0:
176,216,88366,2,0,L|116:240,3,50
76,376,89729,6,2,B|372:104|372:104,1,400
332,220,92002,2,2,B|64:64|64:64,1,300
256,192,93820,12,4,95638,0:0:0:0:
80,288,97002,6,0,B|400:288|400:276,1,300
144,128,98820,5,8,0:0:0:0:
255,124,99275,1,8,0:0:0:0:
367,124,99729,1,8,0:0:0:0:
148,224,100638,2,0,B|212:272|212:288|244:320|336:312,1,200
284,284,102457,6,0,B|284:205|204:173|156:172|92:172|60:172|104:168|32:156,1,300
128,256,104275,1,8,0:0:0:0:
208,176,104729,1,8,0:0:0:0:
320,176,105184,1,8,0:0:0:0:
384,272,105866,6,0,B|304:304|304:288|288:304|288:304|272:288|256:304|160:256|160:256,1,225
240,144,107457,1,0,0:0:0:0:
68,84,107911,2,0,B|148:52|148:68|148:68|164:52|164:52|164:84|164:84|196:52|196:52|224:64|224:64|224:64,1,200
256,176,109502,6,0,B|256:240|352:320|448:224|200:88,1,350
300,104,111547,2,0,B|334:66|398:66|446:130|446:178|414:210|204:296|204:296,1,400
232,104,113820,2,4,B|200:72|136:72|88:136|88:184|120:216|333:288|333:288,1,400
256,192,115752,12,0,118820,0:0:0:0:
256,192,133366,5,0,0:0:0:0:
256,192,133593,2,0,B|380:192|376:108|256:96|344:248,1,250
256,192,135184,5,8,0:0:0:0:
256,192,135411,2,0,B|132:192|136:108|256:96|168:248,1,250
256,192,137002,5,0,0:0:0:0:
256,192,137229,2,0,B|380:192|376:276|256:288|344:136,1,250
256,192,138820,5,0,0:0:0:0:
256,192,139047,2,0,B|132:192|136:276|256:288|168:136,1,250
192,192,140411,2,0,P|268:280|368:224,1,250
276,148,142002,5,0,0:0:0:0:
224,180,142229,2,0,P|328:260|432:216,1,250
256,192,144275,5,0,0:0:0:0:
208,112,144729,1,8,0:0:0:0:
304,112,145184,1,8,0:0:0:0:
256,192,145638,1,8,0:0:0:0:
140,188,146093,2,0,L|208:192,4,50
256,192,147911,5,0,0:0:0:0:
368,192,148366,1,8,0:0:0:0:
256,192,148820,1,8,0:0:0:0:
256,32,149502,5,0,0:0:0:0:
256,80,149729,1,0,0:0:0:0:
256,192,150184,1,0,0:0:0:0:
176,192,150638,1,0,0:0:0:0:
356,196,151320,1,0,0:0:0:0:
356,256,151547,1,0,0:0:0:0:
192,288,152002,1,0,0:0:0:0:
256,192,152456,1,0,0:0:0:0:
336,112,152911,1,0,0:0:0:0:
256,192,155184,5,0,0:0:0:0:
144,192,155638,1,0,0:0:0:0:
256,192,156093,1,0,0:0:0:0:
256,192,156775,5,0,0:0:0:0:
256,192,157002,1,0,0:0:0:0:
256,80,157456,1,0,0:0:0:0:
368,80,157911,1,0,0:0:0:0:
256,192,158593,1,0,0:0:0:0:
256,192,158820,1,0,0:0:0:0:
368,192,159275,1,0,0:0:0:0:
368,304,159729,1,0,0:0:0:0:
256,192,160411,5,0,0:0:0:0:
256,128,160638,1,8,0:0:0:0:
294,87,160866,1,8,0:0:0:0:
240,80,161093,1,8,0:0:0:0:
184,81,161320,1,8,0:0:0:0:
156,130,161547,1,8,0:0:0:0:
144,160,162002,6,0,B|144:239|224:271|272:272|336:272|368:272|368:272|368:272|384:272|384:272|384:272|384:272|400:272|400:272|400:272|400:272|400:272|400:272|416:272|416:272|448:272|448:272,1,350
352,112,164275,1,0,0:0:0:0:
232,104,164729,1,0,0:0:0:0:
232,224,165184,1,0,0:0:0:0:
152,136,165638,2,0,B|44:136,2,99.9999999999999
368,292,167911,5,0,0:0:0:0:
248,292,168366,1,0,0:0:0:0:
168,188,168820,2,0,B|168:124|264:44|360:140|409:209,2,300
136,304,172002,1,0,0:0:0:0:
136,184,172456,1,0,0:0:0:0:
300,104,172911,2,0,B|334:66|398:66|446:130|446:178|414:210|204:296|204:296,1,400
232,104,175184,2,4,B|200:72|136:72|88:136|88:184|120:216|333:288|333:288,1,400
