osu file format v9

[General]
AudioFilename: Claude - Cross My Heart.mp3
AudioLeadIn: 0
PreviewTime: 31547
Countdown: 0
SampleSet: Normal
StackLeniency: 0.7
Mode: 0
LetterboxInBreaks: 1

[Editor]
DistanceSpacing: 1.2
BeatDivisor: 4
GridSize: 4

[Metadata]
Title:Cross My Heart
Artist:Claude
Creator:---Assault[K]---
Version:Hard
Source:
Tags:Ylinestra44

[Difficulty]
HPDrainRate:6
CircleSize:4
OverallDifficulty:7
ApproachRate:6
SliderMultiplier:1.8
SliderTickRate:2

[Events]
//Background and Video events
0,0,"Shining-Heart-1-4NGBMXGTOB-800x600.jpg"
//Break Periods
2,119020,132316
//Storyboard Layer 0 (Background)
//Storyboard Layer 1 (Fail)
//Storyboard Layer 2 (Pass)
//Storyboard Layer 3 (Foreground)
//Storyboard Sound Samples
//Background Colour Transformations
3,100,163,162,255

[TimingPoints]
2457,454.545454545455,4,1,0,50,1,0
6547,-100,4,2,0,50,0,0
7684,-100,4,1,0,50,0,0
31547,-100,4,1,0,50,0,1
60638,-100,4,1,0,50,0,0
64729,-100,4,2,0,50,0,0
66093,-200,4,2,0,50,0,0
66547,-100,4,2,0,50,0,0
67229,-100,4,1,0,50,0,0
67457,-100,4,2,0,50,0,0
67570,-100,4,1,0,50,0,0
67684,-100,4,2,0,50,0,0
67911,-100,4,1,0,50,0,0
68593,-100,4,2,0,50,0,0
69729,-100,4,1,0,50,0,0
89729,-100,4,1,0,50,0,1
118820,-100,4,2,0,50,0,0
133366,-100,4,1,0,50,0,0
144047,-50,4,1,0,50,0,0
144729,-100,4,1,0,50,0,0
147911,-100,4,1,0,50,0,1
177002,-100,4,1,0,50,0,0

[Colours]
Combo1 : 255,128,64
Combo2 : 255,0,0
Combo3 : 0,0,255
Combo4 : 255,255,255

[HitObjects]
256,192,2457,1,8
456,276,2911,5,0
348,284,3138,1,0
244,316,3366,1,0
64,252,4275,5,8
160,192,4729,1,8
256,128,5184,1,8
352,192,5638,1,8
416,272,6093,2,0,B|480:272,11,35
160,224,7684,5,0
196,120,7911,1,0
296,164,8138,1,0
264,268,8366,1,0
296,164,8593,2,0,B|328:84|360:84|344:68|392:100|408:116|408:132|440:164|424:228,1,270
336,208,10184,1,4
224,192,10638,6,0,B|224:80|336:80|336:80,2,175
224,192,12002,1,8
304,208,12229,2,0,B|304:320|192:320|192:320,2,175
332,92,13366,1,0
208,144,13820,2,0,B|112:144|112:224|112:272|192:264|192:264,1,180
160,320,14729,5,0
192,320,14957,1,0
224,320,15184,1,0
256,320,15411,1,0
288,320,15638,1,8
320,320,15866,1,8
352,320,16093,1,8
256,256,16547,1,0
352,96,17002,5,0
319,96,17229,1,0
288,96,17457,1,0
256,96,17684,1,0
224,96,17911,1,8
191,95,18138,1,8
159,96,18366,1,8
128,272,18820,5,0
160,272,19047,1,0
192,272,19275,1,0
224,272,19502,1,0
256,272,19729,1,8
288,272,19957,1,8
320,272,20184,1,8
224,208,20638,1,0
256,96,21093,5,8
208,96,21320,1,2
208,144,21547,1,8
208,192,21775,1,8
144,144,22002,1,8
224,192,22457,5,8
272,192,22684,1,8
320,192,22911,1,8
320,240,23138,1,8
368,240,23366,1,8
368,288,23593,1,8
416,288,23820,1,8
204,324,24275,6,0,B|124:324|124:244|172:228|188:228|172:148|304:220,1,270
284,212,25525,2,0,B|364:212|364:132|316:116|304:72|316:36|160:152,1,315
304,288,26775,2,0,B|224:288|224:208|272:192|288:192|272:112|208:112,1,245
144,160,28138,6,0,B|224:160,1,70
144,213,28593,1,0
165,223,28707,1,0
185,233,28820,1,0
336,236,29275,1,0
347,223,29388,1,0
360,212,29502,1,0
256,192,31547,5,0
144,192,32002,1,0
144,80,32457,1,0
16,32,33138,5,0
64,32,33366,1,0
144,128,33820,1,0
144,240,34275,1,0
144,48,34957,5,0
192,48,35184,1,0
160,96,35411,1,0
96,96,35638,1,0
48,96,35866,1,0
80,144,36093,1,0
48,144,36547,5,0
96,144,36775,1,0
144,224,37229,1,0
160,208,37343,1,0
192,224,37456,1,0
224,208,37570,1,0
360,300,37911,1,8
300,208,38138,1,0
408,204,38366,1,8
244,208,38820,5,0
144,176,39275,1,0
160,160,39388,1,0
192,160,39502,1,0
344,212,39957,1,8
340,104,40184,1,8
272,160,40638,5,0
80,160,41093,1,0
96,128,41206,1,0
112,112,41320,1,0
268,68,41775,1,8
148,176,42002,1,8
200,104,42456,6,0,B|200:48|340:44|348:108,1,180,0|8
244,148,43138,1,0
148,200,43366,2,0,B|148:256|288:260|296:196,1,180,0|8
432,164,44047,5,0
392,104,44275,1,0
328,68,44502,1,0
256,60,44729,1,0
184,68,44956,1,0
120,104,45184,1,0
136,208,45866,6,0,B|216:176|228:60,1,180
140,124,46547,1,0
136,176,46775,2,0,B|216:208|228:324,1,180
144,252,47456,2,0,B|224:220|236:104,1,180
128,96,48138,1,8
236,112,48366,2,0,B|316:144|328:260,1,180
220,264,49047,5,0
284,176,49275,1,0
176,164,49502,1,0
344,288,49956,1,0
428,120,50638,1,0
404,224,50866,1,8
316,164,51093,1,0
376,276,51320,6,0,B|352:232|304:232,1,90
136,276,51775,2,0,B|160:232|208:232,1,90,8|0
232,164,52229,2,0,B|184:116|256:60|328:116|280:164,1,180,0|8
256,232,52911,1,0
232,220,53138,2,0,B|184:268|256:324|328:268|280:220,1,180,0|8
376,164,54047,6,0,B|388:116|356:80,1,90
292,48,54502,1,8
220,48,54729,1,0
155,80,54956,2,0,B|124:116|136:164,2,90,0|0|8
104,28,55638,2,0,B|58:43|44:90,1,90
72,156,56093,1,0
72,228,56320,1,8
44,293,56547,2,0,B|58:340|104:356,1,90
176,356,57002,6,0,B|196:268|208:192|224:84,1,270
336,356,57911,6,0,B|316:268|304:192|288:84,1,270
292,300,58820,1,0
220,300,59047,1,8
256,236,59275,1,0
200,192,59502,1,0
312,192,59729,1,0
340,128,59956,5,8
256,140,60184,1,0
172,128,60411,1,4
140,192,60638,1,0
96,80,62456,5,0
256,272,62911,1,0
400,80,63366,1,0
224,64,64275,5,0
144,128,64729,1,0
224,208,65184,1,0
304,128,65638,1,0
144,288,66093,1,0
304,128,66547,1,0
224,208,67002,1,0
240,112,67684,6,0,B|176:48|36:264,1,270
0,192,68820,1,0
256,32,69275,1,0
512,192,69729,1,0
256,192,70184,1,0
256,352,70638,1,0
256,192,71093,1,0
208,160,71547,2,0,B|368:48|384:48|304:256|304:256,1,350
304,224,73138,2,0,B|144:336|128:336|208:128|208:128,1,350
384,176,75184,5,0
351,176,75411,1,0
320,176,75638,1,0
288,176,75866,1,0
256,176,76093,1,0
160,176,76547,1,8
128,272,77002,5,0
160,272,77229,1,0
192,272,77456,1,0
224,272,77684,1,0
288,272,78138,1,8
320,272,78366,1,8
144,192,79275,5,8
96,192,79502,1,2
128,144,79730,1,0
176,144,79957,1,0
240,96,80184,1,0
224,192,80638,5,8
272,192,80866,1,8
320,192,81093,1,8
320,240,81320,1,8
368,240,81547,1,8
368,288,81775,1,8
416,288,82002,1,8
204,324,82456,6,0,B|124:324|124:244|172:228|188:228|172:148|304:220,1,270
284,212,83593,2,0,B|364:212|364:132|316:116|304:72|316:36|160:152,1,315
208,288,84956,2,0,B|288:288|288:208|240:192|224:192|240:112|304:112,1,245
368,160,86320,6,0,B|288:160,1,70
256,128,87002,1,0
304,80,87229,1,0
256,128,88366,5,0
240,112,88479,1,0
224,96,88593,1,0
296,300,89047,1,0
384,240,89275,1,0
432,96,89729,6,0,B|112:96|112:112,1,315
192,192,91093,2,0,B|512:192|512:208,1,315
416,256,92684,2,0,B|96:256|96:272,1,315
100,244,94275,2,0,B|100:140|220:140,1,180,0|8
293,140,94957,2,0,B|412:140|412:244,1,180
312,348,95866,2,0,B|328:308|256:260|184:308|200:348,1,180
256,216,96775,5,0
152,184,97002,2,0,B|116:148|84:116,2,90,0|0|8
256,140,97684,1,0
344,196,97911,2,0,B|368:172|412:128,2,90,0|0|8
256,252,98593,1,0
144,236,98820,2,0,B|168:213|208:173,2,90,0|0|8
256,252,99502,1,0
383,239,99729,2,0,B|356:212|320:176,2,90,0|0|8
368,176,100638,6,0,B|304:128|304:112|304:112|288:128|288:128|288:96|288:96|272:112|272:112|272:80|272:80|256:112|256:112|256:64|256:64|176:96,1,350,0|0
176,80,102002,1,0
176,80,102229,2,0,B|176:159|256:191|304:192|368:192|400:192|384:208|384:208|416:191|416:191|416:208|416:208|432:207|432:207|432:192|432:192|432:224|432:224|448:192|448:192|480:208|480:208,1,455
472,204,103820,1,0
472,204,103934,1,0
352,96,104275,5,0
352,312,104729,1,0
168,200,105184,1,0
136,88,105866,2,0,B|216:56|216:72|216:72|232:56|232:56|232:88|232:88|264:56|264:56|360:104|360:104|360:136,1,315
24,300,107457,1,0
384,256,108138,2,0,B|304:288|304:272|304:272|288:288|288:288|288:256|288:256|256:288|256:288|160:239|160:239|160:208,1,315
196,140,109729,6,0,B|196:192|136:192,1,90
316,244,110184,2,0,B|316:192|376:192,1,90
388,120,110638,2,0,B|376:60|280:44|256:120,1,180,0|8
256,192,111320,1,0
256,264,111547,2,0,B|232:340|136:324|124:264,1,180,0|8
336,112,113366,2,0,B|368:80|432:80|480:144|480:192|448:224|288:256|288:256,1,350
288,176,114729,1,0
240,112,115184,2,0,B|208:80|144:80|96:144|96:192|128:224|288:256|288:256,1,350
256,192,116320,12,0,118820
256,192,133366,5,0
256,192,133479,1,0
256,192,133593,1,0
160,144,133820,1,8
340,264,134275,1,8
160,144,134729,1,8
340,264,135184,1,8
256,192,137002,5,0
256,192,137116,1,0
256,192,137229,1,0
164,136,137457,1,8
340,260,137911,1,8
164,136,138366,1,8
340,260,138820,1,0
256,192,140638,5,0
256,192,140752,1,0
256,192,140866,1,0
344,128,141093,1,8
168,256,141547,1,8
340,128,142002,1,8
164,252,142457,1,0
256,64,144275,5,0
96,192,144729,1,8
416,192,145184,1,8
256,336,145638,1,8
476,196,147911,5,0
260,192,148366,1,8
44,192,148820,1,8
364,136,149502,5,0
364,244,149729,1,0
452,188,150184,1,0
236,184,150638,1,0
48,192,151320,1,0
156,196,151547,1,0
368,152,152002,1,0
172,240,152456,1,0
372,324,152911,1,0
176,120,155184,5,0
332,268,155638,1,0
256,192,156093,1,0
256,80,156775,5,0
148,76,157002,1,0
140,292,157456,1,0
356,296,157911,1,0
128,76,158593,1,0
236,76,158820,1,0
412,200,159275,1,0
196,204,159729,1,0
256,192,160411,5,0
256,128,160638,1,8
256,80,160866,1,8
208,80,161093,1,8
160,80,161320,1,8
144,160,161547,1,8
144,160,162002,6,0,B|144:239|224:271|272:272|336:272|368:272|352:288|352:288|384:271|384:271|384:288|384:288|400:287|400:287|400:272|400:272|400:304|400:304|416:272|416:272|448:288|448:288,1,455
432,240,164047,2,0,B|352:208|352:224|352:224|336:208|336:208|336:240|336:240|304:208|304:208|208:256|208:256|208:288,1,315
72,44,165411,5,0
252,132,166093,1,0
312,208,166547,1,0
376,136,167002,1,0
388,240,167684,6,0,B|304:288|308:288|308:288|288:288|288:288|288:288|288:288|228:288|228:288|144:236,1,270
192,156,168820,2,0,B|200:116|256:68|312:116|320:156,1,180
256,192,169502,1,0
320,228,169729,2,0,B|312:268|256:316|200:268|192:228,1,180,0|8
84,256,170638,6,0,B|100:304|148:312,1,90
220,312,171093,1,8
292,312,171320,1,0
363,312,171547,2,0,B|412:304|428:256,2,90,0|0|8
149,312,172229,2,0,B|100:304|84:256,2,90,0|0|8
336,112,173138,2,0,B|368:80|432:80|480:144|480:192|448:224|288:256|288:256,1,350
240,112,174275,2,0,B|208:80|144:80|96:144|96:192|128:224|288:256|288:256,1,350
256,192,175638,12,4,177002
