osu file format v14

[General]
AudioFilename: Classic - Hej Czy Ty Wiesz (Richie Madano Remix).mp3
AudioLeadIn: 0
PreviewTime: -1
Countdown: 0
SampleSet: Soft
StackLeniency: 0.7
Mode: 0
LetterboxInBreaks: 0
WidescreenStoryboard: 0

[Editor]
DistanceSpacing: 1.6
BeatDivisor: 4
GridSize: 32
TimelineZoom: 1.8

[Metadata]
Title:Hej Czy Ty Wiesz (Richie Madano Remix)
TitleUnicode:Hej Czy Ty Wiesz (Richie Madano Remix)
Artist:Classic
ArtistUnicode:Classic
Creator:Hydra
Version:test
Source:co
Tags:classic, hej, czy, ty , wiesz
BeatmapID:855819
BeatmapSetID:393168

[Difficulty]
HPDrainRate:8
CircleSize:4
OverallDifficulty:8
ApproachRate:9
SliderMultiplier:2.1
SliderTickRate:2

[Events]
//Background and Video events
0,0,"Love-Wallpapers-love-33002117-1600-1000.jpg",0,0
//Break Periods
2,51877,57210
2,102689,107803
2,110135,114363
//Storyboard Layer 0 (Background)
//Storyboard Layer 1 (Fail)
//Storyboard Layer 2 (Pass)
//Storyboard Layer 3 (Foreground)
//Storyboard Sound Samples

[TimingPoints]
1542,437.956204379562,4,2,0,100,1,0
73248,-66.6666666666667,4,2,0,100,0,1
108065,-100,4,2,0,100,0,0
134452,-66.6666666666667,4,2,0,100,0,1
164014,-100,4,2,0,100,0,0

[HitObjects]
256,224,50583,5,0,0:0:0:0:
224,96,51021,2,0,P|352:128|384:320,1,315
352,64,57810,6,0,L|448:128|448:128,1,105
416,320,58248,1,0,0:0:0:0:
224,224,58467,1,0,0:0:0:0:
128,64,58686,1,0,0:0:0:0:
128,288,59343,2,0,L|224:192,1,105
320,32,59790,1,0,0:0:0:0:
384,32,59899,1,0,0:0:0:0:
448,64,60009,1,0,0:0:0:0:
288,128,60218,1,0,0:0:0:0:
288,128,60437,1,0,0:0:0:0:
416,160,60656,6,0,P|416:256|384:288,1,105
288,224,61094,2,0,P|256:160|256:128,1,105
416,160,61532,2,0,P|416:224|384:256,1,105
256,32,61970,1,0,0:0:0:0:
160,160,62198,1,0,0:0:0:0:
128,224,62308,1,0,0:0:0:0:
96,288,62408,1,0,0:0:0:0:
256,320,62846,2,0,L|256:192,1,105
288,32,63284,1,0,0:0:0:0:
352,64,63403,1,0,0:0:0:0:
384,128,63503,1,0,0:0:0:0:
320,288,63731,2,0,L|256:256,2,52.5
160,128,64170,1,0,0:0:0:0:
160,128,64389,1,0,0:0:0:0:
352,64,64608,1,0,0:0:0:0:
352,64,64717,1,0,0:0:0:0:
352,64,64827,1,0,0:0:0:0:
416,256,65046,2,0,P|320:256|288:224,1,105
212,160,65483,2,0,L|160:160,2,52.5
212,160,65921,1,0,0:0:0:0:
416,160,66359,6,0,L|416:288,1,105
224,256,66788,2,0,L|160:288,2,52.5
212,128,67226,2,0,L|320:192,1,105
288,96,67664,5,0,0:0:0:0:
416,256,67883,1,0,0:0:0:0:
416,56,68102,1,0,0:0:0:0:
320,224,68330,2,0,P|256:288|224:288,1,105
246,289,68658,1,0,0:0:0:0:
246,289,68768,1,0,0:0:0:0:
96,192,68987,1,0,0:0:0:0:
288,192,69206,1,0,0:0:0:0:
448,64,69425,2,0,P|448:128|416:192,1,105
256,96,69863,5,0,0:0:0:0:
256,96,70081,2,0,P|256:192|288:224,1,105
384,224,70510,2,0,L|407:177,2,52.5
384,224,70948,1,0,0:0:0:0:
256,192,71167,12,0,73138,0:0:0:0:
128,64,73357,6,0,P|64:128|64:192,1,157.500006008148
352,224,73795,1,0,0:0:0:0:
96,288,74014,1,0,0:0:0:0:
320,64,74233,2,0,P|384:96|416:192,1,157.500006008148
128,320,74671,1,0,0:0:0:0:
416,224,74890,1,0,0:0:0:0:
96,160,75109,1,0,0:0:0:0:
416,128,75328,1,0,0:0:0:0:
96,64,75547,2,0,P|64:160|64:224,1,157.500006008148
352,64,75985,1,0,0:0:0:0:
384,256,76204,2,0,P|320:320|256:320,1,157.500006008148
160,96,76870,5,0,0:0:0:0:
224,256,77089,1,0,0:0:0:0:
375,183,77308,1,0,0:0:0:0:
375,183,77417,1,0,0:0:0:0:
375,183,77527,1,0,0:0:0:0:
160,192,77746,1,0,0:0:0:0:
320,256,77965,1,0,0:0:0:0:
160,288,78184,1,0,0:0:0:0:
320,352,78403,1,0,0:0:0:0:
448,256,78622,2,0,L|448:96,1,157.500006008148
288,64,79060,1,0,0:0:0:0:
192,224,79279,1,0,0:0:0:0:
160,64,79498,1,0,0:0:0:0:
64,224,79717,1,0,0:0:0:0:
192,320,79936,2,0,P|288:320|352:288,1,157.500006008148
352,64,80373,6,0,P|416:128|416:192,1,157.500006008148
128,96,80811,1,0,0:0:0:0:
352,320,81030,1,0,0:0:0:0:
192,64,81249,1,0,0:0:0:0:
288,352,81468,1,0,0:0:0:0:
256,32,81687,1,0,0:0:0:0:
224,352,81906,1,0,0:0:0:0:
320,64,82125,1,0,0:0:0:0:
160,320,82344,1,0,0:0:0:0:
384,96,82563,1,0,0:0:0:0:
128,256,82782,1,0,0:0:0:0:
128,128,83001,2,0,P|192:64|256:64,1,157.500006008148
448,320,83439,2,0,P|320:320|256:288,1,157.500006008148
384,96,83877,5,0,0:0:0:0:
224,64,84096,2,0,P|128:96|64:160,2,157.500006008148
224,64,84644,1,0,0:0:0:0:
224,64,84753,1,0,0:0:0:0:
192,288,85401,1,0,0:0:0:0:
384,224,85620,1,0,0:0:0:0:
160,64,85839,2,0,P|96:128|96:192,1,157.500006008148
320,288,86277,2,0,P|416:224|416:160,1,157.500006008148
192,160,86724,1,0,0:0:0:0:
192,160,86943,1,0,0:0:0:0:
192,160,87052,1,0,0:0:0:0:
192,160,87162,1,0,0:0:0:0:
128,320,87381,6,0,P|64:256|64:192,1,157.500006008148
352,160,87819,1,0,0:0:0:0:
96,96,88038,1,0,0:0:0:0:
320,320,88257,2,0,P|384:288|416:192,1,157.500006008148
128,64,88695,1,0,0:0:0:0:
416,160,88914,1,0,0:0:0:0:
96,224,89133,1,0,0:0:0:0:
416,256,89352,1,0,0:0:0:0:
96,320,89571,2,0,P|64:224|64:160,1,157.500006008148
352,320,90009,1,0,0:0:0:0:
384,128,90228,2,0,P|320:64|256:64,1,157.500006008148
160,288,90885,5,0,0:0:0:0:
224,128,91104,1,0,0:0:0:0:
320,256,91323,2,0,L|384:192,2,78.7500030040742
160,192,91761,1,0,0:0:0:0:
320,128,91980,1,0,0:0:0:0:
160,96,92199,1,0,0:0:0:0:
320,32,92418,1,0,0:0:0:0:
448,128,92637,2,0,L|448:288,1,157.500006008148
288,320,93075,1,0,0:0:0:0:
192,160,93294,1,0,0:0:0:0:
160,320,93513,1,0,0:0:0:0:
64,160,93732,1,0,0:0:0:0:
192,64,93951,2,0,P|288:64|352:96,1,157.500006008148
352,320,94388,6,0,P|416:256|416:192,1,157.500006008148
224,96,94826,1,0,0:0:0:0:
128,288,95045,1,0,0:0:0:0:
352,256,95264,1,0,0:0:0:0:
160,128,95483,1,0,0:0:0:0:
256,320,95702,1,0,0:0:0:0:
352,128,95921,1,0,0:0:0:0:
320,320,96140,1,0,0:0:0:0:
160,64,96359,1,0,0:0:0:0:
384,288,96578,1,0,0:0:0:0:
128,128,96797,1,0,0:0:0:0:
128,256,97016,2,0,P|192:320|256:320,1,157.500006008148
448,64,97454,2,0,P|320:64|256:96,1,157.500006008148
384,288,97892,5,0,0:0:0:0:
224,320,98111,2,0,P|128:288|64:224,2,157.500006008148
224,320,98768,1,0,0:0:0:0:
192,96,99425,1,0,0:0:0:0:
384,160,99644,1,0,0:0:0:0:
160,320,99863,2,0,P|96:256|96:192,1,157.500006008148
320,96,100301,2,0,P|416:160|416:224,1,157.500006008148
224,320,100738,1,0,0:0:0:0:
160,224,100957,1,0,0:0:0:0:
160,160,101067,1,0,0:0:0:0:
192,96,101176,1,0,0:0:0:0:
384,96,101395,5,0,0:0:0:0:
256,320,101614,2,0,B|176:320|176:320|192:224,1,157.500006008148
384,192,102052,1,0,0:0:0:0:
192,96,102271,2,0,L|96:96,2,78.7500030040742
128,96,108403,5,0,0:0:0:0:
320,160,108622,2,0,L|320:224|320:224,2,52.5
384,320,109060,1,0,0:0:0:0:
224,288,109279,2,0,P|158:305|192:128,1,315
160,64,114963,5,0,0:0:0:0:
160,64,115182,1,0,0:0:0:0:
256,192,115401,1,0,0:0:0:0:
256,192,115620,1,0,0:0:0:0:
384,96,115839,2,0,P|416:160|416:192,1,105
416,224,116167,1,0,0:0:0:0:
384,256,116277,1,0,0:0:0:0:
224,288,116496,2,0,P|128:256|128:224,1,105
160,128,116934,5,0,0:0:0:0:
320,160,117153,2,0,P|320:96|256:64,1,105
256,64,117481,1,0,0:0:0:0:
224,64,117591,1,0,0:0:0:0:
384,64,117810,1,0,0:0:0:0:
416,224,118029,2,0,P|384:288|352:320,1,105
192,320,118467,6,0,L|160:256,1,52.5
96,224,118686,2,0,P|146:184|178:152,1,105
288,64,119124,1,0,0:0:0:0:
416,160,119343,1,0,0:0:0:0:
256,160,119562,1,0,0:0:0:0:
384,256,119781,1,0,0:0:0:0:
224,256,119999,1,0,0:0:0:0:
64,224,120218,2,0,P|64:128|96:96,1,105
288,192,120656,5,0,0:0:0:0:
224,320,120885,2,0,L|128:288,1,52.5
128,224,121104,2,0,P|128:160|160:128,1,105
320,160,121423,1,0,0:0:0:0:
352,128,121532,1,0,0:0:0:0:
448,256,121751,1,0,0:0:0:0:
288,320,121970,2,0,P|128:320|64:96,1,420
288,64,123284,1,0,0:0:0:0:
288,64,123394,1,0,0:0:0:0:
288,64,123503,1,0,0:0:0:0:
288,64,123722,1,0,0:0:0:0:
416,192,124160,6,0,P|416:256|352:288,1,105
288,160,124598,2,0,P|224:192|224:256,1,105
64,160,125036,2,0,P|64:96|128:64,1,105
128,224,125474,5,0,0:0:0:0:
320,192,125693,1,0,0:0:0:0:
160,96,125912,1,0,0:0:0:0:
352,64,126131,1,0,0:0:0:0:
384,256,126350,2,0,L|448:224,2,52.5
192,256,126788,2,0,L|96:192,1,105
224,64,127226,2,0,L|352:128,1,105
384,288,127664,5,0,0:0:0:0:
320,96,127883,1,0,0:0:0:0:
320,288,128102,1,0,0:0:0:0:
256,128,128321,2,0,P|192:96|128:128,1,105
128,128,128649,1,0,0:0:0:0:
96,160,128759,1,0,0:0:0:0:
384,128,129416,5,0,0:0:0:0:
256,256,129635,2,0,P|192:224|160:192,1,105
160,160,129963,1,0,0:0:0:0:
160,128,130072,1,0,0:0:0:0:
384,256,131167,5,0,0:0:0:0:
256,128,131386,2,0,P|192:160|160:192,1,105
160,224,131714,1,0,0:0:0:0:
160,256,131823,1,0,0:0:0:0:
128,64,134671,6,0,P|64:128|64:192,1,157.500006008148
352,224,135109,1,0,0:0:0:0:
96,288,135328,1,0,0:0:0:0:
320,64,135547,2,0,P|384:96|416:192,1,157.500006008148
128,320,135985,1,0,0:0:0:0:
416,224,136204,1,0,0:0:0:0:
96,160,136423,1,0,0:0:0:0:
416,128,136642,1,0,0:0:0:0:
96,64,136861,2,0,P|64:160|64:224,1,157.500006008148
352,64,137299,1,0,0:0:0:0:
384,256,137518,2,0,P|320:320|256:320,1,157.500006008148
160,96,138175,5,0,0:0:0:0:
224,256,138394,1,0,0:0:0:0:
320,128,138613,2,0,L|384:192,2,78.7500030040742
160,192,139051,1,0,0:0:0:0:
320,256,139270,1,0,0:0:0:0:
160,288,139489,1,0,0:0:0:0:
320,352,139708,1,0,0:0:0:0:
448,256,139927,2,0,L|448:96,1,157.500006008148
288,64,140365,1,0,0:0:0:0:
192,224,140584,1,0,0:0:0:0:
160,64,140803,1,0,0:0:0:0:
64,224,141022,1,0,0:0:0:0:
192,320,141241,2,0,P|288:320|352:288,1,157.500006008148
352,64,141678,6,0,P|416:128|416:192,1,157.500006008148
160,128,142116,1,0,0:0:0:0:
320,224,142335,1,0,0:0:0:0:
128,96,142563,1,0,0:0:0:0:
352,224,142782,1,0,0:0:0:0:
96,64,143001,1,0,0:0:0:0:
352,256,143220,1,0,0:0:0:0:
96,256,143439,1,0,0:0:0:0:
256,64,143658,1,0,0:0:0:0:
384,96,143868,1,0,0:0:0:0:
128,256,144087,1,0,0:0:0:0:
128,128,144306,2,0,P|192:64|256:64,1,157.500006008148
448,320,144744,2,0,P|320:320|256:288,1,157.500006008148
384,96,145182,5,0,0:0:0:0:
224,64,145401,2,0,P|128:96|64:160,2,157.500006008148
224,64,146058,1,0,0:0:0:0:
192,288,146715,1,0,0:0:0:0:
384,224,146934,1,0,0:0:0:0:
160,64,147153,2,0,P|96:128|96:192,1,157.500006008148
320,288,147591,2,0,P|416:224|416:160,1,157.500006008148
128,320,148248,6,0,P|64:256|64:192,1,157.500006008148
352,160,148686,1,0,0:0:0:0:
96,96,148905,1,0,0:0:0:0:
320,320,149124,2,0,P|384:288|416:192,1,157.500006008148
128,64,149562,1,0,0:0:0:0:
416,160,149781,1,0,0:0:0:0:
96,224,150000,1,0,0:0:0:0:
416,256,150219,1,0,0:0:0:0:
96,320,150438,2,0,P|64:224|64:160,1,157.500006008148
352,320,150876,1,0,0:0:0:0:
384,128,151095,2,0,P|320:64|256:64,1,157.500006008148
257,63,151532,1,0,0:0:0:0:
160,288,151752,1,0,0:0:0:0:
224,128,151971,1,0,0:0:0:0:
320,256,152190,6,0,L|384:192,2,78.7500030040742
160,192,152628,1,0,0:0:0:0:
320,128,152847,1,0,0:0:0:0:
160,96,153066,1,0,0:0:0:0:
320,32,153285,1,0,0:0:0:0:
448,128,153504,2,0,L|448:288,1,157.500006008148
288,320,153942,1,0,0:0:0:0:
192,160,154161,1,0,0:0:0:0:
160,320,154380,1,0,0:0:0:0:
64,160,154599,1,0,0:0:0:0:
192,64,154818,2,0,P|288:64|352:96,1,157.500006008148
352,320,155255,2,0,P|416:256|416:192,1,157.500006008148
128,288,155693,5,0,0:0:0:0:
352,64,155912,1,0,0:0:0:0:
192,320,156131,1,0,0:0:0:0:
288,32,156350,1,0,0:0:0:0:
256,352,156569,1,0,0:0:0:0:
224,32,156788,1,0,0:0:0:0:
320,320,157007,1,0,0:0:0:0:
160,64,157226,1,0,0:0:0:0:
384,288,157445,1,0,0:0:0:0:
128,128,157664,1,0,0:0:0:0:
128,256,157883,2,0,P|192:320|256:320,1,157.500006008148
448,64,158321,2,0,P|320:64|256:96,1,157.500006008148
384,288,158759,1,0,0:0:0:0:
224,320,158987,6,0,P|128:288|64:224,2,157.500006008148
224,320,159525,1,0,0:0:0:0:
224,320,159635,1,0,0:0:0:0:
352,64,159854,2,0,L|448:32,2,78.7500030040742
192,96,160510,1,0,0:0:0:0:
384,224,160729,1,0,0:0:0:0:
160,320,160948,2,0,P|96:256|96:192,1,157.500006008148
320,96,161386,2,0,P|416:160|416:224,1,157.500006008148
384,224,161824,1,0,0:0:0:0:
256,192,161934,12,0,162481,0:0:0:0:
352,64,162700,6,0,P|416:128|416:192,1,157.500006008148
192,128,163138,1,0,0:0:0:0:
384,224,163357,1,0,0:0:0:0:
192,320,163576,1,0,0:0:0:0:
64,320,163686,1,0,0:0:0:0:
128,224,163795,1,0,0:0:0:0:
