osu file format v12

[General]
AudioFilename: Class - Singura Iubire.mp3
AudioLeadIn: 1500
PreviewTime: 192888
Countdown: 0
SampleSet: Soft
StackLeniency: 0.7
Mode: 0
LetterboxInBreaks: 1
WidescreenStoryboard: 0

[Editor]
DistanceSpacing: 1.1
BeatDivisor: 4
GridSize: 4

[Metadata]
Title:Singura Iubire
TitleUnicode:Singura Iubire
Artist:Class
ArtistUnicode:Class
Creator:Tony
Version:Facil
Source:Best of Romanian Songs 2006
Tags:-Bakari- BCI
BeatmapID:236562
BeatmapSetID:77224

[Difficulty]
HPDrainRate:2
CircleSize:3
OverallDifficulty:2
ApproachRate:2
SliderMultiplier:0.8
SliderTickRate:1

[Events]
//Background and Video events
0,0,"bg.jpg",0,0
Video,0,"Class - Singura iubire.flv"
//Break Periods
2,7962,13387
2,92337,99637
2,148587,161512
//Storyboard Layer 0 (Background)
//Storyboard Layer 1 (Fail)
//Storyboard Layer 2 (Pass)
//Storyboard Layer 3 (Foreground)
//Storyboard Sound Samples
//Background Colour Transformations
3,100,163,162,255

[TimingPoints]
262,468.75,4,2,0,80,1,0
146512,-100,4,2,0,5,0,0
148387,-100,4,2,0,80,0,0
161512,-100,4,2,0,5,0,0
163387,-100,4,2,0,80,0,0
193387,-100,4,2,0,80,0,1
223387,-100,4,2,0,5,0,0

[Colours]
Combo1 : 199,126,122
Combo2 : 155,117,172
Combo3 : 73,171,115
Combo4 : 226,224,141

[HitObjects]
164,84,262,2,0,L|84:80,2,80,2|0|0,0:0|0:0|0:0,0:0:0:0:
320,164,2137,2,0,L|400:168,2,80,2|0|0,0:0|0:0|0:0,0:0:0:0:
172,260,4012,6,0,L|92:256,2,80,2|8|0,0:0|0:0|0:0,0:0:0:0:
256,288,5418,1,8,0:0:0:0:
312,220,5887,5,2,0:0:0:0:
400,208,6355,2,0,P|466:168|474:92,1,160,8|8,0:0|0:3,0:0:0:0:
424,20,7762,1,4,0:0:0:0:
368,168,15262,6,0,L|284:176,1,80,4|8,0:0|0:0,0:0:0:0:
208,140,16199,1,0,0:0:0:0:
144,200,16668,2,0,P|80:244|12:204,2,160,8|8|8,0:0|0:0|0:0,0:0:0:0:
124,116,19012,6,0,P|120:76|124:36,2,80,2|8|0,0:0|0:0|0:0,0:0:0:0:
208,140,20418,1,8,0:0:0:0:
268,204,20887,2,0,L|364:208,2,80,2|8|0,0:0|0:0|0:0,0:0:0:0:
196,252,22293,1,8,0:0:0:0:
252,320,22762,6,0,P|360:308|488:344,1,240,2|8,0:0|0:0,0:0:0:0:
504,256,24637,2,0,P|500:216|504:160,1,80,2|8,0:0|0:0,0:0:0:0:
504,88,25574,1,0,0:0:0:0:
424,120,26043,1,8,0:0:0:0:
348,76,26512,5,2,0:0:0:0:
268,40,26980,2,0,P|208:36|132:104,1,160,8|8,0:0|0:0,0:0:0:0:
108,180,28387,2,0,L|16:220,2,80,2|8|0,0:0|0:0|0:0,0:0:0:0:
196,164,29793,1,8,0:0:0:0:
220,248,30262,6,0,B|264:240|288:192|288:144|288:144|308:92|352:72|392:76,1,240,0|0,0:0|0:0,0:0:0:0:
376,164,32137,5,4,0:0:0:0:
452,116,32605,2,0,P|456:76|444:24,2,80,8|0|8,0:0|0:0|0:0,0:0:0:0:
460,204,34012,1,0,0:0:0:0:
388,252,34480,2,0,P|384:296|396:344,2,80,8|0|8,0:0|0:0|0:0,0:0:0:0:
324,192,35887,6,0,P|264:140|116:204,1,240,2|8,0:0|0:0,0:0:0:0:
44,224,37762,2,0,B|36:180|44:144|44:144|56:96|44:56,2,160,2|0|2,0:0|0:0|0:0,0:0:0:0:
16,308,40105,5,8,0:0:0:0:
104,296,40574,1,0,0:0:0:0:
188,320,41043,1,8,0:0:0:0:
272,344,41512,2,0,P|344:360|480:272,1,240,2|8,0:0|0:0,0:0:0:0:
416,216,43387,6,0,P|368:264|260:240,1,160,2|0,0:0|0:0,0:0:0:0:
228,188,44793,1,8,0:0:0:0:
272,112,45262,2,0,P|308:96|354:97,1,80,2|8,0:0|0:0,0:0:0:0:
436,112,46199,1,0,0:0:0:0:
488,184,46668,1,8,0:0:0:0:
408,224,47137,5,4,0:0:0:0:
320,216,47605,2,0,P|236:204|148:220,1,160,8|8,0:0|0:0,0:0:0:0:
80,248,49012,2,0,B|68:204|88:160|88:160|104:120|84:80,2,160,2|0|2,0:0|0:0|0:0,0:0:0:0:
128,320,51355,6,0,L|212:336,1,80,8|0,0:0|0:0,0:0:0:0:
276,280,52293,1,8,0:0:0:0:
320,204,52762,2,0,P|312:132|168:72,1,240,2|8,0:0|0:0,0:0:0:0:
88,48,54637,5,2,0:0:0:0:
44,124,55105,2,0,P|28:180|32:300,1,160,8|8,0:0|0:0,0:0:0:0:
48,368,56512,1,2,0:0:0:0:
136,368,56980,2,0,P|212:376|296:364,1,160,8|8,0:0|0:0,0:0:0:0:
368,324,58387,6,0,P|400:272|404:160,1,160,2|0,0:0|0:0,0:0:0:0:
436,92,59793,1,8,0:0:0:0:
360,48,60262,2,0,L|180:48,1,160,2|0,0:0|0:0,0:0:0:0:
148,120,61668,1,8,0:3:0:0:
178,194,62137,5,4,0:0:0:0:
140,264,62605,2,0,P|152:320|168:340,2,80,8|0|8,0:0|0:0|0:0,0:0:0:0:
220,276,64012,2,0,P|260:240|252:136,1,160,2|0,0:0|0:0,0:0:0:0:
308,68,65418,1,8,0:0:0:0:
396,72,65887,6,0,L|484:68,2,80,2|8|0,0:0|0:0|0:0,0:0:0:0:
344,144,67293,1,8,0:0:0:0:
316,228,67762,2,0,P|328:280|488:264,1,240,2|8,0:0|0:0,0:0:0:0:
404,236,69637,6,0,P|412:184|408:132,1,80,2|8,0:0|0:0,0:0:0:0:
420,68,70574,1,0,0:0:0:0:
332,48,71043,1,8,0:0:0:0:
248,72,71512,2,0,P|180:80|80:76,2,160,2|0|2,0:0|0:0|0:0,0:0:0:0:
312,132,73855,5,8,0:0:0:0:
396,156,74324,2,0,P|432:160|484:160,1,80,0|8,0:0|0:0,0:0:0:0:
512,240,75262,2,0,P|484:272|464:312,1,80,2|8,0:0|0:0,0:0:0:0:
384,340,76199,1,0,0:0:0:0:
304,300,76668,1,8,0:0:0:0:
216,300,77137,6,0,P|136:308|8:184,1,240,4|8,0:0|0:0,0:0:0:0:
88,164,79012,2,0,P|120:208|228:200,1,160,2|0,0:0|0:0,0:0:0:0:
172,132,80418,1,8,0:0:0:0:
244,80,80887,5,2,0:0:0:0:
328,108,81355,2,0,P|404:124|456:184,1,160,8|8,0:0|0:0,0:0:0:0:
456,272,82762,1,2,0:0:0:0:
384,320,83230,2,0,P|308:304|256:244,1,160,8|8,0:0|0:0,0:0:0:0:
240,156,84637,5,2,0:0:0:0:
168,108,85105,2,0,P|139:90|93:92,1,80,8|0,0:0|0:0,0:0:0:0:
8,100,86043,1,8,0:0:0:0:
12,188,86512,2,0,L|28:352,1,160,2|0,0:0|0:0,0:0:0:0:
104,308,87918,2,0,L|96:228,2,80,8|2|8,0:0|0:0|0:0,0:0:0:0:
188,344,89324,5,0,0:0:0:0:
272,320,89793,1,8,0:0:0:0:
340,268,90262,2,0,L|332:188,2,80,2|8|0,0:0|0:0|0:0,0:0:0:0:
408,324,91668,1,8,0:0:0:0:
480,276,92137,5,4,0:0:0:0:
168,176,101512,5,4,0:0:0:0:
232,116,101980,2,0,P|312:116|412:140,1,160,8|8,0:0|0:0,0:0:0:0:
476,120,103387,2,0,P|484:80|480:32,2,80,2|8|0,0:0|0:0|0:0,0:0:0:0:
448,204,104793,1,8,0:0:0:0:
472,288,105262,6,0,P|448:332|264:304,1,240,2|8,0:0|0:0,0:0:0:0:
192,316,107137,2,0,P|116:336|36:304,1,160,2|0,0:0|0:0,0:0:0:0:
20,224,108543,1,8,0:0:0:0:
48,140,109012,6,0,P|48:88|44:52,2,80,2|8|0,0:0|0:0|0:0,0:0:0:0:
108,204,110418,1,8,0:0:0:0:
196,212,110887,1,2,0:0:0:0:
284,208,111355,2,0,P|360:184|388:100,1,160,8|8,0:0|0:0,0:0:0:0:
384,28,112762,5,2,0:0:0:0:
296,32,113230,2,0,L|200:24,1,80,8|0,0:0|0:0,0:0:0:0:
192,108,114168,2,0,L|112:116,1,80,8|2,0:0|0:0,0:0:0:0:
36,160,115105,2,0,P|16:208|60:308,1,160,8|8,0:0|0:0,0:0:0:0:
136,336,116512,5,2,0:0:0:0:
224,336,116980,2,0,P|297:304|325:229,1,160,8|8,0:0|0:0,0:0:0:0:
276,160,118387,1,2,0:0:0:0:
232,88,118855,2,0,P|224:56|232:4,2,80,8|0|8,0:0|0:0|0:0,0:0:0:0:
192,168,120262,5,2,0:0:0:0:
116,216,120730,2,0,P|68:220|24:216,2,80,8|0|8,0:0|0:0|0:0,0:0:0:0:
176,280,122137,1,2,0:0:0:0:
252,236,122605,2,0,P|296:232|420:236,1,160,8|8,0:0|0:0,0:0:0:0:
476,176,124012,6,0,L|500:92,1,80,2|8,0:0|0:0,0:0:0:0:
420,56,124949,2,0,L|392:140,1,80,0|8,0:0|0:0,0:0:0:0:
324,184,125887,1,2,0:0:0:0:
252,132,126355,2,0,P|204:116|88:128,1,160,8|8,0:0|0:0,0:0:0:0:
32,188,127762,6,0,P|24:224|28:272,1,80,2|8,0:0|0:0,0:0:0:0:
112,248,128699,2,0,P|192:232|276:256,1,160
480,92,131043,5,8,0:3:0:0:
392,76,131512,2,0,P|352:68|304:80,1,80,4|8,0:0|0:0,0:0:0:0:
240,124,132449,2,0,P|196:132|156:120,1,80,2|8,0:0|0:0,0:0:0:0:
108,52,133387,2,0,P|76:116|128:204,1,160,2|2,0:0|0:0,0:0:0:0:
180,244,134793,1,8,0:0:0:0:
256,288,135262,6,0,L|424:288,1,160,2|2,0:0|0:0,0:0:0:0:
472,220,136668,1,8,0:0:0:0:
436,140,137137,2,0,P|408:108|392:72,1,80,2|8,0:0|0:0,0:0:0:0:
320,24,138074,2,0,P|300:51|288:95,1,80,2|8,0:0|0:0,0:0:0:0:
288,184,139012,6,0,P|325:236|353:254,2,80,2|8|2,0:0|0:0|0:0,0:0:0:0:
208,152,140418,1,8,0:0:0:0:
172,72,140887,2,0,P|112:40|32:72,1,160,2|2,0:0|0:0,0:0:0:0:
8,156,142293,1,8,0:0:0:0:
40,236,142762,6,0,P|56:296|80:324,1,80,2|8,0:0|0:0,0:0:0:0:
152,324,143699,2,0,P|136:264|112:236,1,80,2|8,0:0|0:0,0:0:0:0:
120,164,144637,2,0,P|176:128|272:172,2,160,2|2|2,0:0|0:0|0:0,0:0:0:0:
256,192,146629,12,4,148387,0:0:0:0:
476,308,163387,6,0,P|416:328|324:308,1,160,2|2,0:0|0:0,0:0:0:0:
256,248,164793,1,8,0:0:0:0:
196,184,165262,2,0,P|104:164|44:184,1,160,2|2,0:0|0:0,0:0:0:0:
176,300,167137,6,0,L|344:300,1,160,2|2,0:0|0:0,0:0:0:0:
404,244,168543,1,8,0:0:0:0:
448,168,169012,2,0,P|464:104|476:80,1,80,2|8,0:0|0:0,0:0:0:0:
400,40,169949,2,0,P|360:56|304:60,1,80,2|8,0:0|0:0,0:0:0:0:
240,92,170887,6,0,P|200:168|248:232,1,160,2|2,0:0|0:0,0:0:0:0:
316,256,172293,1,8,0:0:0:0:
256,320,172762,2,0,L|84:324,1,160,2|2,0:0|0:0,0:0:0:0:
56,152,174637,6,0,P|76:104|100:80,1,80,2|8,0:0|0:0,0:0:0:0:
144,160,175574,2,0,P|124:208|96:236,2,80,2|8|2,0:0|0:0|0:0,0:0:0:0:
176,76,176980,2,0,B|256:76|256:128|352:128,1,160,0|0,0:0|0:0,0:0:0:0:
412,140,178387,6,0,P|436:208|396:296,1,160,4|2,0:0|0:0,0:0:0:0:
324,320,179793,1,8,0:0:0:0:
264,256,180262,2,0,B|200:256|200:256|168:260|168:260|88:260,1,160,2|2,0:0|0:0,0:0:0:0:
60,188,181668,1,8,0:0:0:0:
92,108,182137,6,0,P|164:72|232:112,1,160,2|2,0:0|0:0,0:0:0:0:
256,192,183543,1,8,0:0:0:0:
284,276,184012,2,0,P|356:312|420:277,1,160,2|2,0:0|0:0,0:0:0:0:
468,200,185418,1,8,0:0:0:0:
472,112,185887,6,0,B|392:112|392:76|308:76,1,160,4|2,0:0|0:0,0:0:0:0:
256,140,187293,1,8,0:0:0:0:
194,76,187762,2,0,B|120:76|120:112|40:112,2,160,2|2|2,0:0|0:0|0:0,0:0:0:0:
256,140,190105,6,0,P|332:120|420:148,1,160,8|8,0:0|0:0,0:0:0:0:
372,220,191512,2,0,P|308:216|256:296,1,160,2|2,0:0|0:0,0:0:0:0:
196,352,192918,1,8,0:0:0:0:
120,312,193387,6,0,P|112:268|116:228,1,80,4|8,0:0|0:0,0:0:0:0:
192,188,194324,1,2,0:0:0:0:
272,224,194793,1,8,0:0:0:0:
352,264,195262,2,0,B|368:234|352:186|352:186|340:146|352:106,1,160
312,28,196668,1,8,0:0:0:0:
224,40,197137,5,2,0:0:0:0:
148,80,197605,2,0,P|116:120|100:152,1,80,8|0,0:0|0:0,0:0:0:0:
96,232,198543,1,8,0:0:0:0:
144,304,199012,2,0,L|228:304,1,80,2|8,0:0|0:0,0:0:0:0:
264,224,199949,2,0,L|180:224,1,80,0|8,0:0|0:0,0:0:0:0:
144,144,200887,5,2,0:0:0:0:
196,76,201355,2,0,P|244:80|364:60,1,160,8|8,0:0|0:0,0:0:0:0:
432,24,202762,2,8,P|476:24|480:180,1,240,2|8,0:0|0:0,0:0:0:0:
444,248,204637,6,0,P|440:288|448:328,2,80,2|8|2,0:0|0:0|0:0,0:0:0:0:
356,240,206043,1,8,0:0:0:0:
380,156,206512,2,0,B|344:140|304:160|304:160|260:180|220:152,1,160,2|2,0:0|0:0,0:0:0:0:
268,80,207918,1,8,0:0:0:0:
188,44,208387,5,6,0:0:0:0:
112,88,208855,2,0,L|16:84,2,80,8|0|8,0:0|0:0|0:0,0:0:0:0:
176,152,210262,2,0,P|200:212|112:348,1,240,2|8,0:0|0:0,0:0:0:0:
24,356,212137,5,2,0:0:0:0:
36,268,212605,2,0,P|104:248|88:176,1,160,8|8,0:0|0:0,0:0:0:0:
68,88,214012,1,2,0:0:0:0:
136,32,214480,1,8,0:0:0:0:
220,60,214949,2,0,L|316:56,1,80,2|8,0:0|0:0,0:0:0:0:
388,52,215887,6,0,P|452:72|464:232,1,240,2|8,0:0|0:0,0:0:0:0:
420,296,217762,2,0,L|508:312,2,80,2|8|0,0:0|0:0|0:0,0:0:0:0:
336,268,219168,1,8,0:0:0:0:
252,296,219637,6,0,L|164:312,2,80,2|8|0,0:0|0:0|0:0,0:0:0:0:
276,212,221043,1,8,0:0:0:0:
348,156,221512,2,0,P|304:124|184:224,1,240,2|8,0:0|0:0,0:0:0:0:
256,192,223387,12,0,225262,0:0:0:0:
