osu file format v12

[General]
AudioFilename: Class - Singura Iubire.mp3
AudioLeadIn: 1500
PreviewTime: 192888
Countdown: 0
SampleSet: Soft
StackLeniency: 0.7
Mode: 0
LetterboxInBreaks: 1
WidescreenStoryboard: 0

[Editor]
DistanceSpacing: 0.9
BeatDivisor: 4
GridSize: 4

[Metadata]
Title:Singura Iubire
TitleUnicode:Singura Iubire
Artist:Class
ArtistUnicode:Class
Creator:Tony
Version:Dificil
Source:Best of Romanian Songs 2006
Tags:-Bakari- BCI
BeatmapID:217491
BeatmapSetID:77224

[Difficulty]
HPDrainRate:7
CircleSize:4
OverallDifficulty:7
ApproachRate:7
SliderMultiplier:1.8
SliderTickRate:2

[Events]
//Background and Video events
0,0,"bg.jpg",0,0
Video,0,"Class - Singura iubire.flv"
//Break Periods
2,7962,13894
2,92337,98737
2,178587,192019
//Storyboard Layer 0 (Background)
//Storyboard Layer 1 (Fail)
//Storyboard Layer 2 (Pass)
//Storyboard Layer 3 (Foreground)
//Storyboard Sound Samples
//Background Colour Transformations
3,100,163,162,255

[TimingPoints]
262,468.75,4,2,0,80,1,0
30262,-100,4,2,0,5,0,0
32137,-100,4,2,0,80,0,0
146512,-100,4,2,0,25,0,0
148387,-133.333333333333,4,2,0,80,0,0
161512,-133.333333333333,4,2,0,5,0,0
163387,-117.647058823529,4,2,0,80,0,0
192919,-100,4,2,0,80,0,0
193387,-100,4,2,0,80,0,1
223387,-100,4,2,0,5,0,0

[Colours]
Combo1 : 199,126,122
Combo2 : 155,117,172
Combo3 : 73,171,115
Combo4 : 226,224,141

[HitObjects]
72,320,262,2,0,P|120:352|224:304,1,180,2|0,0:0|0:0,0:0:0:0:
216,224,966,2,0,P|168:192|64:240,1,180,2|2,0:0|0:0,0:0:0:0:
308,172,2137,6,0,P|356:204|458:158,1,180,2|0,0:0|0:0,0:0:0:0:
452,76,2841,2,0,P|404:44|301:89,1,180,2|2,0:0|0:0,0:0:0:0:
208,312,4012,6,0,P|148:264|148:160,1,180,2|8,0:0|0:0,0:0:0:0:
180,92,4716,1,0,0:0:0:0:
256,60,4950,1,2,0:0:0:0:
332,92,5184,1,2,0:0:0:0:
367,166,5419,2,0,P|364:264|304:312,1,180,8|0,0:0|1:0,0:0:0:0:
292,316,6356,5,0,1:0:0:0:
280,320,6825,1,0,1:0:0:0:
268,324,7293,1,4,3:0:0:0:
256,192,7762,5,4,1:0:0:0:
64,136,14794,6,0,P|92:100|148:92,1,90,2|0,0:0|0:0,0:0:0:0:
216,100,15262,2,0,P|256:117|296:100,1,90,4|0,0:0|0:0,0:0:0:0:
378,89,15731,2,0,P|420:100|448:136,1,90,8|0,0:0|0:0,0:0:0:0:
452,148,16083,2,0,P|436:220|372:240,1,135,2|2,0:0|0:0,0:0:0:0:
302,225,16669,1,8,0:0:0:0:
220,208,16903,1,2,0:0:0:0:
140,192,17137,6,0,P|84:236|92:340,1,180,2|8,0:0|0:0,0:0:0:0:
220,208,17841,1,0,0:0:0:0:
220,208,18075,2,0,P|252:160|232:84,1,135,2|2,0:0|0:0,0:0:0:0:
235,88,18544,1,8,0:0:0:0:
160,112,18778,1,2,0:0:0:0:
184,312,19012,6,0,P|212:344|260:344,1,90,2|0,0:0|0:0,0:0:0:0:
332,308,19481,1,8,0:0:0:0:
400,264,19716,1,0,0:0:0:0:
400,264,19833,2,0,P|460:320|436:388,1,135,2|2,0:0|0:0,0:0:0:0:
324,224,20419,6,0,P|296:184|300:144,1,90,8|0,0:0|0:0,0:0:0:0:
332,308,20887,2,0,P|260:344|216:320,1,135,2|10,0:0|0:0,0:0:0:0:
217,321,21356,1,0,0:0:0:0:
160,264,21591,1,0,0:0:0:0:
96,216,21825,2,0,P|48:232|32:312,1,135,2|2,0:0|0:0,0:0:0:0:
30,307,22294,1,8,0:0:0:0:
108,324,22528,1,2,0:0:0:0:
172,184,22762,5,2,0:0:0:0:
248,156,22997,1,0,0:0:0:0:
236,236,23231,1,8,0:0:0:0:
312,212,23466,1,0,0:0:0:0:
312,212,23583,2,0,P|364:188|376:100,1,135,2|2,0:0|0:0,0:0:0:0:
236,236,24169,6,0,P|216:296|232:328,1,90,8|0,0:0|0:0,0:0:0:0:
300,292,24637,2,0,P|368:316|468:256,1,180,2|8,0:0|0:0,0:0:0:0:
484,192,25341,1,0,0:0:0:0:
508,116,25575,2,0,P|440:124|408:176,1,135,2|2,0:0|0:0,0:0:0:0:
407,176,26044,1,8,0:0:0:0:
336,216,26278,1,2,0:0:0:0:
276,164,26512,6,0,P|216:108|160:112,1,135,2|8,0:0|0:0,0:0:0:0:
167,109,26981,1,0,0:0:0:0:
108,164,27216,1,0,0:0:0:0:
160,228,27450,1,2,0:0:0:0:
96,276,27684,1,2,0:0:0:0:
148,340,27919,1,8,0:0:0:0:
364,340,28387,6,0,P|416:324|428:280,1,90,2|0,0:0|0:0,0:0:0:0:
428,294,28738,1,8,0:0:0:0:
428,294,28856,1,0,0:0:0:0:
356,172,29091,1,0,0:0:0:0:
480,228,29325,1,2,0:0:0:0:
348,256,29559,1,2,0:0:0:0:
436,156,29794,1,8,0:0:0:0:
256,192,30262,12,4,32137,0:0:0:0:
96,244,32606,5,8,0:0:0:0:
152,304,32841,2,0,P|240:332|304:280,1,180,2|2,0:0|0:0,0:0:0:0:
304,200,33544,1,8,0:0:0:0:
380,232,33778,1,2,0:0:0:0:
396,152,34012,1,0,0:0:0:0:
320,124,34247,6,0,P|300:80|320:40,1,90,2|8,0:0|0:0,0:0:0:0:
304,200,34716,1,2,0:0:0:0:
304,200,34949,2,0,P|307:238|274:274,2,90,0|2|8,0:0|0:0|0:0,0:0:0:0:
224,216,35652,1,2,0:0:0:0:
72,332,35887,6,0,P|24:280|40:176,1,180,2|8,0:0|0:0,0:0:0:0:
92,116,36591,1,2,0:0:0:0:
168,92,36825,1,0,0:0:0:0:
188,172,37059,1,2,0:0:0:0:
112,196,37294,6,0,P|83:226|37:224,2,90,8|2|0,0:0|0:0|0:0,0:0:0:0:
188,172,37996,1,2,0:0:0:0:
184,252,38231,1,8,0:0:0:0:
172,332,38466,1,2,0:0:0:0:
172,332,38583,1,0,0:0:0:0:
172,332,38700,2,0,L|264:344,1,90,0|2,0:0|0:0,0:0:0:0:
360,248,39169,2,0,L|270:259,1,90,8|2,0:0|0:0,0:0:0:0:
96,284,39637,6,0,P|44:216|64:124,1,180,2|8,0:0|0:0,0:0:0:0:
104,60,40341,1,2,0:0:0:0:
180,20,40575,1,0,0:0:0:0:
248,60,40809,1,2,0:0:0:0:
220,136,41044,1,8,0:0:0:0:
140,136,41278,1,2,0:0:0:0:
104,60,41512,6,0,P|64:80|16:60,1,90,0|2,0:0|0:0,0:0:0:0:
248,60,41981,2,0,P|288:40|336:60,1,90,8|2,0:0|0:0,0:0:0:0:
380,116,42450,1,0,0:0:0:0:
436,56,42684,1,2,0:0:0:0:
472,128,42919,2,0,P|488:184|448:228,1,90,8|2,0:0|0:0,0:0:0:0:
424,272,43387,6,0,P|344:288|284:220,1,180,2|8,0:0|0:0,0:0:0:0:
208,192,44091,2,0,P|180:232|182:271,1,90,2|0,0:0|0:0,0:0:0:0:
272,144,44559,2,0,P|300:104|297:64,1,90,2|8,0:0|0:0,0:0:0:0:
284,220,45028,2,0,P|328:232|376:204,1,90,2|0,0:0|0:0,0:0:0:0:
380,136,45497,1,2,0:0:0:0:
432,72,45731,1,8,0:0:0:0:
488,128,45966,5,2,0:0:0:0:
488,128,46083,1,0,0:0:0:0:
488,128,46200,1,0,0:0:0:0:
440,192,46434,1,2,0:0:0:0:
492,252,46669,1,8,0:0:0:0:
452,320,46903,1,2,0:0:0:0:
452,320,47137,6,0,P|400:360|324:296,1,180,4|8,0:0|0:0,0:0:0:0:
292,220,47841,1,2,0:0:0:0:
172,184,48075,1,0,0:0:0:0:
248,288,48309,1,2,0:0:0:0:
248,152,48544,1,8,0:0:0:0:
172,264,48778,1,2,0:0:0:0:
172,264,49012,6,0,P|108:280|64:180,1,180,0|8,0:0|0:0,0:0:0:0:
84,116,49716,1,2,0:0:0:0:
128,48,49950,1,0,0:0:0:0:
208,64,50184,2,0,P|272:44|280:-4,2,90,2|8|2,0:0|0:0|0:0,0:0:0:0:
168,136,50887,6,0,P|220:180|332:144,1,180,2|8,0:0|0:0,0:0:0:0:
360,84,51591,1,2,0:0:0:0:
440,96,51825,1,0,0:0:0:0:
448,176,52059,1,2,0:0:0:0:
376,212,52294,1,8,0:0:0:0:
322,156,52528,1,2,0:0:0:0:
256,204,52762,6,0,P|248:284|320:356,1,180,0|8,0:0|0:0,0:0:0:0:
388,328,53466,1,2,0:0:0:0:
388,328,53583,1,0,0:0:0:0:
388,328,53700,2,0,P|452:320|488:344,2,90,0|2|8,0:0|0:0|0:0,0:0:0:0:
328,272,54403,1,2,0:0:0:0:
248,288,54637,6,0,P|152:288|128:220,1,180,2|8,0:0|0:0,0:0:0:0:
120,140,55341,1,2,0:0:0:0:
164,72,55575,1,0,0:0:0:0:
228,124,55809,1,2,0:0:0:0:
272,56,56044,1,8,0:0:0:0:
328,112,56278,1,2,0:0:0:0:
376,48,56512,6,0,P|464:80|464:176,1,180,0|8,0:0|0:0,0:0:0:0:
432,224,57216,2,0,P|432:272|464:304,1,90,2|0,0:0|0:0,0:0:0:0:
384,168,57684,2,0,P|336:168|304:200,1,90,2|8,0:0|0:0,0:0:0:0:
264,264,58153,1,2,0:0:0:0:
204,316,58387,6,0,P|120:316|104:224,1,180,2|8,0:0|0:0,0:0:0:0:
192,104,59325,1,0,0:0:0:0:
256,52,59559,1,2,0:0:0:0:
320,104,59794,1,8,0:0:0:0:
256,152,60028,1,2,0:0:0:0:
180,24,60262,5,0,0:0:0:0:
332,24,60497,1,2,0:0:0:0:
332,180,60731,1,0,0:0:0:0:
180,180,60966,1,2,0:0:0:0:
256,100,61199,5,2,0:0:0:0:
256,276,61669,5,4,3:0:0:0:
180,300,61903,1,0,0:0:0:0:
104,328,62137,2,0,P|64:296|64:256,1,90,4|0,0:0|0:0,0:0:0:0:
60,180,62606,2,0,P|92:140|127:138,1,90,8|0,0:0|0:0,0:0:0:0:
140,144,62958,2,0,P|200:169|272:149,1,135,2|2,0:0|0:0,0:0:0:0:
304,84,63544,1,8,0:0:0:0:
376,44,63778,1,2,0:0:0:0:
400,120,64012,6,0,P|412:192|364:248,1,135,2|2,0:0|0:0,0:0:0:0:
378,239,64481,1,8,0:0:0:0:
332,172,64716,1,2,0:0:0:0:
428,304,64950,2,0,P|356:316|300:268,1,135,2|2,0:0|0:0,0:0:0:0:
308,282,65419,1,8,0:0:0:0:
260,216,65653,1,2,0:0:0:0:
184,92,65887,6,0,P|144:72|96:76,2,90,2|0|8,0:0|0:0|0:0,0:0:0:0:
128,152,66591,1,0,0:0:0:0:
128,152,66708,2,0,P|100:184|112:288,1,135,2|2,0:0|0:0,0:0:0:0:
168,228,67294,1,8,0:0:0:0:
172,308,67528,1,0,0:0:0:0:
244,268,67762,6,0,P|304:256|332:188,1,135,2|10,0:0|0:0,0:0:0:0:
332,193,68231,1,0,0:0:0:0:
252,192,68466,1,0,0:0:0:0:
409,201,68700,2,0,P|397:141|334:112,1,135,2|2,0:0|0:0,0:0:0:0:
334,112,69169,1,8,0:0:0:0:
252,112,69403,1,2,0:0:0:0:
91,112,69637,6,0,P|64:148|63:196,1,90,2|0,0:0|0:0,0:0:0:0:
84,268,70106,1,8,0:0:0:0:
152,312,70341,1,0,0:0:0:0:
152,312,70458,2,0,P|208:288|288:328,1,135,2|2,0:0|0:0,0:0:0:0:
348,348,71044,1,8,0:0:0:0:
396,284,71278,1,0,0:0:0:0:
444,220,71512,6,0,P|472:172|416:64,1,180,2|8,0:0|0:0,0:0:0:0:
344,52,72216,1,0,0:0:0:0:
276,96,72450,2,0,P|256:156|308:224,1,135,2|2,0:0|0:0,0:0:0:0:
290,214,72919,1,8,0:0:0:0:
368,200,73153,1,2,0:0:0:0:
212,244,73387,6,0,P|168:220|80:252,1,135,2|8,0:0|0:0,0:0:0:0:
89,241,73856,1,0,0:0:0:0:
148,300,74091,1,0,0:0:0:0:
216,344,74325,1,2,0:0:0:0:
296,344,74559,1,2,0:0:0:0:
364,300,74794,1,8,0:0:0:0:
256,36,75262,5,2,0:0:0:0:
256,116,75497,1,0,0:0:0:0:
256,116,75614,1,8,0:0:0:0:
256,116,75730,1,0,0:0:0:0:
188,160,75966,2,0,P|164:200|184:248,1,90,0|2,0:0|0:0,0:0:0:0:
336,239,76434,2,0,P|348:200|324:160,1,90,2|8,0:0|0:0,0:0:0:0:
256,208,76903,1,0,0:0:0:0:
256,340,77137,6,0,P|216:352|168:344,1,90,4|0,0:0|0:0,0:0:0:0:
92,316,77606,1,8,0:0:0:0:
60,240,77841,1,0,0:0:0:0:
60,240,77958,2,0,P|40:172|56:112,1,135,2|2,0:0|0:0,0:0:0:0:
108,52,78544,1,8,0:0:0:0:
168,104,78778,1,0,0:0:0:0:
168,104,79012,6,0,P|236:104|292:52,1,135,2|2,0:0|0:0,0:0:0:0:
285,63,79481,1,8,0:0:0:0:
360,28,79716,1,0,0:0:0:0:
360,28,79950,2,0,P|360:96|308:152,1,135,2|2,0:0|0:0,0:0:0:0:
319,145,80419,1,8,0:0:0:0:
256,192,80653,1,2,0:0:0:0:
192,240,80887,5,2,0:0:0:0:
128,288,81122,2,0,P|120:332|144:376,1,90,0|8,0:0|0:0,0:0:0:0:
204,320,81591,1,0,0:0:0:0:
204,320,81708,2,0,P|272:328|336:288,1,135,2|2,0:0|0:0,0:0:0:0:
381,235,82294,6,0,P|408:272|408:316,1,90,8|0,0:0|0:0,0:0:0:0:
304,208,82762,2,0,P|256:164|248:96,1,135,2|10,0:0|0:0,0:0:0:0:
247,97,83231,1,0,0:0:0:0:
328,76,83466,1,0,0:0:0:0:
156,120,83700,2,0,P|164:186|208:256,1,135,2|2,0:0|0:0,0:0:0:0:
197,244,84169,1,8,0:0:0:0:
256,300,84403,1,2,0:0:0:0:
314,244,84637,6,0,P|364:232|408:244,1,90,2|0,0:0|0:0,0:0:0:0:
476,276,85106,1,8,0:0:0:0:
468,196,85341,1,0,0:0:0:0:
468,196,85458,2,0,L|460:56,1,135,2|2,0:0|0:0,0:0:0:0:
380,72,86044,1,8,0:0:0:0:
300,84,86278,1,0,0:0:0:0:
220,96,86512,6,0,L|227:230,1,135,2|2,0:0|0:0,0:0:0:0:
227,230,86981,1,8,0:0:0:0:
232,312,87216,1,0,0:0:0:0:
160,276,87450,2,0,P|92:280|52:328,1,135,2|2,0:0|0:0,0:0:0:0:
51,328,87919,1,8,0:0:0:0:
128,350,88153,1,2,0:0:0:0:
60,208,88387,6,0,P|44:152|92:92,1,135,2|8,0:0|0:0,0:0:0:0:
86,94,88856,1,0,0:0:0:0:
152,48,89091,1,0,0:0:0:0:
216,100,89325,1,2,0:0:0:0:
276,44,89559,1,2,0:0:0:0:
336,96,89794,1,8,0:0:0:0:
336,256,90262,6,0,P|320:308|276:320,1,90,2|0,0:0|0:0,0:0:0:0:
290,320,90614,1,10,0:0:0:0:
290,320,90731,1,0,0:0:0:0:
224,272,90966,1,0,0:0:0:0:
168,348,91200,1,2,0:0:0:0:
120,236,91434,1,2,0:0:0:0:
68,360,91669,1,8,0:0:0:0:
256,192,92137,5,4,0:0:0:0:
256,192,99637,12,2,101044,0:0:0:0:
120,48,101278,5,0,0:0:0:0:
192,88,101512,2,0,P|232:136|320:88,1,180,4|8,0:0|0:0,0:0:0:0:
392,48,102216,1,2,0:0:0:0:
404,128,102450,2,0,P|408:192|440:224,1,90,0|2,0:0|0:0,0:0:0:0:
464,280,102919,6,0,P|408:324|308:280,1,180,8|0,0:0|0:0,0:0:0:0:
256,232,103622,1,2,0:0:0:0:
196,288,103856,1,8,0:0:0:0:
120,264,104091,2,0,P|76:260|40:288,1,90,2|0,0:0|0:0,0:0:0:0:
196,288,104559,2,0,P|192:332|220:368,2,90,2|8|2,0:0|0:0|0:0,0:0:0:0:
176,208,105262,6,0,B|200:148|168:96|168:96|116:56,1,180,2|8,0:0|0:0,0:0:0:0:
44,20,105966,1,2,0:0:0:0:
8,92,106200,2,0,L|92:148,1,90,0|2,0:0|0:0,0:0:0:0:
104,256,106669,2,0,L|20:200,1,90,8|2,0:0|0:0,0:0:0:0:
104,256,107137,5,0,0:0:0:0:
172,300,107372,1,2,0:0:0:0:
220,232,107606,1,8,0:0:0:0:
152,188,107841,1,2,0:0:0:0:
152,188,107958,1,0,0:0:0:0:
152,188,108075,1,0,0:0:0:0:
144,108,108309,2,0,P|156:64|188:36,2,90,2|8|2,0:0|0:0|0:0,0:0:0:0:
224,108,109012,6,0,P|308:108|376:176,1,180,2|8,0:0|0:0,0:0:0:0:
372,252,109716,1,2,0:0:0:0:
424,310,109950,2,0,P|439:292|448:228,1,90,0|2,0:0|0:0,0:0:0:0:
372,252,110419,1,8,0:0:0:0:
296,280,110653,1,2,0:0:0:0:
220,304,110887,6,0,P|164:280|144:160,1,180,0|8,0:0|0:0,0:0:0:0:
160,92,111591,2,0,P|152:40|123:20,1,90,2|0,0:0|0:0,0:0:0:0:
216,148,112059,2,0,P|268:140|288:108,2,90,2|8|2,0:0|0:0|0:0,0:0:0:0:
138,172,112762,6,0,P|94:200|90:252,1,90,2|0,0:0|0:0,0:0:0:0:
108,312,113231,1,8,0:0:0:0:
180,348,113466,1,2,0:0:0:0:
240,292,113700,1,0,0:0:0:0:
240,292,113934,1,2,0:0:0:0:
240,292,114169,2,0,P|254:226|356:224,1,180,8|0,0:0|0:0,0:0:0:0:
420,268,114872,5,2,0:0:0:0:
460,200,115106,1,8,0:0:0:0:
424,128,115341,1,2,0:0:0:0:
424,128,115458,1,0,0:0:0:0:
424,128,115575,2,0,L|328:116,2,90,0|2|8,0:0|0:0|0:0,0:0:0:0:
460,200,116278,1,2,0:0:0:0:
496,340,116512,6,0,P|448:368|332:336,1,180,2|8,0:0|0:0,0:0:0:0:
256,308,117216,1,2,0:0:0:0:
124,276,117450,1,0,0:0:0:0:
252,224,117684,1,2,0:0:0:0:
176,340,117919,1,8,0:0:0:0:
172,208,118153,1,2,0:0:0:0:
172,208,118387,6,0,P|140:128|178:48,1,180,0|8,0:0|0:0,0:0:0:0:
256,28,119091,1,2,0:0:0:0:
336,48,119325,2,0,P|356:84|348:136,1,90,0|2,0:0|0:0,0:0:0:0:
432,132,119794,2,0,P|420:171|378:202,1,90,8|2,0:0|0:0,0:0:0:0:
288,356,120262,6,0,P|268:244|304:196,1,180,2|8,0:0|0:0,0:0:0:0:
268,124,120966,1,2,0:0:0:0:
220,60,121200,1,0,0:0:0:0:
168,124,121434,1,2,0:0:0:0:
128,196,121669,1,8,0:0:0:0:
80,132,121903,1,2,0:0:0:0:
40,60,122137,6,0,P|8:96|48:232,1,180,0|8,0:0|0:0,0:0:0:0:
88,272,122841,1,2,0:0:0:0:
88,272,122958,1,0,0:0:0:0:
88,272,123075,2,0,P|100:324|88:360,1,90,0|2,0:0|0:0,0:0:0:0:
136,196,123544,2,0,P|120:144|128:108,1,90,8|2,0:0|0:0,0:0:0:0:
196,148,124012,6,0,P|219:101|308:148,1,180,2|8,0:0|0:0,0:0:0:0:
296,228,124716,1,2,0:0:0:0:
256,360,124949,1,0,0:0:0:0:
216,228,125184,1,2,0:0:0:0:
316,308,125418,1,8,0:0:0:0:
196,308,125653,1,2,0:0:0:0:
316,308,125887,6,0,P|392:360|472:340,1,180,0|8,0:0|0:0,0:0:0:0:
448,264,126591,2,0,P|400:276|368:244,1,90,2|0,0:0|0:0,0:0:0:0:
388,172,127059,2,0,P|436:160|468:192,2,90,2|8|2,0:0|0:0|0:0,0:0:0:0:
312,204,127762,6,0,B|272:228|228:212|228:212|180:192|136:212,2,180,2|8|0,0:0|0:0|0:0,0:0:0:0:
324,116,128934,2,0,P|392:164|384:256,1,180,2|2,0:0|0:0,0:0:0:0:
312,284,129637,1,0,0:0:0:0:
252,336,129872,1,2,0:0:0:0:
176,308,130106,1,0,0:0:0:0:
180,224,130341,1,2,0:0:0:0:
256,192,130575,1,2,0:0:0:0:
256,192,131044,5,4,3:0:0:0:
320,140,131278,1,0,0:0:0:0:
392,100,131512,6,0,P|432:132|432:172,1,90,4|0,0:0|0:0,0:0:0:0:
436,248,131981,2,0,P|404:288|369:290,1,90,8|0,0:0|0:0,0:0:0:0:
352,284,132333,2,0,P|292:259|220:279,1,135,2|2,0:0|0:0,0:0:0:0:
168,328,132919,1,8,0:0:0:0:
104,376,133153,1,2,0:0:0:0:
112,264,133387,6,0,P|100:192|148:136,1,135,2|2,0:0|0:0,0:0:0:0:
134,145,133856,1,8,0:0:0:0:
180,212,134091,1,2,0:0:0:0:
84,80,134325,2,0,P|156:68|212:116,1,135,2|2,0:0|0:0,0:0:0:0:
204,102,134794,1,8,0:0:0:0:
252,168,135028,1,2,0:0:0:0:
328,292,135262,6,0,P|368:312|416:308,2,90,2|0|8,0:0|0:0|0:0,0:0:0:0:
384,232,135966,1,0,0:0:0:0:
384,232,136083,2,0,P|412:200|400:96,1,135,2|2,0:0|0:0,0:0:0:0:
364,44,136669,1,8,0:0:0:0:
284,32,136903,1,0,0:0:0:0:
228,88,137137,6,0,P|194:138|222:206,1,135,2|10,0:0|0:0,0:0:0:0:
218,203,137605,1,0,0:0:0:0:
276,147,137841,1,0,0:0:0:0:
158,252,138075,2,0,P|208:285|273:261,1,135,2|2,0:0|0:0,0:0:0:0:
274,261,138544,1,8,0:0:0:0:
332,203,138778,1,2,0:0:0:0:
421,272,139012,6,0,P|448:236|449:188,1,90,2|0,0:0|0:0,0:0:0:0:
428,116,139481,1,8,0:0:0:0:
360,72,139716,1,0,0:0:0:0:
360,72,139833,2,0,P|304:96|224:56,1,135,2|2,0:0|0:0,0:0:0:0:
164,36,140419,1,8,0:0:0:0:
116,100,140653,1,0,0:0:0:0:
68,164,140887,6,0,P|40:212|96:320,1,180,2|8,0:0|0:0,0:0:0:0:
168,332,141591,1,0,0:0:0:0:
216,268,141825,2,0,P|276:248|334:282,1,135,2|2,0:0|0:0,0:0:0:0:
334,282,142294,1,8,0:0:0:0:
268,332,142528,1,2,0:0:0:0:
296,168,142762,6,0,P|341:189|427:153,1,135,2|8,0:0|0:0,0:0:0:0:
418,163,143231,1,0,0:0:0:0:
356,112,143466,1,0,0:0:0:0:
296,56,143700,1,2,0:0:0:0:
216,56,143934,1,2,0:0:0:0:
156,112,144169,1,8,0:0:0:0:
256,348,144637,5,2,0:0:0:0:
256,268,144872,1,0,0:0:0:0:
256,268,144989,1,8,0:0:0:0:
256,268,145106,1,0,0:0:0:0:
324,224,145341,2,0,P|348:184|328:136,1,90,0|2,0:0|0:0,0:0:0:0:
176,145,145809,2,0,P|164:184|188:224,1,90,2|8,0:0|0:0,0:0:0:0:
256,192,146512,12,0,147919,0:0:0:0:
160,108,148387,6,0,P|220:36|352:108,1,270.000010299683,2|0,0:0|0:0,0:0:0:0:
320,176,149559,1,2,0:0:0:0:
256,212,149794,1,0,0:0:0:0:
192,176,150028,2,0,P|152:216|172:288,1,135.000005149842,2|0,0:0|0:0,0:0:0:0:
212,348,150731,1,2,0:0:0:0:
342,285,151200,6,0,B|392:296|392:296|444:284,1,101.250003862381,2|2,0:0|0:0,0:0:0:0:
441,284,151669,1,0,0:0:0:0:
456,212,151903,1,0,0:0:0:0:
444,140,152137,2,0,P|388:108|332:140,1,135.000005149842,2|0,0:0|0:0,0:0:0:0:
316,212,152841,2,0,B|285:230|252:218|252:218|216:202|183:218,1,135.000005149842,2|2,0:0|0:0,0:0:0:0:
116,240,153544,5,0,0:0:0:0:
44,228,153778,2,0,P|32:280|72:352,2,135.000005149842,2|2|2,0:0|0:0|0:0,0:0:0:0:
92,172,154950,2,0,P|108:128|68:68,1,101.250003862381,0|2,0:0|0:0,0:0:0:0:
86,80,155419,1,0,0:0:0:0:
30,131,155653,1,2,0:0:0:0:
196,44,155887,6,0,P|256:140|316:44,1,270.000010299683,2|0,0:0|0:0,0:0:0:0:
380,8,157059,2,0,P|392:40|396:80,1,67.5000025749208,2|0,0:0|0:0,0:0:0:0:
376,144,157527,2,0,P|396:240|440:260,1,135.000005149842,2|0,0:0|0:0,0:0:0:0:
444,181,158230,1,2,0:0:0:0:
90,255,158700,6,0,P|132:220|140:168,2,101.250003862381,2|0|2,0:0|0:0|0:0,0:0:0:0:
68,184,159637,2,0,P|92:120|152:104,1,135.000005149842,2|0,0:0|0:0,0:0:0:0:
360,104,160575,2,0,P|420:120|444:184,1,135.000005149842,2|0,0:0|0:0,0:0:0:0:
256,192,161512,12,0,162919,0:0:0:0:
148,256,163387,6,0,P|216:337|365:256,1,306.000005836487,2|0,0:0|0:0,0:0:0:0:
328,180,164559,1,2,0:0:0:0:
256,140,164794,1,8,0:0:0:0:
186,178,165028,2,0,P|122:169|91:89,1,153.000002918243,2|2,0:0|0:0,0:0:0:0:
160,54,165731,1,8,0:0:0:0:
356,54,166200,6,0,B|413:42|413:42|472:55,1,114.750002188683,2|2,0:0|0:0,0:0:0:0:
469,55,166669,1,8,0:0:0:0:
485,138,166903,1,0,0:0:0:0:
473,219,167137,2,0,P|409:255|346:219,1,153.000002918243,2|8,0:0|0:0,0:0:0:0:
327,138,167841,2,0,B|291:117|254:131|254:131|213:149|176:131,1,153.000002918243,2|2,0:0|0:0,0:0:0:0:
100,106,168544,5,8,0:0:0:0:
28,148,168778,2,0,P|14:88|72:24,1,153.000002918243,2|2,0:0|0:0,0:0:0:0:
100,188,169481,2,0,P|113:247|56:312,1,153.000002918243,8|0,0:0|0:0,0:0:0:0:
36,236,170184,2,0,L|188:284,1,153.000002918243,2|2,0:0|0:0,0:0:0:0:
188,200,170887,6,0,P|256:91|324:200,1,306.000005836487,2|2,0:0|0:0,0:0:0:0:
256,248,172059,1,2,0:0:0:0:
256,332,172294,1,8,0:0:0:0:
332,296,172528,2,0,P|440:318|452:368,1,153.000002918243,2|2,0:0|0:0,0:0:0:0:
376,356,173230,1,8,0:0:0:0:
52,348,173700,6,0,P|99:308|108:249,1,114.750002188683,2|2,0:0|0:0,0:0:0:0:
109,258,174169,1,8,0:0:0:0:
52,196,174403,1,0,0:0:0:0:
92,124,174637,2,0,P|128:92|200:100,1,114.750002188683,2|2,0:0|0:0,0:0:0:0:
191,95,175106,1,8,0:0:0:0:
256,148,175341,1,0,0:0:0:0:
320,96,175575,2,0,P|384:93|420:125,1,114.750002188683,2|2,0:0|0:0,0:0:0:0:
420,126,176044,1,8,0:0:0:0:
256,192,176512,12,4,178387,0:0:0:0:
48,224,192919,5,8,0:0:0:0:
112,276,193153,1,0,0:0:0:0:
192,276,193387,2,0,P|232:272|264:236,1,90,4|0,0:0|0:0,0:0:0:0:
272,156,193856,1,8,0:0:0:0:
308,84,194091,1,0,0:0:0:0:
308,84,194208,2,0,P|412:112|424:160,1,135,2|2,0:0|0:0,0:0:0:0:
380,200,194794,5,8,0:0:0:0:
436,260,195028,1,0,0:0:0:0:
452,340,195262,2,0,P|400:368|332:340,1,135,2|2,0:0|0:0,0:0:0:0:
333,341,195731,1,8,0:0:0:0:
256,316,195966,1,0,0:0:0:0:
179,339,196200,2,0,P|127:367|59:339,1,135,2|2,0:0|0:0,0:0:0:0:
60,340,196669,1,8,0:0:0:0:
48,260,196903,1,2,0:0:0:0:
64,136,197137,6,0,P|92:100|148:92,1,90,2|0,0:0|0:0,0:0:0:0:
216,88,197606,2,0,P|258:99|286:135,1,90,8|0,0:0|0:0,0:0:0:0:
285,134,197958,2,0,P|280:192|336:236,1,135,2|2,0:0|0:0,0:0:0:0:
412,208,198544,1,8,0:0:0:0:
488,184,198778,1,2,0:0:0:0:
472,264,199012,6,0,P|488:316|440:372,1,135,2|10,0:0|0:0,0:0:0:0:
439,372,199481,1,0,0:0:0:0:
376,320,199716,1,2,0:0:0:0:
300,348,199950,2,0,P|248:364|192:316,1,135,2|2,0:0|0:0,0:0:0:0:
191,316,200419,1,8,0:0:0:0:
112,336,200653,1,2,0:0:0:0:
116,184,200887,5,2,0:0:0:0:
192,156,201122,1,0,0:0:0:0:
160,80,201356,1,8,0:0:0:0:
224,232,201591,1,0,0:0:0:0:
224,232,201708,2,0,P|276:208|288:120,1,135,2|2,0:0|0:0,0:0:0:0:
144,264,202294,6,0,P|124:324|140:356,1,90,8|0,0:0|0:0,0:0:0:0:
208,316,202762,2,0,P|276:340|376:280,1,180,2|8,0:0|0:0,0:0:0:0:
416,228,203466,1,0,0:0:0:0:
492,252,203700,2,0,P|484:184|432:152,1,135,2|2,0:0|0:0,0:0:0:0:
432,151,204169,1,8,0:0:0:0:
352,132,204403,1,2,0:0:0:0:
284,172,204637,6,0,P|201:172|163:130,1,135,2|10,0:0|0:0,0:0:0:0:
167,138,205105,1,0,0:0:0:0:
144,60,205341,1,0,0:0:0:0:
64,52,205575,1,2,0:0:0:0:
28,124,205809,1,2,0:0:0:0:
92,176,206044,1,8,0:0:0:0:
308,340,206512,6,0,P|360:324|372:280,1,90,2|0,0:0|0:0,0:0:0:0:
372,294,206864,1,10,0:0:0:0:
372,294,206981,1,0,0:0:0:0:
328,228,207216,1,0,0:0:0:0:
392,176,207450,1,2,0:0:0:0:
436,244,207684,1,2,0:0:0:0:
440,104,207919,6,0,P|399:83|345:101,1,90,10|0,0:0|0:0,0:0:0:0:
296,148,208387,2,0,P|256:165|216:148,1,90,4|0,0:0|0:0,0:0:0:0:
156,92,208856,2,0,P|113:84|72:105,1,90,8|0,0:0|0:0,0:0:0:0:
64,112,209208,2,0,P|38:181|80:232,1,135,2|2,0:0|0:0,0:0:0:0:
140,273,209794,1,8,0:0:0:0:
212,316,210028,1,2,0:0:0:0:
284,352,210262,6,0,P|349:325|370:222,1,180,2|8,0:0|0:0,0:0:0:0:
304,180,210966,1,0,0:0:0:0:
304,180,211200,2,0,P|352:148|428:168,1,135,2|2,0:0|0:0,0:0:0:0:
423,164,211669,1,8,0:0:0:0:
452,240,211903,1,2,0:0:0:0:
328,312,212137,6,0,P|300:344|252:344,1,90,2|0,0:0|0:0,0:0:0:0:
180,308,212606,1,8,0:0:0:0:
112,264,212841,1,0,0:0:0:0:
112,264,212958,2,0,P|52:320|76:388,1,135,2|2,0:0|0:0,0:0:0:0:
188,224,213544,6,0,P|216:184|212:144,1,90,8|0,0:0|0:0,0:0:0:0:
180,308,214012,2,0,P|252:344|296:320,1,135,2|10,0:0|0:0,0:0:0:0:
295,321,214481,1,0,0:0:0:0:
352,264,214716,1,0,0:0:0:0:
416,216,214950,2,0,P|464:232|480:312,1,135,2|2,0:0|0:0,0:0:0:0:
482,307,215419,1,8,0:0:0:0:
404,324,215653,1,2,0:0:0:0:
340,184,215887,5,2,0:0:0:0:
264,156,216122,1,0,0:0:0:0:
188,132,216356,1,8,0:0:0:0:
112,108,216591,1,0,0:0:0:0:
112,108,216708,2,0,P|60:132|48:220,1,135,2|2,0:0|0:0,0:0:0:0:
56,284,217294,6,0,P|104:304|148:296,1,90,8|0,0:0|0:0,0:0:0:0:
220,276,217762,2,0,P|288:252|388:312,1,180,2|8,0:0|0:0,0:0:0:0:
320,356,218466,1,0,0:0:0:0:
440,236,218700,2,0,P|383:198|378:137,1,135,2|2,0:0|0:0,0:0:0:0:
377,136,219169,1,8,0:0:0:0:
380,56,219403,1,2,0:0:0:0:
308,92,219637,6,0,P|247:96|209:153,1,135,2|10,0:0|0:0,0:0:0:0:
208,154,220106,1,0,0:0:0:0:
160,220,220341,1,0,0:0:0:0:
96,172,220575,1,2,0:0:0:0:
32,224,220809,1,2,0:0:0:0:
96,276,221044,1,8,0:0:0:0:
392,348,221512,5,2,0:0:0:0:
440,220,221747,1,0,0:0:0:0:
440,220,221864,1,8,0:0:0:0:
440,220,221980,1,0,0:0:0:0:
332,292,222216,1,0,0:0:0:0:
460,300,222450,1,2,0:0:0:0:
360,220,222684,1,2,0:0:0:0:
392,348,222919,1,8,0:0:0:0:
256,192,223387,12,0,225262,0:0:0:0:
