osu file format v12

[General]
AudioFilename: ClariS - reunion.mp3
AudioLeadIn: 1996
PreviewTime: 43212
Countdown: 0
SampleSet: Normal
StackLeniency: 0.7
Mode: 1
LetterboxInBreaks: 0

[Editor]
DistanceSpacing: 1
BeatDivisor: 4
GridSize: 4

[Metadata]
Title:reunion (TV Size)
TitleUnicode:reunion (TV Size)
Artist:ClariS
ArtistUnicode:ClariS
Creator:ikari_kyon
Version:Taiko Muzukashii
Source:Ore no Imouto ga Konna ni Kawaii Wake ga Nai.
Tags:alice clara kz livetune Kei oreimo second season
BeatmapID:239612
BeatmapSetID:87272

[Difficulty]
HPDrainRate:5
CircleSize:5
OverallDifficulty:5
ApproachRate:5
SliderMultiplier:1.4
SliderTickRate:1

[Events]
//Background and Video events
0,0,"taiko bg reunion.jpg",1,1
//Break Periods
//Storyboard Layer 0 (Background)
//Storyboard Layer 1 (Fail)
//Storyboard Layer 2 (Pass)
//Storyboard Layer 3 (Foreground)
//Storyboard Sound Samples
//Background Colour Transformations
3,100,163,162,255

[TimingPoints]
101,444.444444444444,4,1,0,60,1,0
58767,-100,4,1,0,60,0,1
88545,-100,4,1,0,60,0,0

[Colours]
Combo1 : 0,128,255
Combo2 : 255,128,255

[HitObjects]
256,188,1434,1,4,0:0:0:0:
256,188,1878,1,8,0:0:0:0:
344,180,3212,1,0,0:0:0:0:
344,180,3656,1,8,0:0:0:0:
168,228,4989,1,0,0:0:0:0:
168,228,5434,1,8,0:0:0:0:
268,212,6100,1,8,0:0:0:0:
188,136,6767,1,8,0:0:0:0:
440,124,7212,1,0,0:0:0:0:
256,192,7656,12,0,8989,0:0:0:0:
224,184,9434,5,8,0:0:0:0:
300,164,9878,1,0,0:0:0:0:
300,164,10100,1,0,0:0:0:0:
300,164,10323,1,8,0:0:0:0:
220,104,10767,1,0,0:0:0:0:
176,200,11212,1,8,0:0:0:0:
176,200,11434,1,0,0:0:0:0:
152,136,11878,1,0,0:0:0:0:
152,136,12100,1,8,0:0:0:0:
300,136,12545,1,4,0:0:0:0:
256,176,12989,1,8,0:0:0:0:
176,116,13434,1,0,0:0:0:0:
128,116,13878,1,0,0:0:0:0:
128,116,14100,1,0,0:0:0:0:
92,84,14767,1,0,0:0:0:0:
192,72,14989,1,8,0:0:0:0:
280,120,15656,1,8,0:0:0:0:
176,192,16100,1,4,0:0:0:0:
176,192,16545,1,0,0:0:0:0:
248,276,16989,1,0,0:0:0:0:
304,192,17878,1,0,0:0:0:0:
304,192,18323,1,0,0:0:0:0:
304,192,18767,1,0,0:0:0:0:
128,144,19656,1,0,0:0:0:0:
128,144,20100,1,0,0:0:0:0:
128,144,20545,1,0,0:0:0:0:
236,168,20989,1,8,0:0:0:0:
192,112,21434,1,0,0:0:0:0:
192,112,21656,1,0,0:0:0:0:
192,112,21878,1,0,0:0:0:0:
112,152,22323,1,0,0:0:0:0:
108,184,22545,1,0,0:0:0:0:
108,184,22767,1,0,0:0:0:0:
240,212,22989,1,8,0:0:0:0:
264,168,23212,1,4,0:0:0:0:
200,120,23656,1,0,0:0:0:0:
168,200,24100,1,0,0:0:0:0:
256,240,24545,1,8,0:0:0:0:
256,240,24989,1,0,0:0:0:0:
304,144,25434,1,0,0:0:0:0:
304,144,25878,1,0,0:0:0:0:
304,144,26323,1,8,0:0:0:0:
164,124,26545,1,8,0:0:0:0:
164,124,26767,1,0,0:0:0:0:
224,116,27212,1,8,0:0:0:0:
224,116,27434,1,0,0:0:0:0:
304,144,27878,1,0,0:0:0:0:
164,124,28323,1,8,0:0:0:0:
172,80,29434,1,8,0:0:0:0:
236,128,29878,1,8,0:0:0:0:
200,184,30323,1,4,0:0:0:0:
364,216,30767,1,0,0:0:0:0:
364,216,30989,1,8,0:0:0:0:
364,216,31212,1,0,0:0:0:0:
136,188,31656,1,0,0:0:0:0:
260,256,32100,1,0,0:0:0:0:
236,148,32545,1,0,0:0:0:0:
236,148,32767,1,8,0:0:0:0:
236,148,32989,1,0,0:0:0:0:
152,120,33434,1,0,0:0:0:0:
144,156,33878,1,0,0:0:0:0:
112,128,34545,1,8,0:0:0:0:
112,128,34767,1,8,0:0:0:0:
112,128,34989,1,8,0:0:0:0:
112,128,35212,1,8,0:0:0:0:
192,88,35434,1,8,0:0:0:0:
152,16,35656,1,0,0:0:0:0:
204,188,36100,1,8,0:0:0:0:
204,188,36545,1,8,0:0:0:0:
192,88,36767,1,8,0:0:0:0:
204,188,36989,1,8,0:0:0:0:
232,96,37212,1,0,0:0:0:0:
140,64,38100,1,0,0:0:0:0:
116,176,38323,1,8,0:0:0:0:
176,192,38545,1,0,0:0:0:0:
176,192,38767,1,8,0:0:0:0:
176,192,38989,1,0,0:0:0:0:
284,152,39434,1,0,0:0:0:0:
284,152,39656,1,8,0:0:0:0:
284,152,39878,1,0,0:0:0:0:
232,160,40323,1,8,0:0:0:0:
232,160,40545,1,8,0:0:0:0:
204,120,40767,1,0,0:0:0:0:
144,112,41212,1,0,0:0:0:0:
144,144,41434,1,8,0:0:0:0:
296,132,41656,1,0,0:0:0:0:
220,248,42100,1,0,0:0:0:0:
220,248,42323,1,8,0:0:0:0:
220,248,42545,1,8,0:0:0:0:
212,148,42989,1,0,0:0:0:0:
212,148,43212,1,8,0:0:0:0:
152,180,43656,1,8,0:0:0:0:
124,152,44100,1,8,0:0:0:0:
148,100,44545,1,4,0:0:0:0:
208,288,44989,1,0,0:0:0:0:
208,288,45212,1,8,0:0:0:0:
216,100,45434,1,0,0:0:0:0:
232,180,45878,1,8,0:0:0:0:
312,160,46323,1,0,0:0:0:0:
112,276,46989,1,8,0:0:0:0:
112,276,47212,1,0,0:0:0:0:
232,264,47434,1,0,0:0:0:0:
232,264,47656,1,0,0:0:0:0:
236,120,47878,1,8,0:0:0:0:
180,104,48545,1,8,0:0:0:0:
324,144,48989,1,0,0:0:0:0:
268,224,49212,1,0,0:0:0:0:
320,216,49434,1,8,0:0:0:0:
320,216,49656,1,0,0:0:0:0:
216,196,50100,1,0,0:0:0:0:
216,196,50323,1,0,0:0:0:0:
180,188,50767,1,8,0:0:0:0:
128,228,51212,1,8,0:0:0:0:
128,228,51656,1,4,0:0:0:0:
292,212,52989,1,8,0:0:0:0:
192,152,53434,1,4,0:0:0:0:
260,144,54767,1,8,0:0:0:0:
240,96,55212,1,4,0:0:0:0:
196,236,55656,1,4,0:0:0:0:
264,244,56100,1,4,0:0:0:0:
264,244,56545,1,4,0:0:0:0:
264,244,56989,1,4,0:0:0:0:
208,192,57878,1,8,0:0:0:0:
208,192,58100,1,8,0:0:0:0:
280,140,58323,1,8,0:0:0:0:
280,140,58545,1,8,0:0:0:0:
320,160,58767,1,4,0:0:0:0:
216,88,58989,1,0,0:0:0:0:
216,88,59212,1,8,0:0:0:0:
168,204,59656,1,8,0:0:0:0:
144,168,59878,1,0,0:0:0:0:
144,168,60100,1,8,0:0:0:0:
224,224,60323,1,0,0:0:0:0:
328,192,61212,1,8,0:0:0:0:
328,192,61434,1,0,0:0:0:0:
224,132,61656,1,8,0:0:0:0:
224,132,61878,1,0,0:0:0:0:
224,132,62100,1,8,0:0:0:0:
160,112,62323,1,0,0:0:0:0:
164,224,62767,1,8,0:0:0:0:
180,160,62989,1,0,0:0:0:0:
180,160,63212,1,0,0:0:0:0:
304,208,63434,1,0,0:0:0:0:
304,208,63656,1,8,0:1:0:0:
304,208,63878,1,0,0:0:0:0:
244,124,64323,1,8,0:0:0:0:
244,124,64545,1,8,0:0:0:0:
208,64,64767,1,8,0:0:0:0:
140,64,64989,1,0,0:0:0:0:
192,136,65212,1,8,0:0:0:0:
192,136,65434,1,0,0:0:0:0:
192,136,65656,1,8,0:0:0:0:
192,136,65878,1,4,0:0:0:0:
176,184,66323,1,8,0:0:0:0:
268,168,66767,1,8,0:0:0:0:
204,112,67212,1,0,0:0:0:0:
204,112,67434,1,0,0:0:0:0:
204,112,67878,1,0,0:0:0:0:
204,112,68100,1,8,0:0:0:0:
204,112,68323,1,0,0:0:0:0:
192,176,68767,1,0,0:0:0:0:
192,176,68878,1,0,0:0:0:0:
192,176,68989,1,0,0:0:0:0:
192,176,69212,1,8,0:0:0:0:
236,144,69434,1,4,0:0:0:0:
336,204,69878,1,8,0:0:0:0:
336,204,70323,1,8,0:0:0:0:
100,112,70767,1,0,0:0:0:0:
100,112,70989,1,0,0:0:0:0:
224,168,71434,1,0,0:0:0:0:
224,168,71656,1,8,0:0:0:0:
224,168,71878,1,0,0:0:0:0:
224,168,72100,1,8,0:0:0:0:
216,124,72545,1,8,0:0:0:0:
164,128,72989,1,4,0:0:0:0:
332,172,73434,1,8,0:0:0:0:
268,248,73878,1,0,0:0:0:0:
260,200,74323,1,8,0:0:0:0:
260,200,74545,1,0,0:0:0:0:
216,140,74989,1,0,0:0:0:0:
216,140,75212,1,8,0:0:0:0:
216,140,75434,1,0,0:0:0:0:
216,140,75656,1,8,0:0:0:0:
168,164,76100,1,8,0:0:0:0:
112,128,76545,1,4,0:0:0:0:
216,140,76989,1,8,0:0:0:0:
296,180,77434,1,0,0:0:0:0:
296,180,77656,1,0,0:0:0:0:
296,180,77878,1,8,0:0:0:0:
272,156,78100,1,0,0:0:0:0:
272,156,78767,1,8,0:0:0:0:
180,56,79212,1,8,0:0:0:0:
208,152,79656,1,8,0:0:0:0:
180,56,80100,1,4,0:0:0:0:
340,172,80545,1,8,0:0:0:0:
288,208,80989,1,0,0:0:0:0:
208,232,81434,1,8,0:0:0:0:
208,232,81656,1,0,0:0:0:0:
180,120,82100,1,0,0:0:0:0:
180,120,82323,1,8,0:1:0:0:
180,120,82545,1,0,0:0:0:0:
148,256,82989,1,0,0:0:0:0:
300,136,83434,1,0,0:0:0:0:
160,112,83878,1,0,0:0:0:0:
232,208,84100,1,0,0:0:0:0:
144,96,84545,1,8,0:0:0:0:
172,144,84989,1,0,0:0:0:0:
220,12,85212,1,8,0:0:0:0:
24,88,85878,1,0,0:0:0:0:
232,168,86100,1,8,0:0:0:0:
220,92,86545,1,8,0:0:0:0:
160,60,86989,1,0,0:0:0:0:
256,192,87212,12,0,88545,0:0:0:0:
