osu file format v12

[General]
AudioFilename: ClariS - reunion.mp3
AudioLeadIn: 500
PreviewTime: 43212
Countdown: 0
SampleSet: Soft
StackLeniency: 0.7
Mode: 0
LetterboxInBreaks: 0

[Editor]
DistanceSpacing: 1
BeatDivisor: 4
GridSize: 4

[Metadata]
Title:reunion (TV Size)
TitleUnicode:reunion (TV Size)
Artist:ClariS
ArtistUnicode:ClariS
Creator:ikari_kyon
Version:Insane
Source:Ore no Imouto ga Konna ni Kawaii Wake ga Nai.
Tags:alice clara kz livetune Kei oreimo second season
BeatmapID:238442
BeatmapSetID:87272

[Difficulty]
HPDrainRate:8
CircleSize:5
OverallDifficulty:7
ApproachRate:8
SliderMultiplier:2.2
SliderTickRate:2

[Events]
//Background and Video events
0,0,"bg.jpg",1,1
Video,0,"reunion video.avi"
//Break Periods
//Storyboard Layer 0 (Background)
//Storyboard Layer 1 (Fail)
//Storyboard Layer 2 (Pass)
//Storyboard Layer 3 (Foreground)
//Storyboard Sound Samples
//Background Colour Transformations
3,100,163,162,255

[TimingPoints]
101,444.444444444444,4,2,0,100,1,0
1878,-200,4,2,0,60,0,0
6767,-100,4,2,0,60,0,0
8545,-100,4,1,0,45,0,0
51656,-200,4,1,0,45,0,0
58323,-200,4,1,0,30,0,0
58767,-100,4,1,0,45,0,1
88545,-100,4,2,0,30,0,0

[Colours]
Combo1 : 0,128,255
Combo2 : 255,128,255

[HitObjects]
176,296,1878,2,0,P|216:272|296:280,1,110,4|2,0:0|0:0,0:0:0:0:
348,320,2545,2,0,P|296:296|276:248,1,110,2|2,0:0|0:0,0:0:0:0:
360,240,3212,1,0,0:0:0:0:
356,112,3434,6,0,P|412:144|468:140,2,110,2|2|2,0:0|0:0|0:0,0:0:0:0:
284,68,4545,2,0,B|260:116|220:132|220:132|220:160,1,110,2|0,0:0|0:0,0:0:0:0:
140,184,5212,2,0,P|184:216|184:280,1,110,2|0,0:0|0:0,0:0:0:0:
100,260,5878,1,2,0:0:0:0:
144,328,6100,1,0,0:0:0:0:
100,260,6323,5,2,0:0:0:0:
140,184,6545,1,0,0:0:0:0:
52,120,6767,2,0,P|103:101|147:65,1,110,2|0,0:0|0:0,0:0:0:0:
256,72,7212,2,0,P|298:106|349:125,1,110,2|0,0:0|0:0,0:0:0:0:
276,256,7656,6,0,B|328:260|328:260|372:288|416:276,1,110,2|0,0:0|0:0,0:0:0:0:
436,184,8100,2,0,L|452:124,2,55,2|0|0,0:0|0:0|0:0,0:0:0:0:
312,172,8545,1,4,0:0:0:0:
268,204,8656,1,0,2:0:0:0:
276,256,8767,1,0,2:0:0:0:
144,104,8989,6,0,P|184:156|168:208,1,110,4|0,0:0|0:2,0:0:0:0:
148,228,9323,1,0,0:0:0:0:
156,272,9434,2,0,P|80:268|32:292,2,110,8|0|0,0:2|0:0|0:0,0:0:0:0:
184,284,9989,1,0,0:0:0:0:
184,284,10100,1,0,0:0:0:0:
308,88,10323,6,0,P|268:136|304:208,1,110,8|0,0:2|0:0,0:0:0:0:
364,116,10767,2,0,P|420:96|432:36,1,110,0|0,0:0|0:0,0:0:0:0:
508,136,11212,1,8,0:2:0:0:
508,136,11323,1,0,0:0:0:0:
508,136,11434,1,0,0:0:0:0:
508,136,11545,1,0,0:0:0:0:
492,176,11656,2,0,L|452:284,1,110,0|0,0:0|0:0,0:0:0:0:
268,300,12100,6,0,L|312:192,1,110,8|0,0:2|0:0,0:0:0:0:
200,68,12545,2,0,P|224:136|104:148,1,220,0|8,0:0|0:2,0:0:0:0:
160,116,13212,1,0,0:0:0:0:
143,94,13323,1,0,0:0:0:0:
118,80,13434,1,0,0:0:0:0:
90,75,13545,1,0,0:0:0:0:
62,79,13656,1,0,0:0:0:0:
37,92,13767,1,0,0:0:0:0:
15,109,13878,2,0,P|59:178|56:226,1,110,8|4,0:2|0:0,0:0:0:0:
256,192,14545,5,0,0:0:0:0:
256,192,14656,1,0,0:0:0:0:
256,192,14767,1,8,0:2:0:0:
320,132,14989,2,0,P|256:59|192:132,1,220,4|0,0:0|0:2,0:0:0:0:
256,192,15656,1,8,0:2:0:0:
64,320,16100,6,0,B|132:296|132:296|172:336|236:324|236:324|240:288,1,220,4|8,0:0|0:2,0:0:0:0:
308,228,16767,1,0,0:0:0:0:
308,228,16878,1,0,0:0:0:0:
308,228,16989,1,0,0:0:0:0:
472,208,17212,5,0,0:0:0:0:
392,244,17434,1,8,0:2:0:0:
308,228,17656,2,0,P|332:176|380:160,1,110
204,156,18100,2,0,P|180:208|132:224,1,110,0|8,0:0|0:2,0:0:0:0:
380,160,18545,5,0,0:0:0:0:
392,244,18767,2,0,B|424:276|424:276|420:304|440:348,1,110
348,340,19212,2,0,P|288:320|224:340,1,110,8|0,0:2|0:0,0:0:0:0:
200,332,19545,1,0,0:0:0:0:
176,296,19656,2,0,P|112:212|188:96,2,220,0|8|0,0:0|0:2|0:0,0:0:0:0:
328,144,20767,5,0,0:0:0:0:
356,112,20878,1,0,0:0:0:0:
400,100,20989,2,0,B|392:172|468:192|468:192|436:248|440:284,2,220,8|0|8,0:2|0:0|0:2,0:0:0:0:
144,100,22100,5,0,0:0:0:0:
144,100,22212,1,0,0:0:0:0:
144,100,22323,2,0,P|200:80|228:40,2,110,0|8|8,0:0|0:2|0:2,0:0:0:0:
148,188,22989,1,0,0:0:0:0:
104,264,23212,6,0,P|172:256|224:280,1,110,4|0,0:0|0:0,0:0:0:0:
256,244,23545,1,0,0:0:0:0:
302,270,23656,2,0,P|340:256|408:264,1,110,8|0,0:2|0:0,0:0:0:0:
360,328,24100,5,0,0:0:0:0:
256,344,24323,1,0,0:0:0:0:
152,328,24545,1,8,0:2:0:0:
304,260,24767,6,0,P|256:181|208:260,1,220
144,196,25434,2,0,P|212:124|328:140,2,220,8|0|8,0:2|0:0|0:2,0:0:0:0:
56,48,26545,5,0,0:0:0:0:
72,136,26767,2,0,P|28:192|16:248,1,110,0|0,0:0|0:0,0:0:0:0:
60,308,27212,2,0,P|104:252|114:215,1,110,8|0,0:2|0:0,0:0:0:0:
196,244,27656,6,0,P|228:320|368:324,1,220,0|8,0:0|0:2,0:0:0:0:
484,152,28323,2,0,P|412:184|416:320,1,220
408,311,28878,1,0,0:0:0:0:
408,311,28989,1,8,0:2:0:0:
488,252,29212,5,0,0:0:0:0:
484,152,29434,2,0,P|478:125|500:96,1,55
484,152,29656,2,0,P|412:128|424:72,1,110,8|8,0:2|0:2,0:0:0:0:
408,104,29989,1,0,0:0:0:0:
408,104,30100,1,0,0:0:0:0:
300,240,30323,6,0,P|268:280|124:284,1,165,4|0,0:0|0:0,0:0:0:0:
128,328,30767,2,0,P|172:292|176:240,2,110,8|0|0,0:2|0:0|0:0,0:0:0:0:
76,312,31323,1,0,0:0:0:0:
76,312,31434,1,0,0:0:0:0:
92,148,31656,5,8,0:2:0:0:
20,200,31878,2,0,P|92:148|232:152,1,220
420,148,32545,1,8,0:2:0:0:
492,200,32767,2,0,P|420:148|280:152,1,220
320,236,33434,6,0,L|352:348,1,110,8|0,0:2|0:0,0:0:0:0:
284,284,33878,2,0,P|340:292|380:240,1,110
264,232,34323,1,8,0:2:0:0:
192,48,34545,6,0,L|128:40,1,55
188,80,34767,2,0,L|128:88,1,55
200,112,34989,2,0,L|148:136,1,55
216,132,35212,2,0,L|168:176,1,55,8|0,0:2|0:0,0:0:0:0:
248,148,35434,6,0,P|284:192|356:168,2,110
432,48,36100,2,0,P|392:144|484:132,1,220,8|0,0:2|0:0,0:0:0:0:
496,212,36767,1,0,0:0:0:0:
444,284,36989,1,8,0:2:0:0:
320,360,37212,6,0,P|331:276|444:284,1,220
444,284,37767,1,0,0:0:0:0:
444,284,37878,2,0,P|432:216|452:176,1,110,8|0,0:2|0:0,0:0:0:0:
312,64,38323,5,0,0:0:0:0:
300,152,38545,1,0,0:0:0:0:
212,156,38767,1,8,0:2:0:0:
124,152,38989,2,0,P|160:228|280:212,2,220,0|8|0,0:0|0:2|0:0,0:0:0:0:
88,136,39989,1,0,0:0:0:0:
48,120,40100,2,0,L|80:240,1,110,8|0,0:2|0:0,0:0:0:0:
180,312,40545,5,8,0:2:0:0:
268,324,40767,2,0,P|252:248|124:244,1,220,4|0,0:0|0:0,0:0:0:0:
264,112,41434,5,8,0:2:0:0:
344,72,41656,2,0,P|352:144|208:184,1,220,4|0,0:0|0:0,0:0:0:0:
364,264,42323,5,8,0:2:0:0:
436,324,42545,2,0,P|440:212|340:176,1,220,4|0,0:0|0:0,0:0:0:0:
236,96,43212,5,8,0:2:0:0:
236,96,43323,1,0,0:0:0:0:
236,96,43434,1,0,0:0:0:0:
88,156,43656,1,0,0:0:0:0:
88,156,43767,1,0,0:0:0:0:
88,156,43878,1,8,0:2:0:0:
44,164,43989,1,0,0:0:0:0:
0,156,44100,2,0,P|40:220|40:276,1,110,8|0,0:2|0:0,0:0:0:0:
172,312,44545,6,0,P|228:256|336:236,1,165,4|0,0:2|0:0,0:0:0:0:
336,276,44989,2,0,P|304:204|308:160,1,110,8|0,0:2|0:0,0:0:0:0:
416,72,45434,2,0,L|320:152,1,110
240,108,45878,1,8,0:2:0:0:
160,68,46100,2,0,B|136:136|184:176|184:176|124:208|104:248,1,220
107,240,46656,1,0,0:0:0:0:
107,240,46767,1,8,0:2:0:0:
228,300,46989,5,0,0:0:0:0:
240,108,47212,1,0,0:0:0:0:
300,184,47434,1,0,0:0:0:0:
388,196,47656,1,8,0:2:0:0:
356,280,47878,2,0,P|252:256|180:164,1,220
76,136,48545,6,0,L|20:0,1,110,8|0,0:2|0:0,0:0:0:0:
104,196,48989,2,0,L|145:297,2,110,0|0|8,0:0|0:0|0:2,0:0:0:0:
20,184,49656,2,0,P|16:96|140:96,1,220
126,80,50212,1,0,0:0:0:0:
126,80,50323,1,8,0:2:0:0:
248,152,50545,1,0,0:0:0:0:
248,152,50656,1,0,0:0:0:0:
248,152,50767,1,0,0:0:0:0:
344,344,50989,5,8,0:2:0:0:
372,236,51212,1,8,0:2:0:0:
444,152,51434,1,0,0:0:0:0:
436,260,51656,6,0,P|372:300|312:272,1,110,4|2,0:0|2:0,0:0:0:0:
288,284,52323,2,0,P|240:304|164:300,1,110
168,116,52989,5,2,2:0:0:0:
68,160,53212,1,0,0:0:0:0:
76,268,53434,2,0,P|124:240|188:240,1,110,0|2,0:0|2:2,0:0:0:0:
224,248,54100,2,0,P|216:192|232:136,1,110
400,104,54767,5,2,2:0:0:0:
380,212,54989,1,0,0:0:0:0:
408,320,55212,2,0,L|348:304,1,55
280,216,55656,2,0,L|292:284,1,55
332,148,56100,2,0,L|300:92,1,55
176,112,56545,2,0,L|200:68,2,27.5
176,112,56989,5,0,0:0:0:0:
128,216,57212,1,2,2:0:0:0:
248,188,57434,1,0,0:0:0:0:
200,292,57657,1,2,2:0:0:0:
320,88,57878,6,0,L|344:144,1,55,0|0,0:2|0:2,2:2:0:0:
456,96,58323,2,0,L|424:160,1,55
400,280,58767,6,0,P|336:272|280:284,1,110,4|0,0:0|0:0,0:0:0:0:
204,260,59212,2,0,P|252:336|216:364,1,110,8|0,0:2|0:0,0:0:0:0:
212,356,59545,1,0,0:0:0:0:
212,356,59656,1,0,0:0:0:0:
120,232,59878,5,0,0:0:0:0:
204,260,60100,1,8,0:2:0:0:
176,180,60323,2,0,P|196:120|180:68,2,110
264,144,60989,6,0,P|320:136|380:152,1,110,8|0,0:2|0:0,0:0:0:0:
400,184,61323,1,0,0:0:0:0:
400,184,61434,1,0,0:0:0:0:
320,328,61656,5,0,0:0:0:0:
328,176,61878,1,8,0:2:0:0:
244,304,62100,1,0,0:0:0:0:
116,208,62323,2,0,B|128:144|100:120|100:120|128:80|128:80|128:32|128:32|156:20,2,220,0|8|0,0:0|0:2|0:0,0:0:0:0:
124,296,63434,2,0,P|176:328|232:324,1,110,0|8,0:0|0:2,0:0:0:0:
288,148,63878,6,0,B|336:180|384:160|384:160|440:212|432:276,1,220
432,264,64434,1,0,0:0:0:0:
432,264,64545,1,8,0:2:0:0:
288,148,64767,5,0,0:0:0:0:
188,268,64989,1,0,0:0:0:0:
288,148,65212,1,8,0:2:0:0:
368,296,65434,2,0,P|296:320|228:292,1,110,8|0,0:2|0:0,0:0:0:0:
368,128,65878,6,0,B|288:168|248:120|248:120|200:128|152:88,2,220,4|8|0,0:0|0:2|0:0,0:0:0:0:
476,200,67212,1,8,0:2:0:0:
388,184,67434,2,0,P|288:144|172:200,1,220
288,256,68100,5,8,0:2:0:0:
188,328,68323,2,0,P|288:368|404:312,1,220
416,288,68878,1,0,0:0:0:0:
416,288,68989,2,0,L|348:192,1,110,8|0,0:2|0:0,0:0:0:0:
248,84,69434,6,0,P|208:148|92:96,1,220,0|8,0:0|0:2,0:0:0:0:
172,60,70100,2,0,P|286:14|326:78,1,220
360,108,70656,1,0,0:0:0:0:
360,108,70767,2,0,P|324:160|320:212,1,110,8|0,0:2|0:0,0:0:0:0:
104,320,71434,6,0,P|80:300|56:288,1,55
104,320,71656,2,0,P|164:284|208:288,1,110,8|0,0:2|0:0,0:0:0:0:
408,320,72100,2,0,P|348:284|304:288,1,110
256,104,72545,2,0,L|256:224,1,110,8|8,0:2|0:2,0:0:0:0:
172,88,72989,6,0,P|256:28|340:88,2,220,4|8|0,0:0|0:2|0:0,0:0:0:0:
148,180,74100,1,0,0:0:0:0:
168,220,74212,1,0,0:0:0:0:
168,220,74323,2,0,P|216:192|308:188,1,110,8|0,0:2|0:0,0:0:0:0:
352,232,74767,2,0,B|372:176|420:168|420:168|408:104|408:104|472:92,1,220,0|8,0:0|0:2,0:0:0:0:
320,292,75434,5,0,0:0:0:0:
192,280,75656,1,0,0:0:0:0:
336,352,75878,1,0,0:0:0:0:
160,332,76100,1,8,0:2:0:0:
260,264,76323,1,0,0:0:0:0:
344,224,76545,2,0,P|252:172|168:256,2,220,0|8|0,0:0|0:2|0:0,0:0:0:0:
228,112,77656,5,0,0:0:0:0:
156,152,77878,1,8,0:2:0:0:
92,212,78100,2,0,P|64:284|24:300,2,110
80,124,78767,2,0,P|104:80|176:84,1,110,8|0,0:2|0:0,0:0:0:0:
159,73,79100,1,0,0:0:0:0:
159,73,79212,1,0,0:0:0:0:
248,136,79434,5,8,0:2:0:0:
396,72,79656,1,8,0:2:0:0:
484,208,79878,1,0,0:0:0:0:
356,196,80100,2,0,B|312:232|320:264|352:284|392:260|392:260|444:280|452:320,2,220,4|8|0,0:0|0:2|0:0,0:0:0:0:
144,168,81434,5,8,0:2:0:0:
176,248,81656,2,0,P|80:228|84:108,1,220
156,100,82323,1,8,0:2:0:0:
236,136,82545,2,0,P|216:36|96:36,1,220
72,60,83100,1,0,0:0:0:0:
72,60,83212,2,0,P|68:128|96:160,1,110,8|0,0:2|0:0,0:0:0:0:
360,320,83878,5,0,0:0:0:0:
384,236,84100,1,8,0:2:0:0:
456,288,84323,2,0,P|380:232|428:132,1,220
468,128,84878,1,0,0:0:0:0:
468,128,84989,1,8,0:2:0:0:
192,108,85212,6,0,P|300:108|308:204,1,220
272,240,85767,1,0,0:0:0:0:
272,240,85878,1,8,0:2:0:0:
136,56,86100,2,0,P|104:124|208:184,1,220
256,152,86656,1,0,0:0:0:0:
256,152,86767,1,8,0:2:0:0:
252,28,86989,5,4,0:0:0:0:
256,192,87212,12,2,88545,0:0:0:0:
