osu file format v12

[General]
AudioFilename: ClariS - reunion.mp3
AudioLeadIn: 500
PreviewTime: 43212
Countdown: 0
SampleSet: Normal
StackLeniency: 0.7
Mode: 0
LetterboxInBreaks: 0

[Editor]
DistanceSpacing: 1
BeatDivisor: 4
GridSize: 4

[Metadata]
Title:reunion (TV Size)
TitleUnicode:reunion (TV Size)
Artist:ClariS
ArtistUnicode:ClariS
Creator:ikari_kyon
Version:Easy
Source:Ore no Imouto ga Konna ni Kawaii Wake ga Nai.
Tags:alice clara kz livetune Kei oreimo second season
BeatmapID:238516
BeatmapSetID:87272

[Difficulty]
HPDrainRate:2
CircleSize:2
OverallDifficulty:2
ApproachRate:3
SliderMultiplier:1.2
SliderTickRate:2

[Events]
//Background and Video events
0,0,"bg.jpg",1,1
Video,0,"reunion video.avi"
//Break Periods
//Storyboard Layer 0 (Background)
//Storyboard Layer 1 (Fail)
//Storyboard Layer 2 (Pass)
//Storyboard Layer 3 (Foreground)
//Storyboard Sound Samples
//Background Colour Transformations
3,100,163,162,255

[TimingPoints]
101,444.444444444444,4,2,0,60,1,0
8100,-100,4,1,0,45,0,0
58767,-100,4,1,0,45,0,1
88545,-100,4,2,0,30,0,0

[Colours]
Combo1 : 0,128,255
Combo2 : 255,128,255

[HitObjects]
72,84,1878,2,0,B|28:136|48:212|48:212|128:192|196:272|188:344,1,360,6|2,0:0|0:0,0:0:0:0:
308,336,3656,2,0,P|364:280|464:288,2,180,0|0|2,0:0|0:0|0:0,0:0:0:0:
256,192,5434,12,0,8100,0:0:0:0:
416,304,8989,6,0,P|368:288|288:304,1,120,4|8,0:0|0:2,0:0:0:0:
256,184,9878,1,0,0:0:0:0:
211,297,10323,2,0,P|144:288|96:304,1,120,8|0,0:2|0:0,0:0:0:0:
32,204,11212,6,0,B|28:132|56:80,1,120,8|0,0:2|0:2,0:0:0:0:
172,104,12100,1,8,0:2:0:0:
288,140,12545,2,0,B|292:212|264:264,1,120,0|8,0:0|0:2,0:0:0:0:
152,224,13434,2,0,P|168:112|220:56,1,180
388,80,14767,2,0,P|472:180|456:288,1,240
352,332,16100,6,0,B|296:340|256:272|256:272|216:344|160:332,2,240,0|8|0,0:0|0:2|0:0,0:0:0:0:
372,212,18323,1,8,0:2:0:0:
364,92,18767,2,0,P|256:136|148:92,2,240,0|8|0,0:0|0:2|0:0,0:0:0:0:
368,212,20989,1,8,0:2:0:0:
308,316,21434,6,0,P|256:288|204:316,2,120,0|8|0,0:0|0:2|0:0,0:0:0:0:
428,316,22767,1,8,0:2:0:0:
472,204,23212,2,0,P|428:120|296:48,1,240,4|0,0:0|0:0,0:0:0:0:
288,168,24545,1,8,0:2:0:0:
228,276,24989,6,0,B|196:248|196:248|184:248|124:304|44:272|16:188,1,240,0|0,0:0|0:2,0:0:0:0:
108,124,26323,1,8,0:2:0:0:
208,56,26767,2,0,B|240:84|240:84|252:84|312:28|392:60|420:144|384:208,1,300,0|8,0:0|0:2,0:0:0:0:
336,308,28323,6,0,P|256:344|176:308,1,180,4|8,0:0|0:2,0:0:0:0:
256,220,29434,2,0,L|256:84,1,120,0|8,0:0|0:2,0:0:0:0:
372,72,30323,6,0,L|416:196,2,120,4|8|0,0:0|0:2|0:1,0:0:0:0:
256,36,31656,1,8,0:2:0:0:
140,72,32100,2,0,L|96:196,2,120,0|8|0,0:0|0:2|0:0,0:0:0:0:
256,132,33434,5,8,0:2:0:0:
364,192,33878,2,0,P|276:256|148:192,1,240,4|0,0:0|0:0,0:0:0:0:
48,248,35212,5,8,0:2:0:0:
144,324,35656,2,0,P|164:216|112:152,2,180,0|8|8,0:0|0:2|0:2,0:0:0:0:
264,304,37434,2,0,B|296:276|348:268|348:268|352:184|412:136,1,240,4|0,0:0|0:0,0:0:0:0:
316,68,38767,6,0,L|184:96,1,120,8|0,0:2|0:0,0:0:0:0:
100,164,39656,2,0,L|128:296,1,120,8|0,0:2|0:0,0:0:0:0:
232,336,40545,2,0,L|364:308,1,120,8|0,0:2|0:0,0:0:0:0:
436,228,41434,2,0,B|444:176|444:176|408:128|440:44,2,180,8|8|4,0:2|0:2|0:0,0:0:0:0:
256,80,43656,5,0,0:0:0:0:
204,184,44100,2,0,P|156:156|140:84,1,120,8|4,0:2|0:0,0:0:0:0:
256,304,45434,5,0,0:0:0:0:
308,200,45878,2,0,P|356:228|372:300,1,120,8|0,0:2|0:0,0:0:0:0:
456,60,47212,6,0,B|396:72|396:72|360:120,2,120,0|8|0,0:0|0:2|0:0,0:0:0:0:
488,176,48545,2,0,L|504:324,1,120,8|0,0:2|0:0,0:0:0:0:
384,320,49434,2,0,L|244:344,1,120,8|0,0:2|0:0,0:0:0:0:
144,348,50323,2,0,P|56:304|36:224,2,180,8|8|4,0:2|0:2|0:2,0:0:0:0:
264,344,52100,6,0,P|348:332|392:192,1,240,0|2,0:0|2:2,0:0:0:0:
348,88,53434,2,0,P|424:68|508:196,2,240,0|2|0,0:0|2:0|0:0,0:0:0:0:
232,64,55656,2,0,P|145:42|108:24,2,120
168,164,56989,6,0,P|136:248|252:304,1,240
284,192,58323,1,4,0:2:0:0:
404,172,58767,5,4,0:0:0:0:
428,288,59212,1,8,0:2:0:0:
312,316,59656,2,0,P|256:296|200:316,1,120,0|8,0:0|0:2,0:0:0:0:
81,325,60545,2,0,B|104:208|104:208|136:204|168:168,2,180,0|8|8,0:0|0:2|0:2,0:0:0:0:
188,272,62323,6,0,P|236:240|244:168,1,120,0|8,0:0|0:2,0:0:0:0:
140,128,63212,2,0,P|151:69|199:37,1,120,0|8,0:0|0:2,0:0:0:0:
320,52,64100,2,0,B|404:76|404:76|388:124|436:164,2,180,0|8|8,0:0|0:2|0:2,0:0:0:0:
308,172,65878,6,0,P|255:258|204:172,2,240,4|8|0,0:0|0:2|0:0,0:0:0:0:
224,88,68100,2,0,P|160:96|116:160,1,120,8|0,0:2|0:0,0:0:0:0:
92,252,68989,1,8,0:2:0:0:
164,348,69434,6,0,B|208:328|232:296|232:296|300:312|352:276|384:228,2,240,0|8|0,0:0|0:2|0:0,0:0:0:0:
108,240,71656,1,8,0:2:0:0:
208,176,72100,2,0,P|255:206|304:176,1,120,0|8,0:0|0:2,0:0:0:0:
412,116,72989,6,0,B|388:136|388:136|328:64|256:104|256:104|184:64|124:136|124:136|100:116,1,360,4|8,0:0|0:2,0:0:0:0:
148,228,74767,2,0,B|200:272|256:224|256:224|312:272|364:228,1,240,4|0,0:0|0:0,0:0:0:0:
412,340,76100,1,8,0:2:0:0:
308,276,76545,6,0,P|296:216|324:160,1,120,0|8,0:0|0:2,0:0:0:0:
192,164,77434,2,0,P|216:216|204:276,1,120,0|8,0:0|0:2,0:0:0:0:
100,216,78323,2,0,P|108:100|220:64,1,240
320,116,79656,5,8,0:2:0:0:
420,184,80100,2,0,P|372:224|300:228,2,120,0|8|0,0:0|0:2|0:0,0:0:0:0:
456,300,81434,1,8,0:2:0:0:
336,316,81878,2,0,P|256:352|176:316,2,180,0|8|8,0:0|0:2|0:2,0:0:0:0:
336,256,83434,6,0,P|331:169|428:148,1,180,4|8,0:0|0:2,0:0:0:0:
312,68,84545,2,0,P|256:104|236:176,1,120,0|8,0:0|0:2,0:0:0:0:
208,204,85212,6,0,P|148:252|84:264,2,120,4|0|0,0:0|0:0|0:0,0:0:0:0:
312,192,86545,2,0,P|328:256|280:296,1,120
256,192,87212,12,2,88545,0:0:0:0:
