osu file format v12

[General]
AudioFilename: awdwe.mp3
AudioLeadIn: 2000
PreviewTime: 57667
Countdown: 0
SampleSet: Soft
StackLeniency: 0.7
Mode: 0
LetterboxInBreaks: 0

[Editor]
Bookmarks: 16111,30334,44556,58778,73000
DistanceSpacing: 1
BeatDivisor: 4
GridSize: 4

[Metadata]
Title:reunion (TV Size)
TitleUnicode:reunion (TV Size)
Artist:ClariS
ArtistUnicode:ClariS
Creator:CXu
Version:Normal
Source:Ore no Imouto ga Konnani Kawaii Wake ga Nai.
Tags:OreImo Opening ReySHeL 俺の妹がこんなに可愛いわけがない。
BeatmapID:238376
BeatmapSetID:87131

[Difficulty]
HPDrainRate:4
CircleSize:3
OverallDifficulty:4
ApproachRate:5
SliderMultiplier:1.4
SliderTickRate:2

[Events]
//Background and Video events
Video,0,"OreImoOP.avi"
0,0,"Kuronekoanydayeveryday.jpg",1,1
//Break Periods
//Storyboard Layer 0 (Background)
//Storyboard Layer 1 (Fail)
//Storyboard Layer 2 (Pass)
//Storyboard Layer 3 (Foreground)
//Storyboard Sound Samples
//Background Colour Transformations
3,100,163,162,255

[TimingPoints]
112,444.444444444444,4,2,1,70,1,0
556,-100,4,2,1,5,0,0
778,-100,4,2,1,20,0,0
1000,-100,4,2,1,35,0,0
1223,-100,4,2,1,50,0,0
1445,-100,4,2,1,65,0,0
1889,-200,4,2,1,30,0,0
2334,-200,4,2,1,50,0,0
7889,-100,4,2,1,70,0,0
9000,-100,4,2,1,80,0,0
16111,-100,4,2,1,70,0,0
51667,-133.333333333333,4,2,1,60,0,0
55223,-100,4,2,1,70,0,0
57000,-200,4,2,1,40,0,0
57445,-200,4,2,1,60,0,0
57889,-100,4,2,1,70,0,0
58778,-100,4,2,1,90,0,1
86556,-100,4,2,1,70,0,1
87000,-100,4,2,1,40,0,0
88556,-100,4,2,1,20,0,0

[Colours]
Combo1 : 218,208,97
Combo2 : 147,236,163
Combo3 : 128,128,192
Combo4 : 239,118,151

[HitObjects]
256,192,667,12,4,1889,0:0:0:0:
172,192,2334,5,0,0:0:0:0:
172,192,2556,2,0,P|168:124|228:84,1,140,2|2,0:0|0:0,0:0:0:0:
291,84,3889,2,0,P|344:123|340:191,1,140,0|2,0:0|0:0,0:0:0:0:
288,240,5223,2,0,P|256:252|224:240,1,70,0|2,0:0|0:0,0:0:0:0:
256,192,5889,12,2,8111,0:0:0:0:
256,192,8556,5,8,0:3:0:0:
348,296,9000,6,0,P|420:296|464:240,1,140,4|10,0:0|0:0,0:0:0:0:
472,108,9889,2,0,P|400:108|356:164,1,140,8|10,0:0|0:0,0:0:0:0:
287,156,10556,2,0,P|215:156|173:107,1,140
200,44,11223,5,10,0:0:0:0:
88,124,11667,1,8,0:0:0:0:
88,260,12111,1,10,0:0:0:0:
136,312,12334,6,0,P|184:340|264:316,1,140
304,264,13000,1,10,0:0:0:0:
376,264,13223,6,0,P|424:208|316:56,2,280,0|4|4,0:0|0:0|0:0,0:0:0:0:
256,192,15445,1,0,0:0:0:0:
256,192,15667,1,10,0:0:0:0:
136,264,16111,6,0,P|88:208|88:128,2,140,4|10|8,0:0|0:0|0:0,0:0:0:0:
256,192,17445,1,10,0:0:0:0:
256,192,17667,2,0,P|328:216|340:352,1,210,0|10,0:0|0:0,0:0:0:0:
292,376,18556,5,0,0:0:0:0:
152,364,19000,1,2,0:0:0:0:
108,232,19445,2,0,P|108:136|288:96,1,280,0|2,0:0|0:0,0:0:0:0:
340,192,20778,2,0,L|412:220,1,70,0|10,0:0|0:0,0:0:0:0:
472,244,21223,2,0,P|496:172|396:80,1,210,0|10,0:0|0:0,0:0:0:0:
292,152,22334,5,8,0:0:0:0:
172,80,22778,1,10,0:0:0:0:
172,80,23000,2,0,P|100:128|100:192,1,140
128,236,23667,2,0,L|272:272,1,140,10|8,0:0|0:0,0:0:0:0:
400,300,24556,5,10,0:0:0:0:
400,300,24778,1,0,0:0:0:0:
428,164,25223,2,0,P|408:76|284:52,1,210,2|8,0:0|0:0,0:0:0:0:
256,96,26111,2,0,P|228:112|191:109,2,70,0|10|0,0:0|0:0|0:0,0:0:0:0:
321,110,26778,6,0,P|333:166|289:232,1,140,8|10,0:0|0:0,0:0:0:0:
223,232,27445,2,0,P|179:166|191:110,2,140,0|2|8,0:0|0:0|0:0,0:0:0:0:
428,324,29223,5,0,0:0:0:0:
428,324,29445,1,8,0:0:0:0:
296,372,29889,1,8,0:3:0:0:
168,312,30334,6,0,L|128:160,1,140,4|10,0:0|0:0,0:0:0:0:
204,56,31223,2,0,P|252:72|360:40,1,140,8|10,0:0|0:0,0:0:0:0:
396,12,31889,2,0,P|452:52|428:180,1,210,0|10,0:0|0:0,0:0:0:0:
368,212,32778,2,0,P|320:264|321:329,2,140,0|2|0,0:0|0:0|0:0,0:0:0:0:
428,248,33889,5,8,0:0:0:0:
322,330,34334,2,0,P|245:333|201:289,1,140,10|8,0:0|0:0,0:0:0:0:
172,228,35000,1,0,0:0:0:0:
172,156,35223,1,10,0:0:0:0:
202,91,35445,2,0,P|245:51|322:54,1,140,0|0,0:0|0:0,0:0:0:0:
392,44,36111,6,0,L|366:186,2,140,10|8|10,0:0|0:0|0:0,0:0:0:0:
464,96,37223,2,0,L|425:302,1,210,0|10,0:0|0:0,0:0:0:0:
291,344,38334,1,8,0:0:0:0:
160,294,38778,1,10,0:0:0:0:
160,294,39000,2,0,P|108:238|112:158,1,140,0|2,0:0|0:0,0:0:0:0:
192,68,39889,2,0,P|244:124|240:204,1,140,0|10,0:0|0:0,0:0:0:0:
256,324,40778,6,0,P|318:326|377:263,1,140
392,208,41445,1,10,0:0:0:0:
392,208,41667,1,0,0:0:0:0:
328,84,42111,1,2,0:0:0:0:
184,84,42556,1,8,0:0:0:0:
120,208,43000,1,8,0:0:0:0:
120,208,43223,6,0,P|120:288|288:296,1,280,8|10,0:0|0:0,0:0:0:0:
316,240,44334,1,0,0:0:0:0:
372,280,44556,6,0,L|500:372,2,140,4|10|8,0:0|0:0|0:0,0:0:0:0:
372,139,45889,2,0,L|500:47,2,140,10|8|10,0:0|0:0|0:0,0:0:0:0:
316,180,47000,1,0,0:0:0:0:
268,128,47223,2,0,P|212:116|140:160,1,140,8|10,0:0|0:0,0:0:0:0:
143,225,47889,2,0,P|211:264|267:252,1,140
336,228,48556,2,0,P|392:280|384:356,2,140,10|8|10,0:0|0:0|0:0,0:0:0:0:
268,220,49667,5,0,0:0:0:0:
268,80,50111,1,0,0:0:0:0:
268,80,50334,2,0,L|116:60,1,140,10|8,0:0|0:0,0:0:0:0:
72,100,51000,2,0,P|48:140|48:176,1,70,0|10,0:0|0:0,0:0:0:0:
60,236,51445,1,0,0:0:0:0:
120,192,51667,5,4,0:0:0:0:
120,192,52111,2,0,P|256:260|392:192,2,315.000012016297,2|4|2,0:0|0:1|0:0,0:0:0:0:
84,52,55223,5,8,0:0:0:0:
170,161,55667,1,10,0:0:0:0:
256,52,56111,1,8,0:0:0:0:
342,161,56556,1,10,0:0:0:0:
428,52,57000,6,0,P|396:28|364:24,1,70,8|8,0:0|0:3,0:0:0:0:
256,52,57889,6,0,L|112:36,1,140,2|2,0:0|0:0,0:0:0:0:
20,124,58778,2,0,P|8:192|76:244,1,140,4|10,0:0|0:0,0:0:0:0:
184,296,59667,1,8,0:0:0:0:
324,296,60111,1,10,0:0:0:0:
324,296,60334,2,0,P|368:244|320:124,1,210,0|10,0:0|0:0,0:0:0:0:
256,152,61223,5,0,0:0:0:0:
192,124,61445,2,0,P|128:100|44:128,1,140,8|10,0:0|0:0,0:0:0:0:
4,244,62334,2,0,L|64:372,1,140,8|10,0:0|0:0,0:0:0:0:
184,300,63223,1,8,0:0:0:0:
308,368,63667,1,10,0:0:0:0:
308,368,63889,2,0,P|432:340|448:264,1,210,0|10,0:0|0:0,0:0:0:0:
408,216,64778,5,0,0:0:0:0:
448,160,65000,2,0,P|444:84|384:36,1,140,8|10,0:0|0:0,0:0:0:0:
260,56,65889,2,0,P|208:72|124:20,1,140,8|10,0:0|0:0,0:0:0:0:
44,144,66778,2,0,P|96:128|180:180,1,140,8|10,0:0|0:0,0:0:0:0:
132,224,67445,5,0,0:0:0:0:
208,344,67889,1,0,0:0:0:0:
256,296,68111,1,10,0:0:0:0:
304,344,68334,2,0,P|356:348|424:292,1,140
448,232,69000,1,10,0:0:0:0:
400,180,69223,6,0,L|432:28,1,140
344,56,69889,2,0,L|312:208,1,140,10|8,0:0|0:0,0:0:0:0:
256,316,70778,1,10,0:0:0:0:
256,316,71000,2,0,P|184:332|116:280,1,140
96,240,71667,1,8,0:0:0:0:
96,100,72111,5,10,0:0:0:0:
220,40,72556,1,10,0:0:0:0:
212,180,73000,1,4,0:0:0:0:
336,116,73445,2,0,P|392:116|464:184,1,140,8|10,0:0|0:0,0:0:0:0:
455,235,74111,1,0,0:0:0:0:
400,280,74334,1,10,0:0:0:0:
452,328,74556,2,0,P|388:372|280:304,1,210,0|10,0:0|0:0,0:0:0:0:
260,248,75445,5,0,0:0:0:0:
220,192,75667,2,0,L|72:192,2,140,8|10|8,0:0|0:0|0:0,0:0:0:0:
164,64,77000,2,0,P|84:60|44:104,1,140,10|8,0:0|0:0,0:0:0:0:
24,168,77667,1,0,0:0:0:0:
32,236,77889,1,10,0:0:0:0:
76,292,78111,2,0,P|148:328|252:268,1,210,0|10,0:0|0:0,0:0:0:0:
256,196,79000,5,0,0:0:0:0:
296,140,79223,2,0,P|364:132|416:180,1,140,8|10,0:0|0:0,0:0:0:0:
392,316,80111,1,8,0:0:0:0:
256,356,80556,1,10,0:0:0:0:
120,316,81000,1,10,0:0:0:0:
120,316,81223,1,0,0:0:0:0:
256,276,81667,2,0,L|256:108,2,140,2|0|2,0:0|0:0|0:0,0:0:0:0:
343,166,83000,5,2,0:0:0:0:
343,166,83223,1,8,0:0:0:0:
343,166,83445,2,0,P|343:98|279:50,1,140,8|0,0:0|0:0,0:0:0:0:
222,53,84111,2,0,P|171:97|171:165,1,140,10|8,0:0|0:0,0:0:0:0:
144,280,85000,5,10,0:0:0:0:
144,280,85223,2,0,P|256:351|368:280,1,280,4|2,0:0|0:0,0:0:0:0:
256,208,86556,1,2,0:0:0:0:
256,208,87000,1,4,0:1:0:0:
256,192,87223,12,2,88556,0:0:0:0:
