osu file format v12

[General]
AudioFilename: awdwe.mp3
AudioLeadIn: 2000
PreviewTime: 57667
Countdown: 0
SampleSet: Soft
StackLeniency: 0.7
Mode: 0
LetterboxInBreaks: 0

[Editor]
Bookmarks: 16111,30334,44556,58778,73000
DistanceSpacing: 1
BeatDivisor: 4
GridSize: 4

[Metadata]
Title:reunion (TV Size)
TitleUnicode:reunion (TV Size)
Artist:ClariS
ArtistUnicode:ClariS
Creator:CXu
Version:Easy
Source:Ore no Imouto ga Konnani Kawaii Wake ga Nai.
Tags:OreImo Opening ReySHeL 俺の妹がこんなに可愛いわけがない。
BeatmapID:238393
BeatmapSetID:87131

[Difficulty]
HPDrainRate:2
CircleSize:2
OverallDifficulty:2
ApproachRate:3
SliderMultiplier:1.2
SliderTickRate:2

[Events]
//Background and Video events
Video,0,"OreImoOP.avi"
0,0,"Kuronekoanydayeveryday.jpg",1,1
//Break Periods
//Storyboard Layer 0 (Background)
//Storyboard Layer 1 (Fail)
//Storyboard Layer 2 (Pass)
//Storyboard Layer 3 (Foreground)
//Storyboard Sound Samples
//Background Colour Transformations
3,100,163,162,255

[TimingPoints]
112,444.444444444444,4,2,1,70,1,0
556,-100,4,2,1,5,0,0
778,-100,4,2,1,20,0,0
1000,-100,4,2,1,35,0,0
1223,-100,4,2,1,50,0,0
1445,-100,4,2,1,65,0,0
1889,-200,4,2,1,30,0,0
3445,-200,4,2,1,50,0,0
7889,-100,4,2,1,70,0,0
9000,-100,4,2,1,80,0,0
16111,-100,4,2,1,70,0,0
51667,-133.333333333333,4,2,1,60,0,0
55223,-100,4,2,1,70,0,0
57000,-100,4,2,1,40,0,0
57445,-100,4,2,1,60,0,0
57889,-100,4,2,1,70,0,0
58778,-100,4,2,1,90,0,1
86556,-100,4,2,1,70,0,1
87000,-100,4,2,1,40,0,0
88556,-100,4,2,1,20,0,0

[Colours]
Combo1 : 218,208,97
Combo2 : 147,236,163
Combo3 : 128,128,192
Combo4 : 239,118,151

[HitObjects]
256,192,667,12,4,1889,0:0:0:0:
164,192,3445,6,0,P|256:127|348:192,1,240,2|2,0:0|0:0,0:0:0:0:
256,236,5667,2,0,L|256:272,1,30,0|2,0:0|0:0,0:0:0:0:
256,192,6334,12,8,8111,0:0:0:0:
256,284,9000,6,0,P|312:308|384:288,2,120,4|10|8,0:0|0:0|0:0,0:0:0:0:
180,192,10334,1,10,0:0:0:0:
256,100,10778,2,0,L|384:72,2,120,8|10|8,0:0|0:0|0:0,0:0:0:0:
148,48,12111,1,10,0:0:0:0:
48,116,12556,6,0,P|20:184|40:236,1,120,8|10,0:0|0:0,0:0:0:0:
124,304,13445,1,8,0:0:0:0:
188,204,13889,1,10,0:0:0:0:
188,204,14111,2,0,P|268:184|344:320,1,240,4|4,0:0|0:0,0:0:0:0:
456,356,15445,2,0,L|464:292,1,60,0|10,0:0|0:0,0:0:0:0:
476,176,16111,6,0,P|448:72|328:48,1,240,4|8,0:0|0:0,0:0:0:0:
256,144,17445,1,10,0:0:0:0:
136,156,17889,2,0,P|88:220|140:312,1,180,8|2,0:0|0:0,0:0:0:0:
240,336,19000,1,0,0:0:0:0:
316,244,19445,6,0,P|372:188|300:40,1,240,2|0,0:0|0:0,0:0:0:0:
208,76,20778,2,0,L|136:56,1,60,0|10,0:0|0:0,0:0:0:0:
92,44,21223,2,0,P|36:116|64:212,1,180,0|10,0:0|0:0,0:0:0:0:
136,284,22334,2,0,P|204:304|260:276,1,120,8|10,0:0|0:0,0:0:0:0:
356,232,23223,6,0,P|384:152|288:20,1,240,8|8,0:0|0:0,0:0:0:0:
196,72,24556,1,10,0:0:0:0:
76,56,25000,2,0,L|108:180,1,120,8|10,0:0|0:0,0:0:0:0:
20,256,25889,2,0,L|120:336,1,120,8|10,0:0|0:0,0:0:0:0:
232,332,26778,6,0,P|292:336|360:312,1,120,8|10,0:0|0:0,0:0:0:0:
456,268,27667,2,0,L|468:80,1,180,8|2,0:0|0:0,0:0:0:0:
256,192,29223,5,2,0:0:0:0:
256,192,29445,2,0,L|256:316,2,120,8|8|4,0:0|0:3|0:0,0:0:0:0:
152,128,30778,6,0,P|100:112|36:132,1,120,10|8,0:0|0:0,0:0:0:0:
38,250,31667,2,0,P|90:266|154:246,1,120,10|8,0:0|0:0,0:0:0:0:
256,192,32556,2,0,L|384:192,2,120,10|8|10,0:0|0:0|0:0,0:0:0:0:
316,88,33889,2,0,L|444:88,2,120,8|10|8,0:0|0:0|0:0,0:0:0:0:
195,88,35223,1,10,0:0:0:0:
100,164,35667,6,0,P|72:228|84:284,1,120,8|10,0:0|0:0,0:0:0:0:
172,352,36556,2,0,P|200:288|188:232,2,120,8|10|8,0:0|0:0|0:0,0:0:0:0:
51,352,37889,1,10,0:0:0:0:
32,232,38334,6,0,L|152:156,1,120,8|10,0:0|0:0,0:0:0:0:
60,72,39223,2,0,L|180:80,1,120,8|10,0:0|0:0,0:0:0:0:
300,88,40111,2,0,P|364:96|404:140,1,120,8|10,0:0|0:0,0:0:0:0:
484,224,41000,5,8,0:0:0:0:
404,316,41445,1,10,0:0:0:0:
328,224,41889,1,8,0:0:0:0:
256,316,42334,1,10,0:0:0:0:
256,316,42556,2,0,P|132:328|68:228,1,240,0|2,0:0|0:0,0:0:0:0:
68,184,43667,5,8,0:0:0:0:
152,100,44111,1,10,0:0:0:0:
256,160,44556,2,0,L|256:284,1,120,4|10,0:0|0:0,0:0:0:0:
368,324,45445,5,8,0:0:0:0:
452,240,45889,1,10,0:0:0:0:
448,120,46334,2,0,P|384:52|336:56,1,120,8|10,0:0|0:0,0:0:0:0:
256,108,47223,5,8,0:0:0:0:
152,52,47667,1,10,0:0:0:0:
48,112,48111,2,0,L|20:236,1,120,8|10,0:0|0:0,0:0:0:0:
76,336,49000,5,8,0:0:0:0:
184,280,49445,1,10,0:0:0:0:
184,280,49667,2,0,P|272:276|332:344,1,180,0|10,0:0|0:0,0:0:0:0:
452,348,50778,1,8,0:0:0:0:
420,232,51223,1,10,0:0:0:0:
392,116,51667,6,0,P|256:16|120:116,2,360.000013732911,4|4|8,0:0|0:1|0:0,0:0:0:0:
316,208,55667,5,10,0:0:0:0:
256,312,56111,1,8,0:0:0:0:
196,208,56556,1,10,0:0:0:0:
136,312,57000,2,0,P|88:272|76:212,1,120,8|8,0:0|0:3,0:0:0:0:
60,100,57889,6,0,L|299:69,1,240,2|4,0:0|0:0,0:0:0:0:
416,56,59223,1,10,0:0:0:0:
484,152,59667,1,8,0:0:0:0:
416,252,60111,1,10,0:0:0:0:
416,252,60334,2,0,P|352:304|256:284,1,180,0|10,0:0|0:0,0:0:0:0:
188,192,61445,5,8,0:0:0:0:
256,96,61889,1,10,0:0:0:0:
328,192,62334,2,0,P|320:256|268:300,1,120,8|10,0:0|0:0,0:0:0:0:
164,292,63223,1,8,0:0:0:0:
64,228,63667,1,10,0:0:0:0:
64,228,63889,2,0,P|52:136|124:72,1,180,0|10,0:0|0:0,0:0:0:0:
172,180,65000,6,0,L|296:180,1,120,8|10,0:0|0:0,0:0:0:0:
412,180,65889,1,8,0:0:0:0:
356,284,66334,2,0,P|304:312|232:296,1,120,10|8,0:0|0:0,0:0:0:0:
144,240,67223,1,10,0:0:0:0:
144,240,67445,2,0,P|112:164|128:112,2,120,0|2|0,0:0|0:0|0:0,0:0:0:0:
236,160,68778,1,2,0:0:0:0:
348,208,69223,6,0,P|352:132|280:48,1,180,0|10,0:0|0:0,0:0:0:0:
170,53,70334,1,8,0:0:0:0:
64,108,70778,2,0,L|40:176,1,60,10|8,0:0|0:0,0:0:0:0:
104,268,71445,2,0,L|80:336,1,60,0|10,0:0|0:0,0:0:0:0:
204,336,72111,5,8,0:0:0:0:
284,248,72556,1,10,0:0:0:0:
368,164,73000,2,0,P|342:101|296:80,1,120,4|10,0:0|0:0,0:0:0:0:
188,128,73889,1,8,0:0:0:0:
96,52,74334,1,10,0:0:0:0:
96,52,74556,2,0,P|71:132|112:217,1,180,0|10,0:0|0:0,0:0:0:0:
208,288,75667,6,0,L|324:332,1,120,8|10,0:0|0:0,0:0:0:0:
440,328,76556,2,0,P|480:268|472:196,1,120,8|10,0:0|0:0,0:0:0:0:
420,120,77445,1,8,0:0:0:0:
328,40,77889,1,10,0:0:0:0:
328,40,78111,2,0,L|140:56,1,180,0|10,0:0|0:0,0:0:0:0:
96,164,79223,6,0,L|236:152,1,120,8|10,0:0|0:0,0:0:0:0:
336,144,80111,1,8,0:0:0:0:
432,216,80556,1,10,0:0:0:0:
360,312,81000,1,8,0:0:0:0:
264,240,81445,1,10,0:0:0:0:
264,240,81667,2,0,P|200:248|160:284,2,120,0|2|0,0:0|0:0|0:0,0:0:0:0:
360,312,83000,5,2,0:0:0:0:
432,216,83445,2,0,P|424:120|344:60,1,180,8|10,0:0|0:0,0:0:0:0:
256,120,84556,1,8,0:0:0:0:
146,66,85000,1,10,0:0:0:0:
146,66,85223,6,0,P|88:120|112:268,1,240,4|2,0:0|0:0,0:0:0:0:
196,180,86556,1,2,0:0:0:0:
256,284,87000,1,4,0:1:0:0:
256,192,87223,12,2,88556,0:0:0:0:
