osu file format v14

[General]
AudioFilename: ClariS - Irony.mp3
AudioLeadIn: 0
PreviewTime: 51258
Countdown: 0
SampleSet: Normal
StackLeniency: 0.7
Mode: 1
LetterboxInBreaks: 0
WidescreenStoryboard: 0

[Editor]
Bookmarks: 15885,23049,37377,80362
DistanceSpacing: 0.8
BeatDivisor: 4
GridSize: 32
TimelineZoom: 1

[Metadata]
Title:irony -TV Mix-
TitleUnicode:irony -TV Mix-
Artist:ClariS
ArtistUnicode:ClariS
Creator:Leader
Version:Muzukashii
Source:俺の妹がこんなに可愛いわけがない
Tags:Ore no Imouto ga Konna ni Kawaii Wake ga nai oreimo
BeatmapID:343319
BeatmapSetID:137348

[Difficulty]
HPDrainRate:5
CircleSize:5
OverallDifficulty:5
ApproachRate:5
SliderMultiplier:1.4
SliderTickRate:1

[Events]
//Background and Video events
0,0,"i feel guilty.png",0,0
//Break Periods
//Storyboard Layer 0 (Background)
//Storyboard Layer 1 (Fail)
//Storyboard Layer 2 (Pass)
//Storyboard Layer 3 (Foreground)
//Storyboard Sound Samples

[TimingPoints]
1557,447.761194029851,4,1,0,80,1,0
51706,-100,4,1,0,80,0,1
80362,-100,4,1,0,80,0,0

[HitObjects]
256,192,1556,5,0,0:0:0:0:
256,192,2004,1,2,0:0:0:0:
256,192,2228,1,0,0:0:0:0:
256,192,2676,1,2,0:0:0:0:
256,192,3124,1,0,0:0:0:0:
256,192,3795,1,2,0:0:0:0:
256,192,4243,1,0,0:0:0:0:
256,192,4691,1,2,0:0:0:0:
256,192,4915,1,0,0:0:0:0:
256,192,5139,1,2,0:0:0:0:
256,192,5586,1,0,0:0:0:0:
256,192,5810,1,2,0:0:0:0:
256,192,6258,1,0,0:0:0:0:
256,192,6482,1,2,0:0:0:0:
256,192,6706,1,2,0:0:0:0:
256,192,7377,1,2,0:0:0:0:
256,192,7825,1,0,0:0:0:0:
256,192,8273,1,0,0:0:0:0:
256,192,8497,1,2,0:0:0:0:
256,192,8721,1,2,0:0:0:0:
256,192,9168,1,2,0:0:0:0:
256,192,9392,1,0,0:0:0:0:
256,192,9840,1,0,0:0:0:0:
256,192,10288,1,2,0:0:0:0:
256,192,10959,1,2,0:0:0:0:
256,192,11183,1,0,0:0:0:0:
256,192,11631,1,2,0:0:0:0:
256,192,11855,1,0,0:0:0:0:
256,192,12079,1,2,0:0:0:0:
256,192,12303,1,0,0:0:0:0:
256,192,12974,1,0,0:0:0:0:
256,192,13422,1,0,0:0:0:0:
256,192,13646,1,2,0:0:0:0:
256,192,13870,1,2,0:0:0:0:
256,192,14318,1,0,0:0:0:0:
256,192,14765,1,2,0:0:0:0:
256,192,15213,1,0,0:0:0:0:
256,192,15661,1,2,0:0:0:0:
256,192,15885,1,4,0:0:0:0:
256,192,16557,1,0,0:0:0:0:
256,192,16780,1,2,0:0:0:0:
256,192,17228,1,0,0:0:0:0:
256,192,17452,1,2,0:0:0:0:
256,192,17900,1,0,0:0:0:0:
256,192,18124,1,0,0:0:0:0:
256,192,18348,1,2,0:0:0:0:
256,192,18795,1,2,0:0:0:0:
256,192,19019,1,0,0:0:0:0:
256,192,19243,1,0,0:0:0:0:
256,192,19467,1,2,0:0:0:0:
256,192,19691,1,0,0:0:0:0:
256,192,19915,1,2,0:0:0:0:
256,192,20362,1,2,0:0:0:0:
256,192,20586,1,2,0:0:0:0:
256,192,21034,1,2,0:0:0:0:
256,192,21258,1,2,0:0:0:0:
256,192,21482,1,0,0:0:0:0:
256,192,21930,1,2,0:0:0:0:
256,192,22154,1,2,0:0:0:0:
256,192,22377,1,0,0:0:0:0:
256,192,22489,1,0,0:0:0:0:
256,192,22601,1,0,0:0:0:0:
256,192,22825,1,2,0:0:0:0:
256,192,23049,1,4,0:0:0:0:
256,192,23497,1,2,0:0:0:0:
256,192,23945,1,2,0:0:0:0:
256,192,24168,1,2,0:0:0:0:
256,192,24392,1,0,0:0:0:0:
256,192,24616,1,2,0:0:0:0:
256,192,24840,1,0,0:0:0:0:
256,192,25512,1,2,0:0:0:0:
256,192,25736,1,0,0:0:0:0:
256,192,25959,1,2,0:0:0:0:
256,192,26183,1,0,0:0:0:0:
256,192,26407,1,2,0:0:0:0:
256,192,26631,1,2,0:0:0:0:
256,192,27079,1,2,0:0:0:0:
256,192,27303,1,2,0:0:0:0:
256,192,27751,1,0,0:0:0:0:
256,192,28198,1,2,0:0:0:0:
256,192,28646,1,0,0:0:0:0:
256,192,29094,1,2,0:0:0:0:
256,192,29542,1,2,0:0:0:0:
256,192,29765,1,0,0:0:0:0:
256,192,29989,1,2,0:0:0:0:
256,192,30213,1,0,0:0:0:0:
256,192,30661,1,0,0:0:0:0:
256,192,30885,1,2,0:0:0:0:
256,192,30997,1,2,0:0:0:0:
256,192,31109,1,2,0:0:0:0:
256,192,31333,1,2,0:0:0:0:
256,192,31557,1,0,0:0:0:0:
256,192,31780,1,2,0:0:0:0:
256,192,32004,1,0,0:0:0:0:
256,192,32676,1,2,0:0:0:0:
256,192,32900,1,0,0:0:0:0:
256,192,33124,1,2,0:0:0:0:
256,192,33348,1,2,0:0:0:0:
256,192,33571,1,2,0:0:0:0:
256,192,33795,1,0,0:0:0:0:
256,192,34243,1,0,0:0:0:0:
256,192,34467,1,2,0:0:0:0:
256,192,34915,1,2,0:0:0:0:
256,192,35139,1,0,0:0:0:0:
256,192,35362,1,2,0:0:0:0:
256,192,35810,1,2,0:0:0:0:
256,192,36258,1,2,0:0:0:0:
256,192,36706,1,2,0:0:0:0:
256,192,36930,1,0,0:0:0:0:
256,192,37154,1,0,0:0:0:0:
256,192,37377,1,6,0:0:0:0:
256,192,38049,1,0,0:0:0:0:
256,192,38273,1,2,0:0:0:0:
256,192,38945,1,2,0:0:0:0:
256,192,39168,1,0,0:0:0:0:
256,192,39616,1,2,0:0:0:0:
256,192,40064,1,2,0:0:0:0:
256,192,40512,1,2,0:0:0:0:
256,192,40959,1,0,0:0:0:0:
256,192,41631,1,2,0:0:0:0:
256,192,41855,1,2,0:0:0:0:
256,192,42079,1,0,0:0:0:0:
256,192,42303,1,0,0:0:0:0:
256,192,42527,1,0,0:0:0:0:
256,192,42974,1,0,0:0:0:0:
256,192,43198,1,2,0:0:0:0:
256,192,43422,1,2,0:0:0:0:
256,192,43646,1,0,0:0:0:0:
256,192,44094,1,0,0:0:0:0:
256,192,44318,1,0,0:0:0:0:
256,192,44542,1,2,0:0:0:0:
256,192,45213,1,0,0:0:0:0:
256,192,45437,1,2,0:0:0:0:
256,192,45885,1,2,0:0:0:0:
256,192,46109,1,2,0:0:0:0:
256,192,46557,1,2,0:0:0:0:
256,192,46780,1,0,0:0:0:0:
256,192,47004,1,2,0:0:0:0:
256,192,47676,1,0,0:0:0:0:
256,192,47900,1,2,0:0:0:0:
256,192,48124,1,0,0:0:0:0:
256,192,48571,1,2,0:0:0:0:
256,192,48795,1,2,0:0:0:0:
256,192,49243,1,2,0:0:0:0:
256,192,49691,1,0,0:0:0:0:
256,192,49915,12,0,51258,0:0:0:0:
256,192,51706,5,4,0:0:0:0:
256,192,52154,1,0,0:0:0:0:
256,192,52377,1,2,0:0:0:0:
256,192,52825,1,0,0:0:0:0:
256,192,53049,1,2,0:0:0:0:
256,192,53273,1,0,0:0:0:0:
256,192,53721,1,2,0:0:0:0:
256,192,53945,1,0,0:0:0:0:
256,192,54168,1,0,0:0:0:0:
256,192,54392,1,2,0:0:0:0:
256,192,54840,1,2,0:0:0:0:
256,192,55064,1,0,0:0:0:0:
256,192,55288,1,2,0:0:0:0:
256,192,55736,1,2,0:0:0:0:
256,192,55959,1,2,0:0:0:0:
256,192,56407,1,2,0:0:0:0:
256,192,56631,1,0,0:0:0:0:
256,192,56855,1,2,0:0:0:0:
256,192,56967,1,2,0:0:0:0:
256,192,57079,1,2,0:0:0:0:
256,192,57303,1,2,0:0:0:0:
256,192,57527,1,0,0:0:0:0:
256,192,57751,1,2,0:0:0:0:
256,192,57974,1,2,0:0:0:0:
256,192,58422,1,0,0:0:0:0:
256,192,58646,1,2,0:0:0:0:
256,192,58870,1,2,0:0:0:0:
256,192,59318,1,2,0:0:0:0:
256,192,59542,1,0,0:0:0:0:
256,192,59989,1,2,0:0:0:0:
256,192,60213,1,0,0:0:0:0:
256,192,60437,1,0,0:0:0:0:
256,192,60885,1,0,0:0:0:0:
256,192,61109,1,2,0:0:0:0:
256,192,61333,1,0,0:0:0:0:
256,192,61780,1,0,0:0:0:0:
256,192,62004,1,2,0:0:0:0:
256,192,62228,1,2,0:0:0:0:
256,192,62452,1,0,0:0:0:0:
256,192,62900,1,0,0:0:0:0:
256,192,63124,1,2,0:0:0:0:
256,192,63571,1,2,0:0:0:0:
256,192,64019,1,2,0:0:0:0:
256,192,64467,1,2,0:0:0:0:
256,192,64915,1,2,0:0:0:0:
256,192,65139,1,0,0:0:0:0:
256,192,65362,1,2,0:0:0:0:
256,192,65474,1,2,0:0:0:0:
256,192,65586,1,2,0:0:0:0:
256,192,65810,1,2,0:0:0:0:
256,192,66034,1,4,0:0:0:0:
256,192,66482,1,2,0:0:0:0:
256,192,66706,1,2,0:0:0:0:
256,192,67154,1,2,0:0:0:0:
256,192,67377,1,0,0:0:0:0:
256,192,67601,1,2,0:0:0:0:
256,192,68049,1,0,0:0:0:0:
256,192,68273,1,2,0:0:0:0:
256,192,68497,1,0,0:0:0:0:
256,192,68721,1,0,0:0:0:0:
256,192,69168,1,0,0:0:0:0:
256,192,69392,1,2,0:0:0:0:
256,192,69616,1,2,0:0:0:0:
256,192,70064,1,2,0:0:0:0:
256,192,70288,1,2,0:0:0:0:
256,192,70736,1,2,0:0:0:0:
256,192,70959,1,0,0:0:0:0:
256,192,71183,1,0,0:0:0:0:
256,192,71295,1,0,0:0:0:0:
256,192,71407,1,0,0:0:0:0:
256,192,71631,1,2,0:0:0:0:
256,192,71855,1,0,0:0:0:0:
256,192,72079,1,2,0:0:0:0:
256,192,72303,1,2,0:0:0:0:
256,192,72751,1,2,0:0:0:0:
256,192,72974,1,2,0:0:0:0:
256,192,73198,1,0,0:0:0:0:
256,192,73646,1,0,0:0:0:0:
256,192,73870,1,2,0:0:0:0:
256,192,74318,1,2,0:0:0:0:
256,192,74542,1,0,0:0:0:0:
256,192,74765,1,2,0:0:0:0:
256,192,75213,1,0,0:0:0:0:
256,192,75437,1,2,0:0:0:0:
256,192,75661,1,0,0:0:0:0:
256,192,76109,1,2,0:0:0:0:
256,192,76333,1,2,0:0:0:0:
256,192,76557,1,0,0:0:0:0:
256,192,76780,1,0,0:0:0:0:
256,192,77228,1,0,0:0:0:0:
256,192,77452,1,2,0:0:0:0:
256,192,77900,1,0,0:0:0:0:
256,192,78124,1,0,0:0:0:0:
256,192,78348,1,6,0:0:0:0:
256,192,78795,1,4,0:0:0:0:
256,192,79243,1,6,0:0:0:0:
256,192,79691,1,4,0:0:0:0:
256,192,80139,1,2,0:0:0:0:
256,192,80362,1,4,0:0:0:0:
256,192,80810,1,0,0:0:0:0:
256,192,81034,1,0,0:0:0:0:
256,192,81258,1,2,0:0:0:0:
256,192,81482,1,2,0:0:0:0:
256,192,81706,1,0,0:0:0:0:
256,192,81930,1,2,0:0:0:0:
256,192,82154,1,0,0:0:0:0:
256,192,82601,1,0,0:0:0:0:
256,192,82825,1,2,0:0:0:0:
256,192,82937,1,2,0:0:0:0:
256,192,83049,1,2,0:0:0:0:
256,192,83273,1,2,0:0:0:0:
256,192,83497,1,2,0:0:0:0:
256,192,83721,1,0,0:0:0:0:
256,192,83945,1,2,0:0:0:0:
256,192,84392,1,2,0:0:0:0:
256,192,84616,1,0,0:0:0:0:
256,192,84840,1,2,0:0:0:0:
256,192,85064,1,2,0:0:0:0:
256,192,85512,1,2,0:0:0:0:
256,192,85959,5,0,0:0:0:0:
256,192,86407,1,2,0:0:0:0:
256,192,86631,1,2,0:0:0:0:
256,192,86855,1,0,0:0:0:0:
256,192,86967,1,0,0:0:0:0:
256,192,87079,1,0,0:0:0:0:
256,192,87303,1,0,0:0:0:0:
256,192,87527,1,6,0:0:0:0:
