osu file format v14

[General]
AudioFilename: ClariS - Irony.mp3
AudioLeadIn: 0
PreviewTime: 51258
Countdown: 0
SampleSet: Normal
StackLeniency: 0.7
Mode: 1
LetterboxInBreaks: 0
WidescreenStoryboard: 0

[Editor]
Bookmarks: 15885,23049,37377,80362
DistanceSpacing: 0.8
BeatDivisor: 2
GridSize: 32
TimelineZoom: 0.6999999

[Metadata]
Title:irony -TV Mix-
TitleUnicode:irony -TV Mix-
Artist:ClariS
ArtistUnicode:ClariS
Creator:Leader
Version:Kantan
Source:俺の妹がこんなに可愛いわけがない
Tags:Ore no Imouto ga Konna ni Kawaii Wake ga nai oreimo
BeatmapID:343318
BeatmapSetID:137348

[Difficulty]
HPDrainRate:3
CircleSize:5
OverallDifficulty:3
ApproachRate:5
SliderMultiplier:1.4
SliderTickRate:1

[Events]
//Background and Video events
0,0,"i feel guilty.png",0,0
//Break Periods
//Storyboard Layer 0 (Background)
//Storyboard Layer 1 (Fail)
//Storyboard Layer 2 (Pass)
//Storyboard Layer 3 (Foreground)
//Storyboard Sound Samples

[TimingPoints]
1557,447.761194029851,4,1,0,80,1,0
51706,-100,4,1,0,80,0,1
80362,-100,4,1,0,80,0,0

[HitObjects]
256,192,1557,5,2,0:0:0:0:
256,192,3124,1,0,0:0:0:0:
256,192,4243,1,0,0:0:0:0:
256,192,5139,1,2,0:0:0:0:
256,192,6706,1,0,0:0:0:0:
256,192,7825,1,0,0:0:0:0:
256,192,8721,1,2,0:0:0:0:
256,192,10288,1,0,0:0:0:0:
256,192,11855,1,2,0:0:0:0:
256,192,12303,1,2,0:0:0:0:
256,192,12974,1,0,0:0:0:0:
256,192,13422,12,0,15213,0:0:0:0:
256,192,15885,5,4,0:0:0:0:
256,192,16780,1,0,0:0:0:0:
256,192,17452,1,2,0:0:0:0:
256,192,18348,1,0,0:0:0:0:
256,192,19467,1,0,0:0:0:0:
256,192,20362,1,2,0:0:0:0:
256,192,21034,1,0,0:0:0:0:
256,192,21930,1,2,0:0:0:0:
256,192,23049,1,4,0:0:0:0:
256,192,23945,1,0,0:0:0:0:
256,192,24616,1,2,0:0:0:0:
256,192,25736,1,0,0:0:0:0:
256,192,26183,1,2,0:0:0:0:
256,192,26631,1,2,0:0:0:0:
256,192,27527,1,0,0:0:0:0:
256,192,28422,1,0,0:0:0:0:
256,192,29318,1,0,0:0:0:0:
256,192,29765,1,2,0:0:0:0:
256,192,30213,1,0,0:0:0:0:
256,192,31109,1,0,0:0:0:0:
256,192,31780,1,2,0:0:0:0:
256,192,32900,1,0,0:0:0:0:
256,192,33348,1,0,0:0:0:0:
256,192,33795,1,2,0:0:0:0:
256,192,34691,1,0,0:0:0:0:
256,192,35586,1,2,0:0:0:0:
256,192,36034,1,2,0:0:0:0:
256,192,36482,1,0,0:0:0:0:
256,192,37377,1,4,0:0:0:0:
256,192,39168,1,0,0:0:0:0:
256,192,40064,1,2,0:0:0:0:
256,192,40512,1,2,0:0:0:0:
256,192,40959,1,0,0:0:0:0:
256,192,41855,1,2,0:0:0:0:
256,192,42751,1,0,0:0:0:0:
256,192,43646,1,0,0:0:0:0:
256,192,44542,1,0,0:0:0:0:
256,192,45437,1,2,0:0:0:0:
256,192,46333,1,0,0:0:0:0:
256,192,47228,1,2,0:0:0:0:
256,192,47676,5,2,0:0:0:0:
256,192,48124,1,0,0:0:0:0:
256,192,48571,1,0,0:0:0:0:
256,192,49019,1,0,0:0:0:0:
256,192,49691,12,0,51258,0:0:0:0:
256,192,51706,5,4,0:0:0:0:
256,192,53273,1,0,0:0:0:0:
256,192,54392,1,2,0:0:0:0:
256,192,54840,1,0,0:0:0:0:
256,192,55288,1,2,0:0:0:0:
256,192,56407,1,0,0:0:0:0:
256,192,56855,1,0,0:0:0:0:
256,192,57974,1,2,0:0:0:0:
256,192,58422,1,0,0:0:0:0:
256,192,58870,1,0,0:0:0:0:
256,192,60437,1,2,0:0:0:0:
256,192,61333,1,2,0:0:0:0:
256,192,62452,1,0,0:0:0:0:
256,192,63348,1,2,0:0:0:0:
256,192,64243,1,2,0:0:0:0:
256,192,65139,1,0,0:0:0:0:
256,192,65586,1,0,0:0:0:0:
256,192,66034,1,4,0:0:0:0:
256,192,67601,1,0,0:0:0:0:
256,192,68721,1,2,0:0:0:0:
256,192,69616,1,0,0:0:0:0:
256,192,70736,1,2,0:0:0:0:
256,192,71183,1,2,0:0:0:0:
256,192,72303,1,0,0:0:0:0:
256,192,72751,1,2,0:0:0:0:
256,192,73198,1,0,0:0:0:0:
256,192,74765,1,0,0:0:0:0:
256,192,75661,1,2,0:0:0:0:
256,192,76780,1,0,0:0:0:0:
256,192,78348,1,4,0:0:0:0:
256,192,79243,1,4,0:0:0:0:
256,192,80362,5,6,0:0:0:0:
256,192,81258,1,0,0:0:0:0:
256,192,81930,1,2,0:0:0:0:
256,192,82825,1,0,0:0:0:0:
256,192,83945,1,0,0:0:0:0:
256,192,84840,1,2,0:0:0:0:
256,192,85512,1,0,0:0:0:0:
256,192,86407,1,0,0:0:0:0:
256,192,87527,1,6,0:0:0:0:
