osu file format v14

[General]
AudioFilename: Wake Up -Tv Size-.mp3
AudioLeadIn: 1200
PreviewTime: 50610
Countdown: 0
SampleSet: Soft
StackLeniency: 0.7
Mode: 0
LetterboxInBreaks: 0
WidescreenStoryboard: 0

[Editor]
Bookmarks: 610,7882,15155,22428,36973,44246
DistanceSpacing: 1
BeatDivisor: 2
GridSize: 4
TimelineZoom: 0.9000001

[Metadata]
Title:Wake Up -TV MIX-
TitleUnicode:Wake Up -TV MIX-
Artist:ClariS
ArtistUnicode:ClariS
Creator:Doyak
Version:NeoSL's Easy
Source:もやしもん リターンズ
Tags:moyashimon returns moyasimon tales of agriculture nyu-chan inyuschan pho neoskylove
BeatmapID:966308
BeatmapSetID:450393

[Difficulty]
HPDrainRate:2
CircleSize:3
OverallDifficulty:2
ApproachRate:3
SliderMultiplier:0.899999999999999
SliderTickRate:1

[Events]
//Background and Video events
0,0,"wallpaper01_1024.JPG",0,0
Video,0,"Wake Up.avi"
//Break Periods
//Storyboard Layer 0 (Background)
//Storyboard Layer 1 (Fail)
//Storyboard Layer 2 (Pass)
//Storyboard Layer 3 (Foreground)
//Storyboard Sound Samples

[TimingPoints]
610,454.545454545455,4,2,1,45,1,0
7882,-100,4,2,1,35,0,0
22428,-100,4,2,1,50,0,0
36973,-100,4,2,1,30,0,0
44246,-100,4,2,1,50,0,0
51519,-100,4,2,1,65,0,1
65155,-100,4,2,1,65,0,0
66064,-100,4,2,1,65,0,1
80610,-100,4,2,1,50,0,0
87428,-100,4,2,1,40,0,0
87882,-100,4,2,1,30,0,0
88337,-100,4,2,1,20,0,0
88791,-100,4,2,1,10,0,0
89246,-100,4,2,1,5,0,0

[Colours]
Combo1 : 255,153,0
Combo2 : 190,186,12
Combo3 : 218,34,238
Combo4 : 47,255,120

[HitObjects]
225,161,610,6,0,P|268:152|312:162,1,89.9999999999999,6|8,0:0|0:0,0:0:0:0:
387,211,1519,2,0,P|450:228|512:205,2,135,2|2|8,0:0|0:0|0:0,0:0:0:0:
312,162,3337,2,0,P|268:152|224:160,1,89.9999999999999,2|8,0:0|0:0,0:0:0:0:
171,232,4246,6,0,P|127:240|83:230,1,89.9999999999999,2|8,3:0|0:0,0:0:0:0:
1,192,5155,2,0,L|1:327,2,135,2|2|8,0:0|0:0|0:0,0:0:0:0:
9,102,6973,1,2,0:0:0:0:
90,140,7428,1,8,0:0:0:0:
107,51,7882,6,0,L|198:51,1,89.9999999999999,6|8,1:3|0:0,0:0:0:0:
284,73,8791,2,0,L|419:73,2,135,2|2|8,0:0|0:0|0:0,0:0:0:0:
321,155,10610,2,0,L|411:155,1,89.9999999999999,2|8,0:0|0:0,0:0:0:0:
423,244,11519,6,0,L|324:244,1,89.9999999999999,6|8,1:3|0:0,0:0:0:0:
354,332,12428,2,0,L|489:332,2,135,2|2|8,0:0|0:0|0:0,0:0:0:0:
268,306,14246,1,2,0:0:0:0:
214,378,14700,1,8,0:0:0:0:
126,358,15155,6,0,P|115:314|129:272,1,89.9999999999999,6|8,1:3|0:0,0:0:0:0:
172,194,16064,2,0,B|104:183|104:183|31:193,2,135,2|2|8,0:0|0:0|0:0,0:0:0:0:
262,202,17882,2,0,L|262:112,1,89.9999999999999,2|8,0:0|0:0,0:0:0:0:
301,31,18791,6,0,B|412:36|412:36|433:26,2,135,6|2|8,1:3|0:0|0:0,0:0:0:0:
262,112,20610,2,0,L|262:207,1,89.9999999999999,2|8,0:0|0:0,0:0:0:0:
335,255,21519,1,2,0:0:0:0:
282,328,21973,1,8,0:0:0:0:
210,275,22428,6,0,L|120:275,1,89.9999999999999,6|8,1:3|0:0,0:0:0:0:
56,212,23337,2,0,L|56:122,1,89.9999999999999,2|8,0:0|0:0,0:0:0:0:
119,59,24246,2,0,L|209:59,1,89.9999999999999,2|8,0:0|0:0,0:0:0:0:
274,121,25155,1,2,0:0:0:0:
345,66,25610,1,8,0:0:0:0:
431,83,26064,6,0,P|438:128|431:172,1,89.9999999999999,6|8,1:3|0:0,0:0:0:0:
362,230,26973,2,0,P|317:236|273:229,1,89.9999999999999,2|8,0:0|0:0,0:0:0:0:
201,175,27882,2,0,P|156:181|112:175,2,89.9999999999999,2|8|2,0:0|0:0|0:0,0:0:0:0:
274,121,29246,1,8,0:0:0:0:
348,70,29700,6,0,P|391:61|435:71,1,89.9999999999999,6|8,1:3|0:0,0:0:0:0:
494,139,30610,2,0,P|502:182|492:226,1,89.9999999999999,2|8,0:0|0:0,0:0:0:0:
427,288,31519,2,0,P|383:296|339:286,1,89.9999999999999,2|8,0:0|0:0,0:0:0:0:
260,243,32428,1,2,0:0:0:0:
173,267,32882,1,8,0:0:0:0:
113,199,33337,6,0,P|83:257|100:321,2,135,6|2|8,1:3|0:0|0:0,0:0:0:0:
192,157,35155,2,0,L|192:67,1,89.9999999999999,2|8,0:0|0:0,0:0:0:0:
267,17,36064,1,2,0:0:0:0:
348,56,36519,1,8,0:0:0:0:
434,31,36973,6,0,B|467:80|467:80|466:203,1,180,6|8,1:3|0:0,0:0:0:0:
388,246,38337,1,0,0:0:0:0:
466,289,38791,2,0,P|392:335|314:299,1,180,0|8,0:0|0:0,0:0:0:0:
256,230,40155,1,0,0:0:0:0:
182,282,40610,6,0,P|138:291|96:277,1,89.9999999999999
67,193,41519,2,0,L|68:96,1,89.9999999999999,8|0,0:0|0:0,0:0:0:0:
132,40,42428,2,0,L|317:40,1,180,2|8,0:0|0:0,0:0:0:0:
388,87,43791,1,0,0:0:0:0:
352,169,44246,6,0,L|353:263,1,89.9999999999999,6|0,1:3|0:0,0:0:0:0:
266,233,45155,2,0,L|265:143,1,89.9999999999999,8|0,0:0|0:0,0:0:0:0:
247,55,46064,2,0,L|145:55,1,89.9999999999999,2|0,0:0|0:0,0:0:0:0:
72,85,46973,2,0,L|72:187,1,89.9999999999999,8|0,0:0|0:0,0:0:0:0:
111,256,47882,6,0,P|153:268|197:259,1,89.9999999999999,6|0,1:3|0:0,0:0:0:0:
215,346,48791,2,0,P|148:358|84:340,2,135,2|2|8,0:0|0:0|0:0,0:0:0:0:
197,259,50610,1,4,0:0:0:0:
214,170,51064,1,4,0:0:0:0:
282,229,51519,6,0,P|326:236|369:227,1,89.9999999999999,6|8,1:2|0:0,0:0:0:0:
423,154,52428,2,0,P|430:110|421:67,1,89.9999999999999,2|8,0:0|0:0,0:0:0:0:
348,14,53337,2,0,P|304:7|261:16,1,89.9999999999999,2|8,0:0|0:0,0:0:0:0:
203,86,54246,1,0,0:0:0:0:
113,88,54700,1,8,0:0:0:0:
54,156,55155,6,0,L|54:266,1,89.9999999999999,6|8,1:2|0:0,0:0:0:0:
116,310,56064,2,0,L|226:310,1,89.9999999999999,2|8,0:0|0:0,0:0:0:0:
273,250,56973,2,0,L|383:250,1,89.9999999999999,2|8,0:0|0:0,0:0:0:0:
434,195,57882,1,2,0:0:0:0:
445,105,58337,1,8,0:0:0:0:
365,62,58791,6,0,L|275:62,1,89.9999999999999,6|8,1:2|0:0,0:0:0:0:
187,41,59700,2,0,L|97:41,1,89.9999999999999,2|8,0:0|0:0,0:0:0:0:
95,131,60610,2,0,L|185:131,1,89.9999999999999,2|8,0:0|0:0,0:0:0:0:
268,165,61519,1,2,0:0:0:0:
215,237,61973,1,8,0:0:0:0:
295,277,62428,6,0,B|361:292|361:292|432:279,2,135,6|2|8,1:3|0:0|0:0,0:0:0:0:
215,237,64246,2,0,B|171:248|171:248|127:238,1,89.9999999999999,4|4,0:0|0:0,0:0:0:0:
69,170,65155,1,4,0:0:0:0:
148,127,65610,1,4,0:0:0:0:
208,59,66064,6,0,P|251:51|295:62,1,89.9999999999999,6|8,1:2|0:0,0:0:0:0:
358,126,66973,2,0,P|401:117|445:128,1,89.9999999999999,2|8,0:0|0:0,0:0:0:0:
445,218,67882,2,0,P|401:226|357:215,1,89.9999999999999,2|8,0:0|0:0,0:0:0:0:
279,171,68791,1,2,0:0:0:0:
222,241,69246,1,8,0:0:0:0:
148,190,69700,6,0,P|135:148|146:105,1,89.9999999999999,6|8,1:2|0:0,0:0:0:0:
210,41,70610,2,0,L|304:39,1,89.9999999999999,2|8,0:0|0:0,0:0:0:0:
323,126,71519,2,0,L|233:127,1,89.9999999999999,2|8,0:0|0:0,0:0:0:0:
146,105,72428,2,0,P|135:148|148:190,1,89.9999999999999,2|8,0:0|0:0,0:0:0:0:
223,243,73337,6,0,P|236:285|225:328,1,89.9999999999999,2|8,1:2|0:0,0:0:0:0:
149,378,74246,2,0,L|59:378,1,89.9999999999999,2|8,0:0|0:0,0:0:0:0:
54,288,75155,2,0,L|144:288,1,89.9999999999999,2|8,0:0|0:0,0:0:0:0:
225,328,76064,2,0,L|315:328,1,89.9999999999999,2|8,0:0|0:0,0:0:0:0:
403,343,76973,6,0,B|432:321|432:321|432:222,1,135,4|4,0:0|0:0,0:0:0:0:
367,54,78564,2,0,B|293:74|293:74|191:54,1,180,4|4,0:0|0:0,0:0:0:0:
62,92,80155,1,0,3:0:0:0:
108,169,80610,6,0,L|108:259,1,89.9999999999999,6|8,0:0|0:0,0:0:0:0:
172,322,81519,2,0,P|107:348|43:322,2,135,2|2|8,0:0|0:0|0:0,0:0:0:0:
218,244,83337,2,0,L|218:154,1,89.9999999999999,2|8,0:0|0:0,0:0:0:0:
297,111,84246,5,6,0:0:0:0:
368,165,84700,1,8,0:0:0:0:
453,135,85155,2,0,L|457:0,2,135,6|6|12,0:0|0:0|0:0,0:0:0:0:
440,224,86973,1,4,0:0:0:0:
256,192,87200,12,0,89246,0:0:0:0:
