osu file format v14

[General]
AudioFilename: Wake Up -Tv Size-.mp3
AudioLeadIn: 1200
PreviewTime: 50610
Countdown: 0
SampleSet: Soft
StackLeniency: 0.4
Mode: 0
LetterboxInBreaks: 0
WidescreenStoryboard: 0

[Editor]
Bookmarks: 7882,22428,29700,36973
DistanceSpacing: 1.4
BeatDivisor: 4
GridSize: 4
TimelineZoom: 0.9

[Metadata]
Title:Wake Up -TV MIX-
TitleUnicode:Wake Up -TV MIX-
Artist:ClariS
ArtistUnicode:ClariS
Creator:Doyak
Version:Insane
Source:もやしもん リターンズ
Tags:moyashimon returns moyasimon tales of agriculture nyu-chan inyuschan pho neoskylove
BeatmapID:966307
BeatmapSetID:450393

[Difficulty]
HPDrainRate:6.5
CircleSize:4
OverallDifficulty:7
ApproachRate:8
SliderMultiplier:1.8
SliderTickRate:1

[Events]
//Background and Video events
0,0,"wallpaper01_1024.JPG",0,0
Video,0,"Wake Up.avi"
//Break Periods
//Storyboard Layer 0 (Background)
//Storyboard Layer 1 (Fail)
//Storyboard Layer 2 (Pass)
//Storyboard Layer 3 (Foreground)
//Storyboard Sound Samples

[TimingPoints]
610,454.545454545455,4,2,1,60,1,0
7882,-117.647058823529,4,2,1,45,0,0
22428,-100,4,2,1,60,0,0
36973,-100,4,2,1,45,0,0
44246,-100,4,2,1,55,0,0
46064,-100,4,2,1,65,0,0
47882,-100,4,2,1,75,0,0
48791,-100,4,2,1,80,0,0
49473,-100,4,2,1,85,0,0
49814,-100,4,2,1,5,0,0
49928,-100,4,2,1,75,0,0
50610,-200,4,2,1,75,0,0
51519,-86.9565217391304,4,2,1,75,0,1
65155,-86.9565217391304,4,2,1,75,0,0
66064,-86.9565217391304,4,2,1,75,0,1
80610,-100,4,2,1,60,0,0
87428,-100,4,2,1,50,0,0
87882,-100,4,2,1,40,0,0
88337,-100,4,2,1,30,0,0
88791,-100,4,2,1,20,0,0
89246,-100,4,2,1,5,0,0

[Colours]
Combo1 : 255,153,0
Combo2 : 190,186,12
Combo3 : 218,34,238
Combo4 : 47,255,120

[HitObjects]
248,144,610,6,0,P|207:125|163:125,1,90,6|0,0:0|0:0,0:0:0:0:
182,251,1064,2,0,P|222:269|267:270,1,90,2|0,0:0|0:0,0:0:0:0:
391,246,1519,2,0,L|376:334,2,90,2|0|0,0:0|0:0|0:0,0:0:0:0:
493,65,2200,6,0,P|492:110|473:151,1,90,2|0,0:0|0:0,0:0:0:0:
348,273,2655,1,2,0:0:0:0:
326,112,2882,1,0,0:0:0:0:
412,219,3110,1,0,0:0:0:0:
412,219,3223,1,0,0:0:0:0:
412,219,3337,2,0,P|453:238|518:234,1,90,2|0,0:0|0:0,0:0:0:0:
281,177,3791,2,0,P|236:178|195:197,1,90,2|0,0:0|0:0,0:0:0:0:
56,365,4246,5,4,1:2:0:0:
77,241,4473,1,0,0:0:0:0:
174,320,4700,1,2,0:0:0:0:
56,365,4928,1,0,0:0:0:0:
195,196,5155,5,4,1:2:0:0:
292,275,5382,1,0,0:0:0:0:
174,320,5610,1,2,0:0:0:0:
96,117,5837,6,0,P|128:86|170:70,1,90,4|0,1:2|0:0,0:0:0:0:
288,112,6291,1,0,0:0:0:0:
314,235,6519,1,2,0:0:0:0:
195,196,6746,1,2,0:0:0:0:
195,196,6860,1,2,0:0:0:0:
195,196,6973,1,2,0:0:0:0:
380,152,7200,1,2,0:3:0:0:
415,156,7314,1,4,0:3:0:0:
450,160,7428,1,2,0:3:0:0:
316,323,7655,1,8,0:3:0:0:
195,196,7882,5,4,0:3:0:0:
195,196,8110,2,0,P|157:186|119:185,1,76.5000014591217,0|2,0:0|0:0,0:0:0:0:
38,255,8564,1,0,0:0:0:0:
30,74,8791,2,0,L|16:159,1,76.5000014591217,2|0,0:0|0:0,0:0:0:0:
38,255,9246,1,0,0:0:0:0:
195,196,9473,6,0,P|277:202|273:270,1,153.000002918243,2|0,0:0|0:0,0:0:0:0:
221,347,10155,1,2,0:0:0:0:
133,285,10382,1,0,0:0:0:0:
133,285,10496,1,0,0:0:0:0:
133,285,10610,2,0,P|101:250|89:216,1,76.5000014591217,2|0,0:0|0:0,0:0:0:0:
237,134,11064,2,0,P|221:168|194:195,1,76.5000014591217,2|0,0:0|0:0,0:0:0:0:
108,53,11519,5,4,0:3:0:0:
108,53,11746,2,0,L|190:61,1,76.5000014591217,0|2,0:0|0:0,0:0:0:0:
272,120,12200,1,0,0:0:0:0:
374,88,12428,2,0,L|389:174,1,76.5000014591217,2|0,0:0|0:0,0:0:0:0:
485,120,12882,1,0,0:0:0:0:
432,291,13110,6,0,P|380:235|392:155,1,153.000002918243,2|0,0:0|0:0,0:0:0:0:
266,41,13791,2,0,P|303:50|337:68,1,76.5000014591217,2|0,0:0|0:0,0:0:0:0:
336,67,14132,1,0,0:0:0:0:
336,67,14246,1,2,0:0:0:0:
386,163,14473,1,2,0:0:0:0:
328,253,14700,1,2,0:0:0:0:
279,158,14927,1,2,0:0:0:0:
239,313,15155,5,4,0:3:0:0:
239,313,15382,2,0,P|193:300|156:301,1,76.5000014591217,0|2,0:0|0:0,0:0:0:0:
73,242,15837,1,0,0:0:0:0:
31,143,16064,2,0,P|67:134|105:139,1,76.5000014591217,2|0,0:0|0:0,0:0:0:0:
205,180,16519,1,0,0:0:0:0:
301,57,16746,6,0,L|318:215,1,153.000002918243,2|0,0:0|0:0,0:0:0:0:
393,284,17428,1,2,0:0:0:0:
469,209,17655,2,0,L|511:209,2,38.2500007295609,0|0|2,0:0|0:0|0:0,0:0:0:0:
317,209,18110,1,0,0:0:0:0:
393,78,18337,1,2,0:0:0:0:
469,209,18564,1,0,0:0:0:0:
392,339,18791,5,4,0:3:0:0:
237,269,19019,1,0,0:0:0:0:
304,113,19246,1,2,0:0:0:0:
320,288,19473,1,0,0:0:0:0:
320,288,19587,1,0,0:0:0:0:
320,288,19700,2,0,P|296:331|255:354,1,76.5000014591217,2|0,0:0|0:0,0:0:0:0:
171,377,20155,1,0,0:0:0:0:
86,165,20382,6,0,L|239:178,1,153.000002918243,2|0,0:0|0:0,0:0:0:0:
320,288,21064,1,2,0:0:0:0:
432,214,21291,1,2,0:0:0:0:
436,183,21405,1,2,0:0:0:0:
440,152,21519,1,2,0:0:0:0:
318,52,21746,1,2,0:3:0:0:
322,83,21860,1,4,0:3:0:0:
326,114,21974,1,2,0:3:0:0:
426,74,22200,1,8,0:3:0:0:
238,178,22428,5,4,0:3:0:0:
357,139,22655,1,0,0:0:0:0:
357,139,22882,2,0,P|365:182|356:226,1,90,8|0,1:2|0:0,0:0:0:0:
286,332,23337,2,0,L|190:321,1,90,0|0,1:0|0:0,0:0:0:0:
93,250,23791,1,8,1:2:0:0:
33,138,24019,6,0,L|129:127,1,90,0|0,0:0|1:0,0:0:0:0:
224,200,24473,1,0,0:0:0:0:
331,21,24700,1,8,1:2:0:0:
400,129,24928,1,0,0:0:0:0:
400,129,25041,1,0,0:0:0:0:
400,129,25155,2,0,P|361:147|316:150,1,90,0|0,1:0|0:0,0:0:0:0:
346,272,25610,2,0,P|385:254|430:251,1,90,8|0,1:2|0:0,0:0:0:0:
259,359,26064,5,0,1:0:0:0:
225,237,26291,1,0,0:0:0:0:
225,237,26519,2,0,L|131:248,1,90,8|0,1:2|0:0,0:0:0:0:
149,39,26973,1,0,1:0:0:0:
227,137,27200,1,0,0:0:0:0:
102,156,27427,1,8,1:2:0:0:
281,20,27655,6,0,P|316:44|341:82,1,90,0|0,0:0|1:0,0:0:0:0:
327,209,28110,1,0,0:0:0:0:
145,242,28337,1,8,1:2:0:0:
276,313,28564,1,0,0:0:0:0:
311,318,28678,1,0,0:0:0:0:
346,323,28791,1,0,1:0:0:0:
430,228,29019,1,0,0:0:0:0:
435,193,29133,1,0,0:0:0:0:
440,158,29246,1,8,1:2:0:0:
394,40,29473,1,0,0:0:0:0:
312,182,29700,5,4,1:2:0:0:
203,117,29928,1,0,0:0:0:0:
203,117,30155,2,0,L|186:214,1,90,8|0,1:2|0:0,0:0:0:0:
183,12,30610,2,0,P|227:14|268:32,1,90,0|0,1:0|0:0,0:0:0:0:
387,73,31064,1,8,1:2:0:0:
442,186,31291,6,0,L|349:196,1,90,0|0,0:0|1:0,0:0:0:0:
279,298,31746,1,0,0:0:0:0:
253,115,31973,1,8,1:2:0:0:
207,232,32200,1,0,0:0:0:0:
207,232,32314,1,0,0:0:0:0:
207,232,32428,1,0,1:0:0:0:
317,291,32655,1,0,0:0:0:0:
253,115,32882,1,8,1:2:0:0:
77,178,33110,2,0,P|61:220|63:264,1,90,0|0,0:0|1:0,0:0:0:0:
145,362,33564,5,0,0:0:0:0:
317,291,33791,1,8,1:2:0:0:
174,177,34019,1,0,0:0:0:0:
174,177,34132,1,0,0:0:0:0:
174,177,34246,2,0,P|158:219|160:263,1,90,0|0,1:0|0:0,0:0:0:0:
248,354,34700,1,8,1:2:0:0:
370,201,34928,6,0,P|411:182|455:180,1,90,0|0,0:0|1:0,0:0:0:0:
489,301,35382,2,0,P|448:320|404:322,1,90,0|8,0:0|1:2,0:0:0:0:
243,227,35837,1,0,0:0:0:0:
246,191,35950,1,0,0:0:0:0:
249,155,36064,1,0,1:0:0:0:
390,73,36291,1,0,0:0:0:0:
393,109,36405,1,0,0:0:0:0:
396,145,36518,1,8,1:2:0:0:
368,328,36746,1,0,0:0:0:0:
243,227,36973,6,0,P|198:229|157:247,1,90,4|0,0:0|0:0,0:0:0:0:
92,138,37428,2,0,P|84:93|93:49,1,90,2|0,0:0|0:0,0:0:0:0:
219,48,37882,2,0,P|226:92|217:136,1,90
157,246,38337,1,2,0:0:0:0:
271,297,38564,2,0,L|371:287,1,90
455,101,39019,5,0,0:0:0:0:
455,101,39246,2,0,L|442:209,1,90,2|0,0:0|0:0,0:0:0:0:
331,136,39700,2,0,P|290:118|245:115,1,90
143,189,40155,1,2,0:0:0:0:
257,241,40382,1,0,0:0:0:0:
150,89,40610,6,0,L|37:88,1,90,4|0,0:0|0:0,0:0:0:0:
8,203,41064,2,0,L|97:203,1,90,2|0,0:0|0:0,0:0:0:0:
150,318,41519,2,0,L|60:317,2,90,0|0|2,0:0|0:0|0:0,0:0:0:0:
256,250,42200,1,0,0:0:0:0:
451,317,42428,6,0,L|362:318,1,90,4|0,0:0|0:0,0:0:0:0:
256,250,42882,1,2,0:0:0:0:
367,191,43110,1,0,0:0:0:0:
362,318,43337,2,0,P|331:350|291:370,1,90
136,292,43791,1,2,0:0:0:0:
207,134,44019,1,0,0:0:0:0:
367,191,44246,6,0,P|379:233|376:278,1,90,4|0,1:2|0:0,0:0:0:0:
251,290,44700,2,0,P|238:247|241:202,1,90,2|0,0:0|0:0,0:0:0:0:
322,105,45155,2,0,L|411:118,1,90
501,205,45610,1,2,0:0:0:0:
404,333,45837,1,0,0:0:0:0:
314,198,46064,5,4,1:2:0:0:
146,263,46291,1,0,0:0:0:0:
146,263,46519,2,0,P|185:284|229:291,1,90,2|0,0:0|0:0,0:0:0:0:
306,157,46973,2,0,P|266:135|222:128,1,90
75,236,47428,1,2,0:0:0:0:
120,63,47655,1,0,0:0:0:0:
187,278,47882,6,0,L|217:373,1,90,4|0,1:2|0:0,0:0:0:0:
368,236,48337,1,2,0:0:0:0:
248,102,48564,1,0,0:0:0:0:
212,99,48677,1,0,0:0:0:0:
176,96,48791,1,4,1:2:0:0:
291,249,49019,1,2,0:0:0:0:
368,61,49246,1,0,0:0:0:0:
117,159,49473,6,0,P|90:87|128:26,1,135,4|0,1:0|2:0,0:0:0:0:
158,18,49928,1,0,1:0:0:0:
384,91,50155,1,0,1:0:0:0:
266,280,50382,1,0,1:0:0:0:
37,193,50610,6,0,P|77:165|120:159,1,90,4|0,1:2|0:0,0:0:0:0:
151,177,51519,6,0,L|176:281,1,103.500001974106,4|0,1:2|0:0,0:0:0:0:
295,359,51973,1,8,1:2:0:0:
351,228,52200,1,0,0:0:0:0:
351,228,52314,1,0,0:0:0:0:
351,228,52428,2,0,P|390:200|443:186,1,103.500001974106,0|0,1:0|0:0,0:0:0:0:
454,332,52882,1,8,1:2:0:0:
268,281,53110,6,0,L|158:300,1,103.500001974106,0|0,0:0|1:0,0:0:0:0:
215,109,53564,2,0,L|316:126,1,103.500001974106,0|8,0:0|1:2,0:0:0:0:
91,182,54019,1,0,0:0:0:0:
91,182,54132,1,0,0:0:0:0:
91,182,54246,2,0,P|74:137|74:82,1,103.500001974106,0|0,1:0|0:0,0:0:0:0:
215,109,54700,1,8,1:2:0:0:
217,254,54928,1,0,0:0:0:0:
441,258,55155,6,0,L|338:267,1,103.500001974106,0|0,1:0|0:0,0:0:0:0:
237,370,55610,1,8,1:2:0:0:
134,267,55837,1,0,0:0:0:0:
134,267,55950,1,0,0:0:0:0:
134,267,56064,2,0,P|127:207|152:169,1,103.500001974106,0|0,1:0|0:0,0:0:0:0:
278,107,56519,1,8,1:2:0:0:
466,226,56746,6,0,P|427:254|374:268,1,103.500001974106,0|0,0:0|1:0,0:0:0:0:
270,368,57200,2,0,P|242:329|228:276,1,103.500001974106,0|8,0:0|1:2,0:0:0:0:
294,146,57655,1,0,0:0:0:0:
294,146,57769,1,0,0:0:0:0:
294,146,57882,1,0,1:0:0:0:
170,69,58110,1,0,0:0:0:0:
227,275,58337,1,8,1:2:0:0:
430,198,58564,1,0,0:0:0:0:
258,54,58791,6,0,P|217:85|197:140,1,103.500001974106,4|0,1:2|0:0,0:0:0:0:
227,275,59246,1,8,1:2:0:0:
328,177,59473,1,0,0:0:0:0:
328,177,59587,1,0,0:0:0:0:
328,177,59700,2,0,L|440:200,1,103.500001974106,0|0,1:0|0:0,0:0:0:0:
442,342,60155,1,8,1:2:0:0:
227,275,60382,6,0,P|177:287|134:317,1,103.500001974106,0|0,0:0|1:0,0:0:0:0:
66,146,60837,2,0,P|115:133|158:103,1,103.500001974106,0|8,0:0|1:2,0:0:0:0:
295,148,61291,1,0,0:0:0:0:
295,148,61405,1,0,0:0:0:0:
295,148,61519,1,0,1:0:0:0:
210,321,61746,1,0,0:0:0:0:
158,103,61973,1,8,1:2:0:0:
42,251,62200,1,0,0:0:0:0:
306,275,62428,6,0,L|411:287,1,103.500001974106,4|0,1:2|0:0,0:0:0:0:
408,286,62882,1,8,1:2:0:0:
360,92,63110,2,0,P|397:10|467:70,1,207.000003948212,4|0,1:2|0:0,0:0:0:0:
449,209,63791,1,8,1:2:0:0:
310,166,64019,5,0,0:0:0:0:
274,172,64132,1,0,0:0:0:0:
238,178,64246,1,4,1:2:0:0:
116,324,64473,5,0,0:0:0:0:
130,285,64586,1,0,0:0:0:0:
144,246,64700,1,4,1:2:0:0:
74,61,64928,5,0,0:0:0:0:
103,96,65041,1,0,0:0:0:0:
132,131,65155,1,4,1:2:0:0:
250,47,65382,1,0,0:0:0:0:
394,66,65610,5,4,1:2:0:0:
389,213,65837,1,0,3:2:0:0:
389,213,65950,1,0,3:2:0:0:
389,213,66064,6,0,P|346:242|296:254,1,103.500001974106,4|0,1:2|0:0,0:0:0:0:
156,215,66519,1,8,1:2:0:0:
200,77,66746,1,0,0:0:0:0:
200,77,66860,1,0,0:0:0:0:
200,77,66973,2,0,P|232:117|248:166,1,103.500001974106,0|0,1:0|0:0,0:0:0:0:
207,305,67428,1,8,1:2:0:0:
30,182,67655,6,0,L|139:190,1,103.500001974106,0|0,0:0|1:0,0:0:0:0:
310,312,68110,2,0,L|206:304,1,103.500001974106,0|8,0:0|1:2,0:0:0:0:
264,71,68564,1,0,0:0:0:0:
264,71,68678,1,0,0:0:0:0:
263,70,68791,2,0,P|274:120|266:171,1,103.500001974106,0|0,1:0|0:0,0:0:0:0:
206,304,69246,1,8,1:2:0:0:
133,189,69473,1,0,0:0:0:0:
364,132,69700,6,0,P|416:125|466:135,1,103.500001974106,0|0,1:0|0:0,0:0:0:0:
411,269,70155,1,8,1:2:0:0:
271,117,70382,1,0,0:0:0:0:
271,117,70496,1,0,0:0:0:0:
271,117,70610,2,0,P|275:65|298:19,1,103.500001974106,0|0,1:0|0:0,0:0:0:0:
412,109,71064,1,8,1:2:0:0:
193,171,71291,6,0,L|81:161,1,103.500001974106,0|0,0:0|1:0,0:0:0:0:
125,302,71746,2,0,L|228:311,1,103.500001974106,0|8,0:0|1:2,0:0:0:0:
279,175,72200,1,0,0:0:0:0:
279,175,72314,1,0,0:0:0:0:
279,175,72428,1,0,1:0:0:0:
138,211,72655,1,0,0:0:0:0:
331,234,72882,1,8,1:2:0:0:
183,88,73110,1,0,0:0:0:0:
251,354,73337,6,0,P|297:376|348:381,1,103.500001974106,4|0,1:2|0:0,0:0:0:0:
453,281,73791,1,8,1:2:0:0:
391,153,74019,1,0,0:0:0:0:
391,153,74132,1,0,0:0:0:0:
391,153,74246,2,0,P|353:188|331:234,1,103.500001974106,0|0,1:0|0:0,0:0:0:0:
193,280,74700,1,8,1:2:0:0:
81,78,74928,6,0,P|127:100|163:136,1,103.500001974106,0|0,0:0|1:0,0:0:0:0:
276,338,75382,2,0,P|229:316|193:280,1,103.500001974106,0|8,0:0|1:2,0:0:0:0:
301,183,75837,1,0,0:0:0:0:
301,183,75950,1,0,0:0:0:0:
301,183,76064,1,0,1:0:0:0:
163,136,76291,2,0,L|55:146,1,103.500001974106,0|8,0:0|1:2,0:0:0:0:
126,317,76746,1,0,0:0:0:0:
126,317,76860,1,0,0:0:0:0:
126,317,76973,6,0,L|234:327,1,103.500001974106,4|0,1:2|0:0,0:0:0:0:
382,91,77428,1,8,1:2:0:0:
344,242,77655,6,0,P|257:207|335:185,1,207.000003948212,4|0,1:2|0:0,0:0:0:0:
480,105,78337,1,8,1:2:0:0:
414,297,78564,6,0,P|363:341|218:324,1,207.000003948212,4|0,1:2|0:0,0:0:0:0:
106,246,79246,1,0,1:0:0:0:
329,151,79473,6,0,P|358:239|269:265,1,207.000003948212,4|0,1:2|0:0,0:0:0:0:
149,187,80155,1,0,1:0:0:0:
244,16,80382,1,0,0:0:0:0:
244,16,80496,1,0,0:0:0:0:
244,16,80610,6,0,L|344:26,1,90,4|0,1:2|0:0,0:0:0:0:
447,77,81064,2,0,L|438:166,1,90,8|0,1:2|0:0,0:0:0:0:
360,266,81519,2,0,L|271:257,1,90,0|0,1:0|0:0,0:0:0:0:
178,170,81973,1,8,1:2:0:0:
355,136,82200,6,0,P|399:143|438:166,1,90,0|0,0:0|1:0,0:0:0:0:
503,273,82655,2,0,P|497:317|474:356,1,90,0|8,0:0|1:2,0:0:0:0:
349,333,83110,1,0,0:0:0:0:
349,333,83223,1,0,0:0:0:0:
349,333,83337,2,0,L|260:342,1,90,0|0,1:0|0:0,0:0:0:0:
139,201,83791,2,0,L|228:210,1,90,8|0,1:2|0:0,0:0:0:0:
447,178,84246,5,4,1:2:0:0:
329,131,84473,1,0,0:0:0:0:
348,256,84700,1,8,1:2:0:0:
447,178,84928,1,0,0:0:0:0:
247,34,85155,5,4,1:2:0:0:
204,153,85382,1,0,0:0:0:0:
329,131,85610,1,8,1:2:0:0:
109,130,85837,6,0,P|129:218|217:250,1,180,4|2,1:2|1:2,0:0:0:0:
329,131,86519,1,6,1:2:0:0:
371,340,86746,1,2,0:0:0:0:
371,340,86859,1,2,0:0:0:0:
371,340,86973,5,6,1:2:0:0:
256,192,87087,12,0,89246,0:0:0:0:
