osu file format v14

[General]
AudioFilename: STEP-TV.mp3
AudioLeadIn: 2000
PreviewTime: 53435
Countdown: 0
SampleSet: None
StackLeniency: 0.3
Mode: 0
LetterboxInBreaks: 1
WidescreenStoryboard: 1

[Editor]
DistanceSpacing: 1.4
BeatDivisor: 4
GridSize: 32
TimelineZoom: 1

[Metadata]
Title:STEP -TV MIX-
TitleUnicode:STEP -TV MIX-
Artist:ClariS
ArtistUnicode:ClariS
Creator:[ Lost ]
Version:Insane
Source:Nisekoi
Tags:ニセコイ kz livetune
BeatmapID:1332750
BeatmapSetID:631199

[Difficulty]
HPDrainRate:7
CircleSize:4
OverallDifficulty:8
ApproachRate:9
SliderMultiplier:1.76
SliderTickRate:1

[Events]
//Background and Video events
0,0,"BG.jpg",0,0
//Break Periods
//Storyboard Layer 0 (Background)
//Storyboard Layer 1 (Fail)
//Storyboard Layer 2 (Pass)
//Storyboard Layer 3 (Foreground)
//Storyboard Sound Samples

[TimingPoints]
422,410.958904109589,4,2,1,40,1,0
5353,-100,4,2,1,70,0,0
5558,-100,4,2,2,70,0,0
5969,-100,4,2,1,70,0,0
6072,-100,4,2,2,70,0,0
6689,-100,4,2,1,70,0,0
10901,-100,4,2,1,35,0,0
11106,-100,4,2,2,70,0,0
11312,-100,4,2,1,70,0,0
13161,-100,4,2,2,70,0,0
13264,-100,4,2,1,70,0,0
13572,-200,4,2,1,50,0,0
14394,-200,4,2,1,30,0,0
15627,-200,4,2,1,20,0,0
16038,-200,4,2,1,40,0,0
16449,-200,4,2,1,30,0,0
16860,-200,4,2,1,50,0,0
17271,-200,4,2,1,20,0,0
17682,-200,4,2,1,50,0,0
18504,-200,4,2,1,40,0,0
18915,-200,4,2,1,20,0,0
19326,-200,4,2,1,30,0,0
19531,-200,4,2,1,40,0,0
19737,-200,4,2,1,30,0,0
21380,-200,4,2,1,20,0,0
21791,-200,4,2,1,30,0,0
22613,-200,4,2,1,40,0,0
23538,-200,4,2,1,20,0,0
25079,-100,4,2,2,70,0,0
25695,-100,4,2,1,70,0,0
25798,-100,4,2,2,70,0,0
26312,-100,4,3,2,50,0,0
26620,-100,4,3,1,20,0,0
26723,-100,4,2,3,70,0,0
38435,-100,4,2,2,70,0,0
39668,-100,4,2,1,70,0,0
39874,-100,4,2,1,70,0,0
41312,-100,4,2,3,70,0,0
42339,-100,4,2,1,70,0,0
42442,-100,4,2,3,70,0,0
43778,-100,4,2,1,70,0,0
43880,-100,4,2,3,70,0,0
45627,-100,4,2,1,70,0,0
45935,-100,4,1,1,35,0,0
46243,-100,4,2,3,70,0,0
47271,-100,4,2,1,70,0,0
47682,-100,4,2,3,70,0,0
48915,-100,4,2,1,70,0,0
49737,-133.333333333333,4,2,1,50,0,0
51586,-133.333333333333,4,2,2,50,0,0
51997,-133.333333333333,4,2,1,50,0,0
52100,-133.333333333333,4,2,2,50,0,0
52819,-133.333333333333,4,2,1,50,0,0
53435,-200,4,2,1,50,0,0
54668,-100,4,2,1,70,0,1
67408,-100,4,2,2,70,0,1
67716,-100,4,2,1,70,0,0
67819,-100,4,2,1,70,0,1
70182,-100,4,2,1,45,0,1
70285,-100,4,2,1,70,0,1
79326,-200,4,2,1,70,0,1
79737,-200,4,2,1,20,0,1
80558,-200,4,2,2,70,0,1
80661,-100,4,2,1,70,0,1
80969,-100,4,2,1,70,0,0
85079,-100,4,2,2,70,0,0
85285,-100,4,2,1,70,0,0
87134,-100,4,2,2,70,0,0
87237,-100,4,2,1,70,0,0
87442,-100,4,2,1,5,0,0

[Colours]
Combo1 : 253,232,217
Combo2 : 255,128,128
Combo3 : 0,128,255
Combo4 : 128,64,64
Combo5 : 200,219,249

[HitObjects]
69,122,422,6,0,L|60:268,2,132,2|0|2,0:0|0:0|0:0,0:0:0:0:
167,47,1243,2,0,P|221:43|264:58,1,88,0|0,0:0|0:0,0:0:0:0:
304,164,1654,2,0,P|261:174|218:169,1,88,2|0,0:0|0:0,0:0:0:0:
205,161,1963,1,0,0:0:0:0:
192,152,2065,6,0,L|183:298,2,132,2|2|2,0:0|0:0|0:0,0:0:0:0:
275,61,2887,2,0,P|329:57|372:72,1,88,0|0,0:0|0:0,0:0:0:0:
446,193,3298,2,0,P|403:203|360:198,1,88,2|0,0:0|0:0,0:0:0:0:
347,191,3606,1,0,0:0:0:0:
334,181,3709,6,0,L|325:327,2,132,2|2|2,0:0|0:0|0:0,0:0:0:0:
280,69,4531,2,0,P|238:63|187:80,1,88,0|0,0:0|0:0,0:0:0:0:
117,171,4942,2,0,P|90:204|80:257,1,88,2|0,0:0|0:0,0:0:0:0:
83,265,5250,1,0,0:0:0:0:
88,277,5353,6,0,L|-18:267,1,88,12|0,0:1|0:0,0:0:0:0:
213,351,5764,6,0,L|328:340,1,88,0|0,0:0|0:0,0:0:0:0:
321,349,6072,2,0,P|338:292|323:207,1,132,0|0,0:0|0:0,0:0:0:0:
223,156,6586,1,8,0:0:0:0:
201,160,6689,1,0,0:0:0:0:
180,166,6791,1,2,0:0:0:0:
158,171,6894,1,0,0:0:0:0:
136,177,6997,6,0,L|145:-9,1,176,6|8,1:0|0:0,0:0:0:0:
241,77,7613,1,2,0:0:0:0:
63,123,7819,2,0,P|29:109|6:56,1,88,0|2,1:0|0:0,0:0:0:0:
136,177,8230,2,0,P|165:154|222:161,1,88,8|0,0:0|0:0,0:0:0:0:
51,213,8641,6,0,P|54:256|29:291,1,88,0|0,1:0|0:0,0:0:0:0:
18,305,8949,1,0,0:0:0:0:
7,318,9052,2,0,L|113:310,1,88,8|0,0:0|0:0,0:0:0:0:
285,357,9463,2,0,P|271:285|301:219,1,132,0|0,1:0|0:0,0:0:0:0:
299,217,9874,2,0,P|310:157|301:123,1,88,8|2,0:0|0:0,0:0:0:0:
193,77,10285,6,0,L|382:66,1,176,6|8,1:0|0:0,0:0:0:0:
237,169,10901,1,0,1:0:0:0:
217,179,11004,1,0,1:0:0:0:
195,183,11106,1,0,0:0:0:0:
173,179,11209,1,0,0:0:0:0:
152,171,11312,1,0,0:0:0:0:
92,63,11517,1,8,0:0:0:0:
5,282,11723,6,0,L|194:271,1,176,4|2,1:0|0:0,0:0:0:0:
289,331,12339,1,2,0:0:0:0:
385,253,12545,1,0,0:0:0:0:
388,231,12648,1,2,0:0:0:0:
391,209,12750,5,0,0:0:0:0:
462,351,12956,1,0,0:0:0:0:
197,125,13161,2,0,L|203:186,1,44,8|0,0:0|0:0,0:0:0:0:
208,249,13367,2,0,L|214:310,1,44,0|0,0:0|0:0,0:0:0:0:
220,373,13572,5,4,1:0:0:0:
220,373,14394,1,2,0:0:0:0:
123,295,14805,1,0,0:0:0:0:
32,378,15216,2,0,P|5:320|37:212,1,176,0|2,0:0|0:0,0:0:0:0:
129,138,16449,1,2,0:0:0:0:
232,205,16860,6,0,L|410:197,1,176,2|2,0:0|0:0,0:0:0:0:
407,197,18504,2,0,B|387:146|405:95|405:95|360:90|340:136,1,176,2|2,0:0|0:0,0:0:0:0:
273,185,19531,1,0,0:0:0:0:
188,152,19737,2,0,P|166:114|160:71,1,88,0|2,0:0|0:0,0:0:0:0:
160,70,20969,6,0,L|150:260,1,176,2|2,0:0|0:0,0:0:0:0:
208,354,22202,1,2,0:0:0:0:
330,342,22613,1,2,0:0:0:0:
403,243,23024,1,2,0:0:0:0:
379,122,23435,2,0,B|295:93|222:159|222:159|136:234|46:177,1,352,0|0,0:0|0:0,0:0:0:0:
128,82,25285,5,0,0:0:0:0:
324,213,25490,1,0,0:0:0:0:
86,320,25695,1,0,0:0:0:0:
86,320,25798,1,0,0:0:0:0:
86,320,25901,1,0,0:0:0:0:
258,95,26106,1,0,0:0:0:0:
379,333,26312,2,0,L|228:323,1,132,0|0,0:0|0:0,0:0:0:0:
229,336,26723,6,0,P|240:289|235:243,1,88,6|2,0:0|0:1,0:0:0:0:
180,139,27134,2,0,P|169:92|174:46,1,88,2|2,0:0|0:1,0:0:0:0:
185,34,27442,1,2,0:0:0:0:
204,24,27545,2,0,P|253:19|299:18,1,88,2|2,0:0|0:1,0:0:0:0:
89,159,27956,2,0,P|45:157|1:152,1,88,2|2,0:0|0:1,0:0:0:0:
236,249,28367,6,0,P|311:240|386:238,1,132,2|0,0:0|0:0,0:0:0:0:
385,242,28778,2,0,L|393:140,1,88,2|2,0:0|0:1,0:0:0:0:
306,65,29189,1,2,0:0:0:0:
210,142,29394,1,2,0:1:0:0:
210,142,29497,1,0,0:0:0:0:
210,142,29600,2,0,P|161:143|114:118,1,88,2|2,0:0|0:1,0:0:0:0:
19,65,30011,6,0,P|16:139|8:215,1,132,2|0,0:0|0:0,0:0:0:0:
2,216,30422,2,0,L|104:208,1,88,2|2,0:0|0:1,0:0:0:0:
247,316,30832,2,0,L|145:308,1,88,2|2,0:0|0:1,0:0:0:0:
142,306,31141,1,0,0:0:0:0:
126,303,31243,2,0,L|38:309,1,88,2|2,0:0|0:1,0:0:0:0:
330,384,31654,6,0,P|350:322|338:257,1,132,2|0,0:0|0:0,0:0:0:0:
330,241,32065,2,0,P|322:197|328:154,1,88,2|2,0:0|0:1,0:0:0:0:
413,64,32476,1,2,0:0:0:0:
488,161,32682,1,2,0:1:0:0:
488,161,32785,1,0,0:0:0:0:
488,161,32887,2,0,L|481:248,1,88,2|2,0:0|0:1,0:0:0:0:
245,191,33298,6,0,L|256:46,1,132,2|0,0:0|0:0,0:0:0:0:
242,42,33709,2,0,P|196:23|152:29,1,88,2|2,0:0|0:1,0:0:0:0:
14,180,34120,2,0,P|57:182|97:164,1,88,2|2,0:0|0:1,0:0:0:0:
111,154,34428,1,0,0:0:0:0:
122,142,34531,2,0,L|115:229,1,88,2|2,0:0|0:1,0:0:0:0:
55,337,34942,6,0,L|200:324,1,132,2|0,0:0|0:0,0:0:0:0:
207,331,35353,2,0,L|216:238,1,88,2|2,0:0|0:1,0:0:0:0:
308,162,35764,1,2,0:0:0:0:
386,256,35969,1,2,0:1:0:0:
386,256,36072,1,0,0:0:0:0:
386,256,36175,2,0,P|443:264|481:251,1,88,2|2,0:0|0:1,0:0:0:0:
355,89,36586,6,0,P|293:79|225:129,1,132,2|0,0:0|0:0,0:0:0:0:
224,125,36997,2,0,L|135:122,1,88,2|2,0:0|0:1,0:0:0:0:
272,246,37408,2,0,L|183:243,1,88,2|2,0:0|0:1,0:0:0:0:
166,242,37716,1,0,0:0:0:0:
149,243,37819,2,0,P|138:290|154:338,1,88,2|2,0:0|0:1,0:0:0:0:
305,368,38230,5,0,1:0:0:0:
350,170,38435,1,0,0:0:0:0:
149,243,38641,1,0,0:0:0:0:
385,283,38846,1,0,0:0:0:0:
385,283,38949,1,0,0:0:0:0:
385,283,39052,1,0,0:0:0:0:
225,147,39257,1,0,0:0:0:0:
190,346,39463,6,0,B|250:325|250:325|292:324|323:336,1,132,8|0,0:0|0:0,0:0:0:0:
337,340,39874,6,0,L|340:155,1,176,4|2,1:0|0:0,0:0:0:0:
260,69,40490,2,0,L|257:254,1,176,8|0,0:0|0:0,0:0:0:0:
175,337,41106,1,0,0:0:0:0:
72,268,41312,1,2,0:0:0:0:
57,251,41415,1,2,0:0:0:0:
49,230,41517,5,2,0:0:0:0:
45,208,41620,1,0,0:0:0:0:
47,186,41723,1,2,0:0:0:0:
56,166,41826,1,2,0:0:0:0:
66,146,41928,1,2,0:0:0:0:
79,128,42031,1,0,0:0:0:0:
85,107,42134,1,2,0:0:0:0:
87,85,42237,1,2,0:0:0:0:
83,63,42339,5,8,0:0:0:0:
83,63,42750,2,0,P|139:64|180:54,1,88,0|2,0:0|0:0,0:0:0:0:
285,12,43161,6,0,L|282:197,1,176,2|2,0:0|0:0,0:0:0:0:
379,264,43778,2,0,P|330:247|215:315,1,176,8|0,0:0|0:0,0:0:0:0:
320,375,44394,1,0,0:0:0:0:
169,211,44600,1,2,0:0:0:0:
169,211,44702,1,2,0:0:0:0:
169,211,44805,5,2,0:0:0:0:
390,173,45011,1,2,0:0:0:0:
411,178,45113,1,2,0:0:0:0:
430,187,45216,1,2,0:0:0:0:
445,203,45319,1,0,0:0:0:0:
457,221,45421,1,2,0:0:0:0:
464,241,45524,1,2,0:0:0:0:
467,262,45627,6,0,L|471:119,1,132,8|2,0:0|0:0,0:0:0:0:
472,108,46038,2,0,P|424:90|376:88,1,88,2|2,0:0|0:0,0:0:0:0:
276,141,46449,6,0,B|221:152|221:152|93:140,2,176,2|2|8,0:0|0:0|0:0,0:0:0:0:
287,132,47682,2,0,P|295:73|292:33,1,88,2|2,0:0|0:0,0:0:0:0:
259,251,48093,6,0,B|314:240|314:240|442:252,2,176,2|0|8,0:0|0:0|0:0,0:0:0:0:
246,256,49326,2,0,P|238:315|241:355,1,88,0|0,0:0|0:0,0:0:0:0:
151,371,49737,6,0,P|149:301|147:223,1,132.000005035401,4|0,1:0|0:0,0:0:0:0:
54,237,50353,2,0,P|55:167|58:89,1,132.000005035401,4|0,1:2|0:0,0:0:0:0:
127,44,50969,1,4,1:2:0:0:
202,97,51175,1,12,1:0:0:0:
218,101,51278,1,0,0:0:0:0:
233,104,51380,6,0,P|269:106|308:92,1,66.0000025177003,0|0,0:0|0:0,0:0:0:0:
352,23,51791,1,0,0:0:0:0:
493,214,51997,1,0,0:0:0:0:
493,214,52100,1,0,0:0:0:0:
493,214,52202,1,0,0:0:0:0:
259,248,52408,1,0,0:0:0:0:
472,64,52613,1,0,0:0:0:0:
399,297,52819,5,6,1:1:0:0:
399,297,53435,6,0,B|369:298|341:282|341:282|296:345|233:328,1,176,0|0,0:0|0:0,0:0:0:0:
243,330,54668,6,0,P|201:323|151:327,1,88,12|0,1:0|0:0,0:0:0:0:
34,351,55079,2,0,L|46:209,1,132,8|0,1:0|0:0,0:0:0:0:
59,202,55490,2,0,L|49:103,1,88,0|0,1:0|0:0,0:0:0:0:
171,135,55901,2,0,L|161:36,1,88,8|2,0:0|0:0,0:0:0:0:
183,55,56209,1,0,0:0:0:0:
204,58,56312,6,0,B|250:63|286:38|286:38|331:8|396:30,1,176,2|8,1:0|0:0,0:0:0:0:
445,122,56928,1,0,0:0:0:0:
353,205,57134,2,0,L|344:103,1,88,2|0,1:0|0:0,0:0:0:0:
502,229,57545,2,0,L|493:331,1,88,8|0,0:0|0:0,0:0:0:0:
272,339,57956,6,0,L|412:323,1,132,2|0,1:0|0:0,0:0:0:0:
420,320,58367,2,0,P|366:311|329:305,1,88,8|0,0:0|0:0,0:0:0:0:
368,169,58778,2,0,P|314:160|277:154,1,88,2|0,1:0|0:0,0:0:0:0:
261,145,59086,1,0,0:0:0:0:
240,136,59189,2,0,L|245:226,1,88,8|0,0:0|0:0,0:0:0:0:
77,354,59600,6,0,L|69:220,1,132,0|0,1:0|0:0,0:0:0:0:
74,200,60011,2,0,P|115:182|167:192,1,88,8|0,0:0|0:0,0:0:0:0:
379,71,60421,2,0,P|335:75|296:58,1,88,2|0,1:0|0:0,0:0:0:0:
282,40,60730,1,0,0:0:0:0:
271,20,60832,2,0,P|222:22|171:26,1,88,8|2,0:0|0:0,0:0:0:0:
248,171,61243,6,0,B|290:184|334:155|334:155|374:128|430:157,1,176,2|8,1:0|0:0,0:0:0:0:
379,268,61860,1,0,0:0:0:0:
241,189,62065,2,0,P|233:142|245:86,1,88,0|0,1:0|0:0,0:0:0:0:
387,250,62476,2,0,P|395:297|383:353,1,88,8|0,0:0|0:0,0:0:0:0:
372,351,62785,1,0,0:0:0:0:
355,364,62887,6,0,L|516:355,1,132,0|0,1:0|0:0,0:0:0:0:
506,346,63298,2,0,L|511:255,1,88,8|2,0:0|0:0,0:0:0:0:
422,185,63709,2,0,B|380:172|336:201|336:201|296:228|240:199,1,176,0|8,1:0|0:0,0:0:0:0:
173,123,64326,1,0,0:0:0:0:
173,123,64428,1,0,0:0:0:0:
173,123,64531,6,0,P|125:121|76:141,1,88,2|0,1:0|0:0,0:0:0:0:
149,230,64942,1,8,0:0:0:0:
284,115,65148,2,0,P|283:69|277:26,1,88,0|0,1:0|0:0,0:0:0:0:
149,230,65558,2,0,P|148:274|156:319,1,88,0|8,1:0|0:0,0:0:0:0:
417,240,65969,6,0,P|334:216|245:279,1,176,0|0,1:0|1:0,0:0:0:0:
247,275,66483,1,0,1:0:0:0:
236,294,66586,1,8,0:0:0:0:
73,356,66791,6,0,L|106:360,2,22,8|0|0,0:0|0:0|0:0,0:0:0:0:
51,370,66997,2,0,B|48:338|63:310|63:310|22:258|44:193,1,176,2|8,0:0|0:0,0:0:0:0:
41,202,67819,6,0,P|50:152|42:99,1,88,8|0,1:0|0:0,0:0:0:0:
144,40,68230,2,0,B|160:48|191:49|191:49|231:28|285:34,1,132,8|0,1:0|0:0,0:0:0:0:
293,38,68641,2,0,P|362:43|389:35,1,88,0|0,1:0|0:0,0:0:0:0:
302,229,69052,2,0,P|358:188|373:164,1,88,8|2,0:0|0:0,0:0:0:0:
377,153,69360,1,0,0:0:0:0:
384,132,69463,6,0,L|376:336,1,176,2|8,1:0|0:0,0:0:0:0:
270,370,70079,1,0,0:0:0:0:
169,298,70285,2,0,P|169:245|173:198,1,88,0|0,1:0|0:0,0:0:0:0:
304,143,70695,2,0,P|304:196|300:243,1,88,8|0,0:0|0:0,0:0:0:0:
54,337,71106,6,0,L|49:186,1,132,2|0,1:0|0:0,0:0:0:0:
41,184,71517,2,0,P|90:184|142:157,1,88,8|2,0:0|0:0,0:0:0:0:
363,71,71928,2,0,P|322:55|278:56,1,88,0|0,1:0|0:0,0:0:0:0:
258,65,72237,1,0,0:0:0:0:
239,76,72339,2,0,P|193:71|144:63,1,88,8|2,0:0|0:0,0:0:0:0:
253,245,72750,6,0,P|328:236|409:223,1,132,0|2,1:0|0:0,0:0:0:0:
404,220,73161,2,0,L|399:319,1,88,8|0,0:0|0:0,0:0:0:0:
257,157,73572,2,0,L|252:256,1,88,2|0,1:0|0:0,0:0:0:0:
251,266,73880,1,0,0:0:0:0:
248,287,73983,2,0,P|189:297|152:283,1,88,8|2,0:0|0:0,0:0:0:0:
0,142,74394,6,0,B|32:139|60:154|60:154|112:113|177:135,1,176,2|8,1:0|0:0,0:0:0:0:
283,175,75011,1,0,0:0:0:0:
369,88,75216,2,0,P|374:35|368:-4,1,88,0|0,1:0|0:0,0:0:0:0:
407,204,75627,2,0,P|402:257|408:296,1,88,8|0,0:0|0:0,0:0:0:0:
418,310,75935,1,0,0:0:0:0:
432,326,76038,6,0,L|245:321,1,176,0|8,1:0|0:0,0:0:0:0:
146,378,76654,1,0,0:0:0:0:
256,321,76860,2,0,P|260:271|258:227,1,88,0|0,1:0|0:0,0:0:0:0:
167,72,77271,1,8,0:0:0:0:
157,91,77374,1,0,0:0:0:0:
146,110,77476,1,0,0:0:0:0:
135,129,77579,1,0,0:0:0:0:
124,148,77682,6,0,B|161:171|214:141|214:141|253:119|307:146,1,176,2|8,1:0|0:0,0:0:0:0:
395,206,78298,2,0,P|369:152|408:33,1,176,0|0,0:0|0:0,0:0:0:0:
488,127,78915,1,8,0:0:0:0:
319,236,79120,1,4,0:0:0:0:
499,320,79326,6,0,B|441:353|365:323|365:323|292:295|232:342,1,264,0|8,0:0|0:0,0:0:0:0:
232,314,80661,1,0,0:0:0:0:
219,295,80764,1,2,0:0:0:0:
208,275,80867,1,0,0:0:0:0:
197,256,80969,6,0,L|208:58,1,176,6|8,1:0|0:0,0:0:0:0:
320,29,81586,1,2,0:0:0:0:
320,29,81689,1,0,0:0:0:0:
320,29,81791,2,0,P|374:23|414:31,1,88,0|0,1:0|0:0,0:0:0:0:
304,184,82202,2,0,P|341:144|377:125,1,88,8|0,0:0|0:0,0:0:0:0:
389,339,82613,6,0,B|356:285|390:226|390:226|405:267|445:278,1,176,0|8,1:0|0:0,0:0:0:0:
261,348,83230,1,0,0:0:0:0:
261,348,83332,1,0,0:0:0:0:
261,348,83435,2,0,P|204:344|163:343,1,88,2|0,1:0|0:0,0:0:0:0:
42,223,83846,2,0,P|99:219|140:218,1,88,8|2,0:0|0:0,0:0:0:0:
278,103,84257,6,0,P|188:96|123:95,1,132,2|0,1:0|0:0,0:0:0:0:
124,95,84668,1,8,0:0:0:0:
300,228,84874,1,0,0:0:0:0:
339,24,85079,1,0,0:0:0:0:
339,24,85182,1,0,0:0:0:0:
339,24,85285,1,0,1:0:0:0:
168,212,85490,1,2,0:0:0:0:
388,297,85695,6,0,B|412:255|398:187|398:187|408:226|451:236,1,176,4|2,1:0|0:0,0:0:0:0:
498,123,86312,1,2,0:0:0:0:
300,228,86517,1,2,0:0:0:0:
278,223,86620,1,0,0:0:0:0:
256,218,86723,6,0,L|206:227,1,44,2|0,0:0|0:0,0:0:0:0:
173,155,86928,2,0,L|140:194,1,44,2|0,0:0|0:0,0:0:0:0:
67,161,87134,2,0,L|67:211,1,44,8|0,0:0|0:0,0:0:0:0:
5,258,87339,5,4,1:0:0:0:
256,192,87442,12,0,89189,0:0:0:0:
