osu file format v14

[General]
AudioFilename: STEP-TV.mp3
AudioLeadIn: 2000
PreviewTime: 53435
Countdown: 0
SampleSet: None
StackLeniency: 0.3
Mode: 0
LetterboxInBreaks: 1
WidescreenStoryboard: 1

[Editor]
DistanceSpacing: 1.4
BeatDivisor: 4
GridSize: 32
TimelineZoom: 1

[Metadata]
Title:STEP -TV MIX-
TitleUnicode:STEP -TV MIX-
Artist:ClariS
ArtistUnicode:ClariS
Creator:[ Lost ]
Version:Hard
Source:Nisekoi
Tags:ニセコイ kz livetune
BeatmapID:1332749
BeatmapSetID:631199

[Difficulty]
HPDrainRate:6
CircleSize:4
OverallDifficulty:6.4
ApproachRate:8
SliderMultiplier:1.36
SliderTickRate:1

[Events]
//Background and Video events
0,0,"BG.jpg",0,0
//Break Periods
//Storyboard Layer 0 (Background)
//Storyboard Layer 1 (Fail)
//Storyboard Layer 2 (Pass)
//Storyboard Layer 3 (Foreground)
//Storyboard Sound Samples

[TimingPoints]
422,410.958904109589,4,2,1,40,1,0
5353,-100,4,2,1,70,0,0
5558,-100,4,2,2,70,0,0
5969,-100,4,2,1,70,0,0
6072,-100,4,2,2,70,0,0
6689,-100,4,2,1,70,0,0
10901,-100,4,2,1,35,0,0
11106,-100,4,2,2,70,0,0
11312,-100,4,2,1,70,0,0
13161,-100,4,2,2,70,0,0
13264,-100,4,2,1,70,0,0
13572,-200,4,2,1,50,0,0
14394,-200,4,2,1,30,0,0
15627,-200,4,2,1,20,0,0
16038,-200,4,2,1,40,0,0
16449,-200,4,2,1,30,0,0
16860,-200,4,2,1,50,0,0
17271,-200,4,2,1,20,0,0
17682,-200,4,2,1,50,0,0
18504,-200,4,2,1,40,0,0
18915,-200,4,2,1,20,0,0
19326,-200,4,2,1,30,0,0
19531,-200,4,2,1,40,0,0
19737,-200,4,2,1,30,0,0
21380,-200,4,2,1,20,0,0
21791,-200,4,2,1,30,0,0
22613,-200,4,2,1,40,0,0
23538,-200,4,2,1,20,0,0
25079,-100,4,2,2,70,0,0
25695,-100,4,2,1,70,0,0
25798,-100,4,2,2,70,0,0
26312,-100,4,3,2,50,0,0
26620,-100,4,3,1,20,0,0
26723,-100,4,2,3,70,0,0
38435,-100,4,2,2,70,0,0
39668,-100,4,2,1,70,0,0
39874,-100,4,2,1,70,0,0
41312,-100,4,2,3,70,0,0
42339,-100,4,2,1,70,0,0
42442,-100,4,2,3,70,0,0
43778,-100,4,2,1,70,0,0
43880,-100,4,2,3,70,0,0
45627,-100,4,2,1,70,0,0
45935,-100,4,1,1,35,0,0
46243,-100,4,2,3,70,0,0
47271,-100,4,2,1,70,0,0
47682,-100,4,2,3,70,0,0
48915,-100,4,2,1,70,0,0
49737,-133.333333333333,4,2,1,50,0,0
51586,-133.333333333333,4,2,2,50,0,0
51997,-133.333333333333,4,2,1,50,0,0
52100,-133.333333333333,4,2,2,50,0,0
52819,-133.333333333333,4,2,1,50,0,0
54668,-100,4,2,1,70,0,1
67408,-100,4,2,2,70,0,1
67716,-100,4,2,1,70,0,0
67819,-100,4,2,1,70,0,1
70182,-100,4,2,1,45,0,1
70285,-100,4,2,1,70,0,1
79326,-200,4,2,1,70,0,1
79737,-200,4,2,1,20,0,1
80558,-200,4,2,2,70,0,1
80661,-100,4,2,1,70,0,1
80969,-100,4,2,1,70,0,0
85079,-100,4,2,2,70,0,0
85285,-100,4,2,1,70,0,0
87134,-100,4,2,2,70,0,0
87237,-100,4,2,1,70,0,0
87442,-100,4,2,1,5,0,0

[Colours]
Combo1 : 253,232,217
Combo2 : 255,128,128
Combo3 : 0,128,255
Combo4 : 128,64,64
Combo5 : 200,219,249

[HitObjects]
64,192,422,6,0,P|128:192|178:168,2,102,2|0|2,0:0|0:0|0:0,0:0:0:0:
51,179,1449,2,0,L|47:253,1,68,0|2,0:0|0:0,0:0:0:0:
282,277,2065,6,0,P|218:277|168:301,2,102,2|2|2,0:0|0:0|0:0,0:0:0:0:
295,290,3092,2,0,L|299:216,1,68,0|2,0:0|0:0,0:0:0:0:
344,109,3709,6,0,P|344:45|320:-5,2,102,2|2|2,0:0|0:0|0:0,0:0:0:0:
331,122,4736,2,0,L|405:126,1,68,0|2,0:0|0:0,0:0:0:0:
419,129,5353,6,0,P|408:168|406:211,1,68,12|0,0:1|0:0,0:0:0:0:
334,291,5764,2,0,P|330:257|320:224,1,68,0|0,0:0|0:0,0:0:0:0:
307,214,6072,1,0,0:0:0:0:
291,207,6175,2,0,L|201:217,1,68,0|0,0:0|0:0,0:0:0:0:
122,297,6586,6,0,B|137:251|137:251|127:218|87:198,1,102,8|0,0:0|0:0,0:0:0:0:
88,211,6997,6,0,L|82:70,1,136,6|8,1:0|0:0,0:0:0:0:
162,23,7613,1,2,0:0:0:0:
247,65,7819,2,0,P|303:60|320:53,1,68,0|2,1:0|0:0,0:0:0:0:
411,142,8230,2,0,P|378:132|344:132,1,68,8|0,0:0|0:0,0:0:0:0:
231,223,8641,6,0,L|390:215,1,136,0|8,1:0|0:0,0:0:0:0:
448,265,9257,1,0,0:0:0:0:
493,181,9463,2,0,P|498:144|499:100,1,68,0|0,1:0|0:0,0:0:0:0:
448,265,9874,2,0,P|448:302|454:346,1,68,8|2,0:0|0:0,0:0:0:0:
362,362,10285,6,0,L|203:354,1,136,6|8,1:0|0:0,0:0:0:0:
147,301,10901,1,0,1:0:0:0:
87,375,11106,2,0,P|67:350|72:246,1,136,0|8,0:0|0:0,0:0:0:0:
138,184,11723,6,0,P|169:125|156:59,1,136,4|2,1:0|0:0,0:0:0:0:
71,16,12339,1,2,0:0:0:0:
5,85,12545,1,0,0:0:0:0:
5,85,12648,1,2,0:0:0:0:
5,85,12750,1,0,0:0:0:0:
49,169,12956,1,0,0:0:0:0:
143,171,13161,6,0,B|208:161|208:161|238:174|248:190,1,102,8|0,0:0|0:0,0:0:0:0:
258,193,13572,6,0,L|266:47,1,136,4|2,1:0|0:0,0:0:0:0:
265,57,15216,2,0,B|321:36|336:91|409:68,1,136,0|2,0:0|0:0,0:0:0:0:
484,33,16449,1,2,0:0:0:0:
486,128,16860,2,0,L|494:274,1,136,2|2,0:0|0:0,0:0:0:0:
493,263,18504,6,0,P|469:258|374:308,1,136,2|2,0:0|0:0,0:0:0:0:
297,362,19737,1,0,0:0:0:0:
225,298,20148,2,0,B|216:265|216:265|225:151,1,136,2|2,0:0|0:0,0:0:0:0:
224,163,21791,6,0,P|194:181|94:173,1,136,2|2,0:0|0:0,0:0:0:0:
59,86,23024,1,2,0:0:0:0:
117,10,23435,1,0,0:0:0:0:
256,192,23538,12,0,24668,0:0:0:0:
117,10,25079,6,0,L|109:149,1,136,0|0,0:0|0:0,0:0:0:0:
142,235,25695,1,0,0:0:0:0:
149,254,25798,1,0,0:0:0:0:
156,276,25901,2,0,P|195:272|239:271,1,68,0|0,0:0|0:0,0:0:0:0:
311,308,26312,6,0,P|365:269|382:227,1,102,0|0,0:0|0:0,0:0:0:0:
394,247,26723,6,0,L|402:108,1,136,6|2,0:0|0:0,0:0:0:0:
329,49,27339,1,2,0:1:0:0:
260,115,27545,2,0,P|218:113|183:100,1,68,2|2,0:0|0:1,0:0:0:0:
71,42,27956,2,0,P|103:32|137:32,1,68,2|2,0:0|0:1,0:0:0:0:
254,209,28367,6,0,P|208:206|127:167,1,136,2|2,0:0|0:0,0:0:0:0:
38,134,28983,1,2,0:1:0:0:
20,227,29189,2,0,L|25:302,1,68,2|2,0:0|0:1,0:0:0:0:
124,272,29600,2,0,L|119:347,1,68,2|2,0:0|0:1,0:0:0:0:
224,315,30011,6,0,B|293:326|294:278|370:295,1,136,2|2,0:0|0:0,0:0:0:0:
438,339,30627,1,2,0:1:0:0:
484,256,30832,2,0,B|488:211|483:173,1,68,2|2,0:0|0:1,0:0:0:0:
384,149,31243,2,0,B|381:171|385:216,1,68,2|2,0:0|0:1,0:0:0:0:
459,70,31654,6,0,L|299:65,1,136,2|2,0:0|0:0,0:0:0:0:
242,118,32271,1,2,0:1:0:0:
152,85,32476,2,0,P|148:38|147:8,1,68,2|2,0:0|0:1,0:0:0:0:
87,159,32887,2,0,P|85:192|82:226,1,68,2|2,0:0|0:1,0:0:0:0:
74,241,33195,1,0,0:0:0:0:
66,256,33298,6,0,L|221:245,1,136,2|2,0:0|0:0,0:0:0:0:
288,205,33915,1,2,0:1:0:0:
342,282,34120,2,0,P|340:315|337:349,1,68,2|2,0:0|0:1,0:0:0:0:
423,243,34531,2,0,P|427:276|430:310,1,68,2|2,0:0|0:1,0:0:0:0:
480,175,34942,6,0,P|476:68|478:23,1,136,2|2,0:0|0:0,0:0:0:0:
384,14,35558,1,2,0:1:0:0:
309,73,35764,2,0,P|270:71|228:69,1,68,2|2,0:0|0:1,0:0:0:0:
154,29,36175,2,0,P|120:30|86:32,1,68,2|2,0:0|0:1,0:0:0:0:
6,85,36586,6,0,P|2:192|4:237,1,136,2|2,0:0|0:0,0:0:0:0:
65,293,37202,1,2,0:1:0:0:
145,242,37408,2,0,P|190:230|281:289,1,136,2|2,0:0|0:0,0:0:0:0:
340,327,38024,1,2,0:1:0:0:
396,250,38230,6,0,P|396:190|391:163,1,68,0|0,1:0|0:0,0:0:0:0:
320,122,38641,2,0,P|317:88|318:54,1,68,0|0,0:0|0:0,0:0:0:0:
329,40,38949,1,0,0:0:0:0:
342,29,39052,2,0,L|435:34,1,68,0|0,0:0|0:0,0:0:0:0:
239,115,39463,2,0,L|107:108,1,102,8|0,0:0|0:0,0:0:0:0:
122,101,39874,6,0,P|95:163|111:239,1,136,4|2,1:0|0:0,0:0:0:0:
170,298,40490,2,0,L|311:289,1,136,8|0,0:0|0:0,0:0:0:0:
390,332,41106,1,0,0:0:0:0:
431,246,41312,6,0,B|446:202|434:154|434:154|391:126,1,136,2|2,0:0|0:0,0:0:0:0:
307,100,41928,2,0,L|223:107,1,68,2|2,0:0|0:0,0:0:0:0:
155,151,42339,2,0,P|108:148|56:116,1,102,8|0,0:0|0:0,0:0:0:0:
46,111,42750,2,0,L|52:203,1,68,0|2,0:0|0:0,0:0:0:0:
24,270,43161,6,0,B|71:253|95:274|118:295|171:278,1,136,2|2,0:0|0:0,0:0:0:0:
244,243,43778,2,0,P|301:252|342:327,1,136,8|0,0:0|0:0,0:0:0:0:
430,347,44394,1,0,0:0:0:0:
475,262,44600,6,0,L|481:125,1,136,2|2,0:0|0:0,0:0:0:0:
416,55,45216,2,0,P|371:52|338:72,1,68,2|2,0:0|0:0,0:0:0:0:
277,121,45627,2,0,B|222:107|222:107|153:123,1,102,8|2,0:0|0:0,0:0:0:0:
161,123,46038,2,0,L|165:43,1,68,2|2,0:0|0:0,0:0:0:0:
72,173,46449,6,0,L|78:310,2,136,2|2|8,0:0|0:0|0:0,0:0:0:0:
72,173,47682,2,0,P|34:166|-8:169,1,68,2|2,0:0|0:0,0:0:0:0:
162,227,48093,6,0,B|200:241|230:218|255:205|299:221,2,136,2|0|8,0:0|0:0|0:0,0:0:0:0:
162,227,49326,2,0,L|168:301,1,68,0|0,0:0|0:0,0:0:0:0:
259,356,49737,6,0,P|311:349|371:345,1,102.000003890991,4|0,1:0|0:0,0:0:0:0:
452,356,50353,2,0,L|461:232,1,102.000003890991,4|0,1:2|0:0,0:0:0:0:
413,175,50969,1,4,1:2:0:0:
336,207,51175,6,0,P|290:206|241:159,1,102.000003890991,12|0,1:0|0:0,0:0:0:0:
157,163,51791,2,0,L|166:88,1,76.5000029182435,0|0,0:0|0:0,0:0:0:0:
160,71,52202,2,0,P|132:59|101:57,1,51.0000019454957,0|0,0:0|0:0,0:0:0:0:
259,77,52613,2,0,P|284:73|307:62,1,51.0000019454957,0|6,0:0|1:1,0:0:0:0:
