osu file format v13

[General]
AudioFilename: ClariS - STEP.mp3
AudioLeadIn: 0
PreviewTime: 53382
Countdown: 0
SampleSet: Normal
StackLeniency: 0.7
Mode: 1
LetterboxInBreaks: 0
WidescreenStoryboard: 0

[Editor]
Bookmarks: 13519,26670,39820,67766,87492,100642,113793,141738,168040,181190,240368,246738
DistanceSpacing: 0.5
BeatDivisor: 4
GridSize: 4
TimelineZoom: 1.9

[Metadata]
Title:STEP
TitleUnicode:STEP
Artist:ClariS
ArtistUnicode:ClariS
Creator:meetmeetdee
Version:Taiko Futsuu
Source:ニセコイ
Tags:opening nisekoi shaft ichijo raku kirisaki chitoge onodera kosaki tachibana marika tsugumi seishirou mayamoto ruri livetune false fake love kz Nardoxyribonucleic
BeatmapID:429480
BeatmapSetID:178552

[Difficulty]
HPDrainRate:3
CircleSize:4
OverallDifficulty:3
ApproachRate:3
SliderMultiplier:1.4
SliderTickRate:1

[Events]
//Background and Video events
0,0,"BG.jpg",0,100
//Break Periods
//Storyboard Layer 0 (Background)
//Storyboard Layer 1 (Fail)
//Storyboard Layer 2 (Pass)
//Storyboard Layer 3 (Foreground)
//Storyboard Sound Samples
//Background Colour Transformations
3,100,163,162,255

[TimingPoints]
-1275,410.958904109589,4,1,0,50,1,0
5300,-100,4,1,0,80,0,0
13519,-100,4,1,0,50,0,0
25026,-100,4,1,0,60,0,0
26670,-100,4,1,0,70,0,0
54615,-100,4,1,0,80,0,1
80916,-100,4,1,0,80,0,0
87492,-100,4,1,0,50,0,0
98998,-100,4,1,0,60,0,0
100642,-100,4,1,0,70,0,0
128588,-100,4,1,0,80,0,1
154889,-100,4,1,0,40,0,0
168040,-100,4,1,0,70,0,0
210779,-100,4,1,0,50,0,0
214067,-100,4,1,0,40,0,0
223930,-100,4,1,0,50,0,0
225368,-100,4,1,0,70,0,0
227218,-100,4,1,0,80,0,1
238724,-100,4,1,0,60,0,0
240368,-100,4,1,0,80,0,0

[Colours]
Combo1 : 0,255,255
Combo2 : 255,0,0

[HitObjects]
256,192,368,5,8,0:0:0:0:
256,192,985,1,8,0:0:0:0:
256,192,1601,1,8,0:0:0:0:
256,192,2012,1,8,0:0:0:0:
256,192,2629,1,8,0:0:0:0:
256,192,3245,1,8,0:0:0:0:
256,192,3656,1,8,0:0:0:0:
256,192,4272,1,8,0:0:0:0:
256,192,4889,1,8,0:0:0:0:
256,192,5300,1,4,0:0:0:0:
256,192,5505,1,0,0:0:0:0:
256,192,5711,1,8,0:0:0:0:
256,192,6122,1,0,0:0:0:0:
256,192,6533,1,8,0:0:0:0:
256,192,6738,1,8,0:0:0:0:
256,192,6944,1,4,0:0:0:0:
256,192,7766,1,0,0:0:0:0:
256,192,8177,1,8,0:0:0:0:
256,192,8588,1,0,0:0:0:0:
256,192,8998,1,0,0:0:0:0:
256,192,9409,1,8,0:0:0:0:
256,192,9820,1,8,0:0:0:0:
256,192,10026,1,8,0:0:0:0:
256,192,10231,1,4,0:0:0:0:
256,192,10642,1,0,0:0:0:0:
256,192,11053,1,8,0:0:0:0:
256,192,11464,1,8,0:0:0:0:
256,192,11670,1,4,0:0:0:0:
256,192,12081,1,0,0:0:0:0:
256,192,12697,1,8,0:0:0:0:
256,192,13108,1,8,0:0:0:0:
256,192,13519,1,4,0:0:0:0:
256,192,15163,1,8,0:0:0:0:
256,192,15574,1,8,0:0:0:0:
256,192,15985,1,0,0:0:0:0:
256,192,16396,1,8,0:0:0:0:
256,192,16807,1,0,0:0:0:0:
256,192,17629,1,8,0:0:0:0:
256,192,18451,1,0,0:0:0:0:
256,192,18861,1,8,0:0:0:0:
256,192,19272,1,8,0:0:0:0:
256,192,19683,1,0,0:0:0:0:
256,192,20094,1,8,0:0:0:0:
256,192,20916,1,8,0:0:0:0:
256,192,21327,1,0,0:0:0:0:
256,192,21738,1,8,0:0:0:0:
256,192,22560,1,8,0:0:0:0:
256,192,22971,1,8,0:0:0:0:
256,192,23382,1,0,0:0:0:0:
256,192,24204,1,8,0:0:0:0:
256,192,25026,1,0,0:0:0:0:
256,192,25437,1,8,0:0:0:0:
256,192,25642,1,8,0:0:0:0:
256,192,26053,1,8,0:0:0:0:
256,192,26670,1,4,0:0:0:0:
256,192,27492,1,0,0:0:0:0:
256,192,27903,1,8,0:0:0:0:
256,192,28314,1,0,0:0:0:0:
256,192,28724,1,0,0:0:0:0:
256,192,29135,1,8,0:0:0:0:
256,192,29546,1,8,0:0:0:0:
256,192,29752,1,8,0:0:0:0:
256,192,29957,1,0,0:0:0:0:
256,192,30778,1,0,0:0:0:0:
256,192,31189,1,8,0:0:0:0:
256,192,31601,1,0,0:0:0:0:
256,192,32012,1,0,0:0:0:0:
256,192,32423,1,8,0:0:0:0:
256,192,32834,1,0,0:0:0:0:
256,192,33040,1,0,0:0:0:0:
256,192,33245,1,0,0:0:0:0:
256,192,34067,1,0,0:0:0:0:
256,192,34478,1,8,0:0:0:0:
256,192,34889,1,0,0:0:0:0:
256,192,35300,1,8,0:0:0:0:
256,192,35711,1,8,0:0:0:0:
256,192,35916,1,8,0:0:0:0:
256,192,36122,1,8,0:0:0:0:
256,192,36533,1,0,0:0:0:0:
256,192,37355,1,0,0:0:0:0:
256,192,37766,1,8,0:0:0:0:
256,192,38177,1,4,0:0:0:0:
256,192,38588,1,8,0:0:0:0:
256,192,38793,1,0,0:0:0:0:
256,192,39204,1,0,0:0:0:0:
256,192,39409,1,8,0:0:0:0:
256,192,39820,1,4,0:0:0:0:
256,192,40437,1,0,0:0:0:0:
256,192,41259,1,0,0:0:0:0:
256,192,42286,1,8,0:0:0:0:
256,192,42697,1,0,0:0:0:0:
256,192,43108,1,0,0:0:0:0:
256,192,43725,1,8,0:0:0:0:
256,192,44547,1,0,0:0:0:0:
256,192,45574,1,8,0:0:0:0:
256,192,45985,1,8,0:0:0:0:
256,192,46396,1,0,0:0:0:0:
256,192,47218,1,8,0:0:0:0:
256,192,47629,1,0,0:0:0:0:
256,192,48040,1,8,0:0:0:0:
256,192,48861,1,8,0:0:0:0:
256,192,49272,1,0,0:0:0:0:
256,192,49683,1,12,0:0:0:0:
256,192,50300,1,8,0:0:0:0:
256,192,50711,1,8,0:0:0:0:
256,192,50916,1,0,0:0:0:0:
256,192,51122,1,12,0:0:0:0:
256,192,51738,1,0,0:0:0:0:
256,192,52149,1,0,0:0:0:0:
256,192,52355,1,0,0:0:0:0:
256,192,52766,1,8,0:0:0:0:
256,192,53382,1,0,0:0:0:0:
256,192,53793,1,0,0:0:0:0:
256,192,54204,1,8,0:0:0:0:
256,192,54615,1,4,0:0:0:0:
256,192,55026,1,0,0:0:0:0:
256,192,55437,1,8,0:0:0:0:
256,192,55848,1,0,0:0:0:0:
256,192,56053,1,8,0:0:0:0:
256,192,56670,1,0,0:0:0:0:
256,192,57081,1,8,0:0:0:0:
256,192,57492,1,8,0:0:0:0:
256,192,57697,1,8,0:0:0:0:
256,192,57903,1,0,0:0:0:0:
256,192,58314,1,8,0:0:0:0:
256,192,58724,1,8,0:0:0:0:
256,192,59135,1,8,0:0:0:0:
256,192,59341,1,0,0:0:0:0:
256,192,59957,1,0,0:0:0:0:
256,192,60368,1,8,0:0:0:0:
256,192,60779,1,8,0:0:0:0:
256,192,60985,1,0,0:0:0:0:
256,192,61190,1,8,0:0:0:0:
256,192,61601,1,0,0:0:0:0:
256,192,61807,1,8,0:0:0:0:
256,192,62423,1,0,0:0:0:0:
256,192,62834,1,0,0:0:0:0:
256,192,63245,1,8,0:0:0:0:
256,192,63451,1,0,0:0:0:0:
256,192,64067,1,8,0:0:0:0:
256,192,64478,1,8,0:0:0:0:
256,192,64889,1,0,0:0:0:0:
256,192,65094,1,8,0:0:0:0:
256,192,65505,1,8,0:0:0:0:
256,192,65916,1,8,0:0:0:0:
256,192,66327,1,8,0:0:0:0:
256,192,66533,1,0,0:0:0:0:
256,192,66738,1,8,0:0:0:0:
256,192,67355,1,8,0:0:0:0:
256,192,67766,1,4,0:0:0:0:
256,192,68177,1,0,0:0:0:0:
256,192,68588,1,8,0:0:0:0:
256,192,68998,1,8,0:0:0:0:
256,192,69204,1,0,0:0:0:0:
256,192,69820,1,8,0:0:0:0:
256,192,70231,1,0,0:0:0:0:
256,192,70642,1,8,0:0:0:0:
256,192,70848,1,0,0:0:0:0:
256,192,71053,1,0,0:0:0:0:
256,192,71464,1,8,0:0:0:0:
256,192,71875,1,8,0:0:0:0:
256,192,72286,1,0,0:0:0:0:
256,192,72492,1,8,0:0:0:0:
256,192,73108,1,0,0:0:0:0:
256,192,73519,1,8,0:0:0:0:
256,192,73930,1,0,0:0:0:0:
256,192,74135,1,8,0:0:0:0:
256,192,74341,1,0,0:0:0:0:
256,192,74752,1,8,0:0:0:0:
256,192,74957,1,0,0:0:0:0:
256,192,75574,1,0,0:0:0:0:
256,192,75985,1,8,0:0:0:0:
256,192,76396,1,0,0:0:0:0:
256,192,76601,1,8,0:0:0:0:
256,192,77218,1,8,0:0:0:0:
256,192,77629,1,4,0:0:0:0:
256,192,78040,1,8,0:0:0:0:
256,192,78245,1,0,0:0:0:0:
256,192,78656,1,8,0:0:0:0:
256,192,79067,1,0,0:0:0:0:
256,192,79272,1,0,0:0:0:0:
256,192,79683,1,8,0:0:0:0:
256,192,79889,1,0,0:0:0:0:
256,192,80300,1,0,0:0:0:0:
256,192,80505,1,8,0:0:0:0:
256,192,80916,1,4,0:0:0:0:
256,192,81738,1,0,0:0:0:0:
256,192,82149,1,8,0:0:0:0:
256,192,82560,1,0,0:0:0:0:
256,192,82971,1,8,0:0:0:0:
256,192,83382,1,0,0:0:0:0:
256,192,83793,1,8,0:0:0:0:
256,192,83998,1,8,0:0:0:0:
256,192,84204,1,4,0:0:0:0:
256,192,85026,1,8,0:0:0:0:
256,192,85437,1,0,0:0:0:0:
256,192,85642,1,8,0:0:0:0:
256,192,86053,1,8,0:0:0:0:
256,192,86464,1,8,0:0:0:0:
256,192,86670,1,0,0:0:0:0:
256,192,87081,1,8,0:0:0:0:
256,192,87492,1,4,0:0:0:0:
256,192,88314,1,0,0:0:0:0:
256,192,89135,1,0,0:0:0:0:
256,192,89546,1,8,0:0:0:0:
256,192,89957,1,8,0:0:0:0:
256,192,90368,1,0,0:0:0:0:
256,192,90574,1,0,0:0:0:0:
256,192,90779,1,8,0:0:0:0:
256,192,91601,1,8,0:0:0:0:
256,192,92423,1,0,0:0:0:0:
256,192,92834,1,0,0:0:0:0:
256,192,93245,1,8,0:0:0:0:
256,192,93656,1,0,0:0:0:0:
256,192,93861,1,0,0:0:0:0:
256,192,94067,1,8,0:0:0:0:
256,192,94889,1,0,0:0:0:0:
256,192,95300,1,8,0:0:0:0:
256,192,95505,1,0,0:0:0:0:
256,192,95711,1,0,0:0:0:0:
256,192,96122,1,0,0:0:0:0:
256,192,96533,1,8,0:0:0:0:
256,192,96944,1,8,0:0:0:0:
256,192,97355,1,0,0:0:0:0:
256,192,98177,1,8,0:0:0:0:
256,192,98588,1,8,0:0:0:0:
256,192,98793,1,8,0:0:0:0:
256,192,98998,1,4,0:0:0:0:
256,192,99409,1,8,0:0:0:0:
256,192,99615,1,0,0:0:0:0:
256,192,100026,1,8,0:0:0:0:
256,192,100642,1,4,0:0:0:0:
256,192,101464,1,0,0:0:0:0:
256,192,101875,1,8,0:0:0:0:
256,192,102286,1,0,0:0:0:0:
256,192,102697,1,0,0:0:0:0:
256,192,103108,1,8,0:0:0:0:
256,192,103519,1,8,0:0:0:0:
256,192,103725,1,0,0:0:0:0:
256,192,103930,1,0,0:0:0:0:
256,192,104752,1,0,0:0:0:0:
256,192,105163,1,8,0:0:0:0:
256,192,105574,1,0,0:0:0:0:
256,192,105985,1,0,0:0:0:0:
256,192,106396,1,8,0:0:0:0:
256,192,106807,1,0,0:0:0:0:
256,192,107012,1,0,0:0:0:0:
256,192,107218,1,0,0:0:0:0:
256,192,108040,1,0,0:0:0:0:
256,192,108451,1,8,0:0:0:0:
256,192,108861,1,0,0:0:0:0:
256,192,109272,1,0,0:0:0:0:
256,192,109683,1,8,0:0:0:0:
256,192,110094,1,8,0:0:0:0:
256,192,110300,1,8,0:0:0:0:
256,192,110505,1,0,0:0:0:0:
256,192,111327,1,0,0:0:0:0:
256,192,111738,1,0,0:0:0:0:
256,192,111944,1,8,0:0:0:0:
256,192,112149,1,0,0:0:0:0:
256,192,112560,1,8,0:0:0:0:
256,192,112766,1,0,0:0:0:0:
256,192,113177,1,0,0:0:0:0:
256,192,113382,1,8,0:0:0:0:
256,192,113793,1,4,0:0:0:0:
256,192,114409,1,8,0:0:0:0:
256,192,115231,1,8,0:0:0:0:
256,192,116259,1,8,0:0:0:0:
256,192,116670,1,0,0:0:0:0:
256,192,117081,1,0,0:0:0:0:
256,192,117697,1,8,0:0:0:0:
256,192,118519,1,8,0:0:0:0:
256,192,119546,1,0,0:0:0:0:
256,192,119957,1,8,0:0:0:0:
256,192,120368,1,0,0:0:0:0:
256,192,121190,1,8,0:0:0:0:
256,192,121601,1,0,0:0:0:0:
256,192,122012,1,8,0:0:0:0:
256,192,122834,1,8,0:0:0:0:
256,192,123245,1,0,0:0:0:0:
256,192,123656,1,12,0:0:0:0:
256,192,124272,1,8,0:0:0:0:
256,192,124683,1,8,0:0:0:0:
256,192,124889,1,0,0:0:0:0:
256,192,125094,1,12,0:0:0:0:
256,192,125711,1,0,0:0:0:0:
256,192,126122,1,0,0:0:0:0:
256,192,126533,1,0,0:0:0:0:
256,192,126738,1,12,0:0:0:0:
256,192,127355,1,0,0:0:0:0:
256,192,127766,1,0,0:0:0:0:
256,192,128177,1,8,0:0:0:0:
256,192,128588,1,4,0:0:0:0:
256,192,128998,1,0,0:0:0:0:
256,192,129409,1,8,0:0:0:0:
256,192,129820,1,8,0:0:0:0:
256,192,130026,1,8,0:0:0:0:
256,192,130642,1,8,0:0:0:0:
256,192,131053,1,0,0:0:0:0:
256,192,131464,1,8,0:0:0:0:
256,192,131670,1,8,0:0:0:0:
256,192,131875,1,0,0:0:0:0:
256,192,132286,1,8,0:0:0:0:
256,192,132697,1,8,0:0:0:0:
256,192,133108,1,8,0:0:0:0:
256,192,133314,1,0,0:0:0:0:
256,192,133930,1,0,0:0:0:0:
256,192,134341,1,8,0:0:0:0:
256,192,134752,1,8,0:0:0:0:
256,192,134957,1,8,0:0:0:0:
256,192,135163,1,0,0:0:0:0:
256,192,135574,1,8,0:0:0:0:
256,192,135779,1,8,0:0:0:0:
256,192,136396,1,8,0:0:0:0:
256,192,136807,1,0,0:0:0:0:
256,192,137218,1,8,0:0:0:0:
256,192,137423,1,0,0:0:0:0:
256,192,138040,1,0,0:0:0:0:
256,192,138451,1,8,0:0:0:0:
256,192,138861,1,0,0:0:0:0:
256,192,139067,1,8,0:0:0:0:
256,192,139478,1,8,0:0:0:0:
256,192,139889,1,8,0:0:0:0:
256,192,140300,1,8,0:0:0:0:
256,192,140505,1,8,0:0:0:0:
256,192,140711,1,0,0:0:0:0:
256,192,141327,1,8,0:0:0:0:
256,192,141738,1,4,0:0:0:0:
256,192,142149,1,0,0:0:0:0:
256,192,142560,1,8,0:0:0:0:
256,192,142971,1,0,0:0:0:0:
256,192,143177,1,8,0:0:0:0:
256,192,143793,1,8,0:0:0:0:
256,192,144204,1,0,0:0:0:0:
256,192,144615,1,8,0:0:0:0:
256,192,144820,1,8,0:0:0:0:
256,192,145026,1,0,0:0:0:0:
256,192,145437,1,8,0:0:0:0:
256,192,145848,1,8,0:0:0:0:
256,192,146259,1,8,0:0:0:0:
256,192,146464,1,0,0:0:0:0:
256,192,147081,1,8,0:0:0:0:
256,192,147492,1,0,0:0:0:0:
256,192,147903,1,8,0:0:0:0:
256,192,148108,1,8,0:0:0:0:
256,192,148314,1,0,0:0:0:0:
256,192,148725,1,0,0:0:0:0:
256,192,148930,1,8,0:0:0:0:
256,192,149546,1,0,0:0:0:0:
256,192,149957,1,0,0:0:0:0:
256,192,150368,1,0,0:0:0:0:
256,192,150574,1,8,0:0:0:0:
256,192,151190,1,8,0:0:0:0:
256,192,151601,1,4,0:0:0:0:
256,192,152012,1,0,0:0:0:0:
256,192,152218,1,8,0:0:0:0:
256,192,152629,1,8,0:0:0:0:
256,192,153040,1,0,0:0:0:0:
256,192,153245,1,0,0:0:0:0:
256,192,153656,1,8,0:0:0:0:
256,192,153861,1,0,0:0:0:0:
256,192,154272,1,0,0:0:0:0:
256,192,154478,1,8,0:0:0:0:
256,192,154889,1,4,0:0:0:0:
256,192,156533,1,8,0:0:0:0:
256,192,157355,1,0,0:0:0:0:
256,192,158177,1,8,0:0:0:0:
256,192,158998,1,0,0:0:0:0:
256,192,159820,1,8,0:0:0:0:
256,192,160642,1,8,0:0:0:0:
256,192,161053,1,0,0:0:0:0:
256,192,161464,1,8,0:0:0:0:
256,192,162286,1,8,0:0:0:0:
256,192,162697,1,8,0:0:0:0:
256,192,162903,1,8,0:0:0:0:
256,192,163108,1,8,0:0:0:0:
256,192,163930,1,8,0:0:0:0:
256,192,164341,1,0,0:0:0:0:
256,192,164752,1,8,0:0:0:0:
256,192,165574,1,0,0:0:0:0:
256,192,166396,1,0,0:0:0:0:
256,192,166807,1,0,0:0:0:0:
256,192,167218,1,8,0:0:0:0:
256,192,167629,1,8,0:0:0:0:
256,192,168040,1,4,0:0:0:0:
256,192,168861,1,8,0:0:0:0:
256,192,169272,1,0,0:0:0:0:
256,192,169683,1,8,0:0:0:0:
256,192,170505,1,8,0:0:0:0:
256,192,170916,1,0,0:0:0:0:
256,192,171327,1,0,0:0:0:0:
256,192,172149,1,8,0:0:0:0:
256,192,172560,1,0,0:0:0:0:
256,192,172971,1,8,0:0:0:0:
256,192,173793,1,8,0:0:0:0:
256,192,174204,1,8,0:0:0:0:
256,192,174615,1,0,0:0:0:0:
256,192,175437,1,8,0:0:0:0:
256,192,176259,1,0,0:0:0:0:
256,192,177081,1,8,0:0:0:0:
256,192,177492,1,0,0:0:0:0:
256,192,177903,1,8,0:0:0:0:
256,192,178725,1,8,0:0:0:0:
256,192,179135,1,8,0:0:0:0:
256,192,179546,1,0,0:0:0:0:
256,192,179957,1,0,0:0:0:0:
256,192,180368,1,8,0:0:0:0:
256,192,180779,1,8,0:0:0:0:
256,192,181190,5,4,0:0:0:0:
256,192,181807,1,0,0:0:0:0:
256,192,182834,1,0,0:0:0:0:
256,192,183245,1,0,0:0:0:0:
256,192,183656,1,8,0:0:0:0:
256,192,184067,1,0,0:0:0:0:
256,192,184478,1,8,0:0:0:0:
256,192,185094,1,8,0:0:0:0:
256,192,186122,1,8,0:0:0:0:
256,192,186533,1,0,0:0:0:0:
256,192,186944,1,8,0:0:0:0:
256,192,187355,1,8,0:0:0:0:
256,192,187560,1,0,0:0:0:0:
256,192,187766,1,0,0:0:0:0:
256,192,188382,1,8,0:0:0:0:
256,192,188998,1,0,0:0:0:0:
256,192,189820,1,0,0:0:0:0:
256,192,190231,1,8,0:0:0:0:
256,192,190642,1,8,0:0:0:0:
256,192,191053,1,0,0:0:0:0:
256,192,191670,1,8,0:0:0:0:
256,192,192697,1,8,0:0:0:0:
256,192,193108,1,0,0:0:0:0:
256,192,193519,1,8,0:0:0:0:
256,192,193930,1,0,0:0:0:0:
256,192,194341,1,4,0:0:0:0:
256,192,194957,1,8,0:0:0:0:
256,192,195985,1,8,0:0:0:0:
256,192,196396,1,0,0:0:0:0:
256,192,196807,1,8,0:0:0:0:
256,192,197218,1,8,0:0:0:0:
256,192,197629,1,0,0:0:0:0:
256,192,198245,1,8,0:0:0:0:
256,192,198861,1,0,0:0:0:0:
256,192,199272,1,0,0:0:0:0:
256,192,199683,1,8,0:0:0:0:
256,192,200094,1,8,0:0:0:0:
256,192,200505,1,8,0:0:0:0:
256,192,200916,1,4,0:0:0:0:
256,192,201533,1,0,0:0:0:0:
256,192,202149,1,12,0:0:0:0:
256,192,202971,1,0,0:0:0:0:
256,192,203382,1,8,0:0:0:0:
256,192,203793,1,8,0:0:0:0:
256,192,204204,1,4,0:0:0:0:
256,192,204820,1,0,0:0:0:0:
256,192,205437,1,12,0:0:0:0:
256,192,206464,1,8,0:0:0:0:
256,192,206670,1,8,0:0:0:0:
256,192,207081,1,8,0:0:0:0:
256,192,207492,1,4,0:0:0:0:
256,192,207903,1,0,0:0:0:0:
256,192,208314,1,8,0:0:0:0:
256,192,208725,1,8,0:0:0:0:
256,192,208930,1,0,0:0:0:0:
256,192,209546,1,8,0:0:0:0:
256,192,209957,1,8,0:0:0:0:
256,192,210368,1,0,0:0:0:0:
256,192,210779,12,0,212423,0:0:0:0:
256,192,212834,5,0,0:0:0:0:
256,192,213245,1,8,0:0:0:0:
256,192,213656,1,8,0:0:0:0:
256,192,214067,1,0,0:0:0:0:
256,192,214889,1,0,0:0:0:0:
256,192,215300,1,8,0:0:0:0:
256,192,215505,1,8,0:0:0:0:
256,192,216533,1,8,0:0:0:0:
256,192,216944,1,8,0:0:0:0:
256,192,217355,1,0,0:0:0:0:
256,192,217766,1,8,0:0:0:0:
256,192,218177,1,8,0:0:0:0:
256,192,218588,1,0,0:0:0:0:
256,192,218793,1,0,0:0:0:0:
256,192,219820,1,8,0:0:0:0:
256,192,220231,1,8,0:0:0:0:
256,192,220642,1,0,0:0:0:0:
256,192,221053,1,0,0:0:0:0:
256,192,221259,1,8,0:0:0:0:
256,192,221875,1,8,0:0:0:0:
256,192,222286,1,0,0:0:0:0:
256,192,222697,1,8,0:0:0:0:
256,192,222903,1,0,0:0:0:0:
256,192,223930,1,0,0:0:0:0:
256,192,224341,1,8,0:0:0:0:
256,192,224546,1,8,0:0:0:0:
256,192,224957,1,8,0:0:0:0:
256,192,225368,1,4,0:0:0:0:
256,192,225779,1,8,0:0:0:0:
256,192,225985,1,0,0:0:0:0:
256,192,226190,1,8,0:0:0:0:
256,192,226807,1,8,0:0:0:0:
256,192,227218,1,4,0:0:0:0:
256,192,227629,1,0,0:0:0:0:
256,192,228040,1,8,0:0:0:0:
256,192,228451,1,8,0:0:0:0:
256,192,228656,1,0,0:0:0:0:
256,192,229272,1,0,0:0:0:0:
256,192,229683,1,8,0:0:0:0:
256,192,230094,1,8,0:0:0:0:
256,192,230300,1,8,0:0:0:0:
256,192,230505,1,0,0:0:0:0:
256,192,230916,1,8,0:0:0:0:
256,192,231327,1,8,0:0:0:0:
256,192,231738,1,0,0:0:0:0:
256,192,231944,1,8,0:0:0:0:
256,192,232560,1,8,0:0:0:0:
256,192,232971,1,0,0:0:0:0:
256,192,233382,1,8,0:0:0:0:
256,192,233588,1,0,0:0:0:0:
256,192,233793,1,0,0:0:0:0:
256,192,234204,1,8,0:0:0:0:
256,192,234409,1,0,0:0:0:0:
256,192,235026,1,8,0:0:0:0:
256,192,235437,1,0,0:0:0:0:
256,192,235848,1,8,0:0:0:0:
256,192,236053,1,0,0:0:0:0:
256,192,236670,1,8,0:0:0:0:
256,192,237081,1,4,0:0:0:0:
256,192,237492,1,8,0:0:0:0:
256,192,237697,1,0,0:0:0:0:
256,192,238108,1,0,0:0:0:0:
256,192,238314,1,8,0:0:0:0:
256,192,238724,5,8,0:0:0:0:
256,192,239135,1,8,0:0:0:0:
256,192,239341,1,0,0:0:0:0:
256,192,239752,1,0,0:0:0:0:
256,192,239957,1,8,0:0:0:0:
256,192,240368,5,4,0:0:0:0:
256,192,241190,1,0,0:0:0:0:
256,192,241601,1,8,0:0:0:0:
256,192,242012,1,0,0:0:0:0:
256,192,242423,1,8,0:0:0:0:
256,192,242629,1,0,0:0:0:0:
256,192,243040,1,0,0:0:0:0:
256,192,243245,1,8,0:0:0:0:
256,192,243656,1,0,0:0:0:0:
256,192,244478,1,8,0:0:0:0:
256,192,244889,1,0,0:0:0:0:
256,192,245094,1,8,0:0:0:0:
256,192,245505,1,0,0:0:0:0:
256,192,245916,1,8,0:0:0:0:
256,192,246122,1,8,0:0:0:0:
256,192,246533,1,0,0:0:0:0:
256,192,246738,5,4,0:0:0:0:
